<?xml version="1.0" standalone="no"?>
<!DOCTYPE svg PUBLIC "-//W3C//DTD SVG 1.1//EN" "http://www.w3.org/Graphics/SVG/1.1/DTD/svg11.dtd" >
<svg xmlns="http://www.w3.org/2000/svg" xmlns:xlink="http://www.w3.org/1999/xlink" version="1.1">
<metadata>
Created by FontForge 20190801 at Tue Aug  1 17:26:53 2023
 By www-data
Copyright (c) Font Awesome
</metadata>
<defs>
<font id="FontAwesome6BrandsRegular400" horiz-adv-x="448" >
  <font-face 
    font-family="FontAwesome6BrandsRegular400"
    font-weight="400"
    font-stretch="normal"
    units-per-em="512"
    panose-1="2 0 5 3 0 0 0 0 0 0"
    ascent="448"
    descent="-64"
    x-height="414"
    bbox="-8.25 -67.7826 642 449"
    underline-thickness="25"
    underline-position="-74"
    unicode-range="U+0020-1F4B2"
  />
<missing-glyph horiz-adv-x="384" 
d="M64 58v268l90 -134zM102 0l90 134l90 -134h-180zM230 192l90 134v-268zM282 384l-90 -134l-90 134h180zM0 400v-416q0 -20 14 -34t34 -14h288q20 0 34 14t14 34v416q0 20 -14 34t-34 14h-288q-20 0 -34 -14t-14 -34z" />
    <glyph glyph-name="exclamation" unicode="exclamation" horiz-adv-x="64" 
d="M64 384v-256q0 -13 -9.5 -22.5t-22.5 -9.5t-22.5 9.5t-9.5 22.5v256q0 13 9.5 22.5t22.5 9.5t22.5 -9.5t9.5 -22.5zM32 -32q-23 0 -34.5 20t0 40t34.5 20t34.5 -20t0 -40t-34.5 -20z" />
    <glyph glyph-name="hashtag" unicode="hashtag" 
d="M181 415.5q-13 2.5 -23.5 -5.5t-13.5 -21l-11 -69h-69q-13 0 -22.5 -9.5t-9.5 -22.5t9.5 -22.5t22.5 -9.5h58l-21 -128h-69q-13 0 -22.5 -9.5t-9.5 -22.5t9.5 -22.5t22.5 -9.5h58l-10 -59q-1 -8 2 -16t9.5 -13.5t15 -7t16.5 1.5t13.5 9.5t7.5 15.5l11 69h95l-10 -59
q-2 -13 6 -23.5t21 -13t23.5 5.5t13.5 21l11 69h69q13 0 22.5 9.5t9.5 22.5t-9.5 22.5t-22.5 9.5h-58l21 128h69q13 0 22.5 9.5t9.5 22.5t-9.5 22.5t-22.5 9.5h-58l10 59q2 13 -6 23.5t-21 13t-23.5 -5.5t-13.5 -21l-11 -69h-95l10 59q2 13 -6 23.5t-21 13zM187 256h95
l-21 -128h-95z" />
    <glyph glyph-name="dollar-sign" unicode="dollar&#x2d;sign" horiz-adv-x="320" 
d="M160 448q-9 0 -16 -4.5t-11.5 -11.5t-4.5 -16v-35q-24 -4 -43 -11q-59 -23 -69 -76q-6 -33 7 -59q11 -24 35 -40q26 -17 90 -34l3 -1q56 -15 74 -26q9 -6 13 -13q3 -8 1 -21q-4 -19 -27 -28q-29 -13 -76 -6q-41 7 -75 22q-12 5 -24.5 0.5t-18 -16.5t-0.5 -24.5t17 -18.5
q42 -18 91 -26h1h1v-35q0 -13 9.5 -22.5t22.5 -9.5t22.5 9.5t9.5 22.5v33q24 3 44 11q56 23 66 77q6 33 -6 59q-11 23 -36 40q-26 16 -90 33l-3 1q-56 15 -73 26q-10 7 -13 14q-4 7 -1 20q3 18 28 28q33 13 79 6l47 -8q13 -3 24 4.5t13.5 20.5t-5 24t-20.5 14l-48 8l-1 1h-5
v36q0 13 -9.5 22.5t-22.5 9.5z" />
    <glyph glyph-name="percent" unicode="percentage" horiz-adv-x="384" 
d="M375 329l-320 -320q-10 -9 -23 -9t-22.5 9.5t-9.5 22.5t9 23l320 320q10 9 23 9t22.5 -9.5t9.5 -22.5t-9 -23zM128 320q0 -37 -32 -55q-15 -9 -32 -9t-32 9q-32 18 -32 55t32 55q15 9 32 9t32 -9q32 -18 32 -55zM384 64q0 -17 -8.5 -32t-23.5 -23q-32 -19 -64 -0.5
t-32 55.5t32 55.5t64 0t32 -55.5z" />
    <glyph glyph-name="asterisk" unicode="asterisk" horiz-adv-x="384" 
d="M192 416q-13 0 -22.5 -9.5t-9.5 -22.5v-136l-112 68q-11 6 -24 3t-19.5 -14.5t-3.5 -24.5t15 -19l114 -69l-114 -68q-12 -7 -15 -20t3.5 -24.5t19.5 -14.5t24 4l112 67v-136q0 -13 9.5 -22.5t22.5 -9.5t22.5 9.5t9.5 22.5v136l112 -68q11 -6 24 -3t19.5 14.5t3.5 24.5
t-15 19l-114 69l114 68q12 7 15 20t-3.5 24.5t-19.5 14.5t-24 -4l-112 -67v136q0 13 -9.5 22.5t-22.5 9.5z" />
    <glyph glyph-name="plus" unicode="add" 
d="M256 368v-144h144q13 0 22.5 -9.5t9.5 -22.5t-9.5 -22.5t-22.5 -9.5h-144v-144q0 -13 -9.5 -22.5t-22.5 -9.5t-22.5 9.5t-9.5 22.5v144h-144q-13 0 -22.5 9.5t-9.5 22.5t9.5 22.5t22.5 9.5h144v144q0 13 9.5 22.5t22.5 9.5t22.5 -9.5t9.5 -22.5z" />
    <glyph glyph-name="hyphen" unicode="hyphen" horiz-adv-x="320" 
d="M0 192q0 -13 9.5 -22.5t22.5 -9.5h256q13 0 22.5 9.5t9.5 22.5t-9.5 22.5t-22.5 9.5h-256q-13 0 -22.5 -9.5t-9.5 -22.5z" />
    <glyph glyph-name="less-than" unicode="less&#x2d;than" horiz-adv-x="384" 
d="M381 366q-6 12 -18.5 16.5t-24.5 -1.5l-320 -160q-18 -9 -18 -29t18 -29l320 -160q12 -6 24.5 -1.5t18.5 16.5t1.5 24.5t-16.5 18.5l-262 131l262 131q12 6 16.5 18.5t-1.5 24.5z" />
    <glyph glyph-name="equals" unicode="equals" 
d="M48 320h352q13 0 22.5 -9.5t9.5 -22.5t-9.5 -22.5t-22.5 -9.5h-352q-13 0 -22.5 9.5t-9.5 22.5t9.5 22.5t22.5 9.5zM48 128h352q13 0 22.5 -9.5t9.5 -22.5t-9.5 -22.5t-22.5 -9.5h-352q-13 0 -22.5 9.5t-9.5 22.5t9.5 22.5t22.5 9.5z" />
    <glyph glyph-name="greater-than" unicode="greater&#x2d;than" horiz-adv-x="384" 
d="M3 366q6 12 18.5 16.5t24.5 -1.5l320 -160q18 -9 18 -29t-18 -29l-320 -160q-12 -6 -24.5 -1.5t-18.5 16.5t-1.5 24.5t16.5 18.5l262 131l-262 131q-12 6 -16.5 18.5t1.5 24.5zM3 366z" />
    <glyph glyph-name="question" unicode="question" horiz-adv-x="320" 
d="M80 288q0 -13 -9.5 -22.5t-22.5 -9.5t-22.5 9.5t-9.5 22.5q0 53 37.5 90.5t90.5 37.5h32q53 0 90.5 -37.5t37.5 -90.5v-4q0 -32 -15.5 -61t-43.5 -46l-42 -27q-11 -8 -11 -21v-1q0 -13 -9.5 -22.5t-22.5 -9.5t-22.5 9.5t-9.5 22.5v2q0 48 40 74l43 27q29 18 29 53v4
q0 26 -19 45t-45 19h-32q-26 0 -45 -19t-19 -45zM160 -32q-23 0 -35 20q-5 9 -5 20t5 20q12 20 35 20t35 -20q5 -9 5 -20t-5 -20q-12 -20 -35 -20z" />
    <glyph glyph-name="at" unicode="at" horiz-adv-x="512" 
d="M256 384q52 0 96.5 -25.5t70 -70t25.5 -96.5v-32q0 -13 -9.5 -22.5t-22.5 -9.5t-22.5 9.5t-9.5 22.5v32v80q0 13 -9.5 22.5t-22.5 9.5q-12 0 -21 -8q-34 24 -75 24q-53 0 -90.5 -37.5t-37.5 -90.5t37.5 -90.5t90.5 -37.5q50 0 87 34q29 -34 73 -34q40 0 68 28t28 68v32
q0 106 -75 181t-181 75t-181 -75t-75 -181t75 -181t181 -75q13 0 22.5 9.5t9.5 22.5t-9.5 22.5t-22.5 9.5q-80 0 -136 56t-56 136t56 136t136 56zM320 192q0 -37 -32 -55q-15 -9 -32 -9t-32 9q-32 18 -32 55t32 55q15 9 32 9t32 -9q32 -18 32 -55z" />
    <glyph glyph-name="firefox-browser" unicode="firefox&#x2d;browser" horiz-adv-x="512" 
d="M130 320zM482 275l1 -3.5t3.5 -9.5t4.5 -15t4 -20.5t3.5 -24t1 -28t-3.5 -31.5q-13 -87 -81.5 -145t-158.5 -58q-101 0 -172.5 71.5t-71.5 172.5q0 22 7 53q13 57 55 101q11 11 24 20q1 1 4.5 3l3.5 2q-3 -47 9 -61q28 31 59 45q-8 -30 0 -60q3 -2 7 -4q3 -3 16 -17
q8 -7 22.5 -15t25.5 -13.5t11 -6.5q0 -4 -12 -15.5t-17 -11.5q-19 0 -34.5 -4t-24 -10.5t-13.5 -12.5t-7 -10l-2 -5q3 -32 31 -60.5t70 -29.5q43 -2 72 21t36 54.5t-6 64.5t-45 49q31 5 59 -15q-7 13 -18 25.5t-36 25t-53 12.5q-26 0 -50 -12h-1h-2t-2.5 0.5t-2 1.5t-0.5 3
q-1 2 0 4t3 3q23 11 48 12q6 36 27.5 70t55.5 53q1 0 1 -1t0.5 -2.5t2 -4t3.5 -7t6 -10.5q13 -20 55 -68.5t57 -88.5v1q-5 36 -24 74q8 -4 17.5 -14t17.5 -22.5t14 -25.5z" />
    <glyph glyph-name="ideal" unicode="ideal" horiz-adv-x="576" 
d="M126 283q20 0 34.5 -14.5t14.5 -35.5q0 -14 -8.5 -26.5t-22.5 -18.5q-30 -12 -53 11t-11 53q6 14 18.5 22.5t27.5 8.5zM86 22v141h79v-141h-79zM238 234q0 -24 -19 -24h-14v46h14q19 0 19 -22zM439 188h57q-3 -166 -196 -166h-95v166h14q19 0 30 12t11 34q0 21 -11 33
t-30 12h-14v83h95q185 0 196 -152h-34v69h-23v-91zM330 188v22h-34v13h30v23h-30v10h32v23h-55v-91h57zM404 188h24l-28 91h-32l-28 -91h24l5 17h30zM300 416q62 0 109 -15.5t73.5 -38.5t42.5 -55t21 -59t5 -55q0 -109 -65 -167t-186 -58h-268v448h268zM300 -11
q112 0 171 51.5t59 152.5t-60.5 151.5t-169.5 50.5h-247v-406h247zM384 254h1l7 -26h-16zM384 254z" />
    <glyph glyph-name="microblog" unicode="microblog" 
d="M399 86h1q-21 -24 -22 -55t18 -56q1 -1 1 -3q-1 -5 -6 -4q-51 12 -79 50q-4 4 -9 3q-38 -14 -79 -14q-92 0 -157 60t-65 144.5t65 144.5t157 60t157 -60t65 -144q0 -71 -47 -126zM330 236q3 2 1.5 6.5t-5.5 4.5l-72 2l-24 68q-1 4 -6 4t-6 -4l-24 -68l-72 -2
q-4 0 -5.5 -4.5t1.5 -6.5l58 -44l-21 -69q-1 -4 2.5 -7t7.5 0l59 41l59 -41q4 -3 7.5 0t2.5 7l-21 69zM330 236z" />
    <glyph glyph-name="square-pied-piper" unicode="pied&#x2d;piper&#x2d;square" 
d="M32 29q72 116 161 218q49 57 117 102t137 67h-327q-49 0 -84 -35t-35 -84l-1 -328zM448 416v-329q0 -49 -35 -84t-84 -35h-329q13 17 38.5 36t46.5 30l27.5 12.5t28.5 12.5t26 13.5t24 17.5q18 18 30 44t22.5 62t18.5 53q12 28 35.5 55.5t48.5 47t48.5 34.5t38.5 23z
M448 416z" />
    <glyph glyph-name="unity" unicode="unity" 
d="M244 356v92l204 -119v-239l-78 46v93q0 3 -2.5 4t-4.5 0l-95 -56q-5 -2 -5 -7v-112q0 -2 2.5 -3.5t4.5 -0.5l80 47l78 -46l-204 -119l-204 119l78 46l80 -47q2 -1 4.5 0.5t2.5 3.5v112q0 5 -5 7l-95 56q-2 1 -4.5 0t-2.5 -4v-93l-78 -46v239l204 119v-92l-80 -46
q-2 -2 -2 -4.5t2 -3.5l96 -56q4 -3 9 0l95 56q2 1 2 3.5t-2 4.5z" />
    <glyph glyph-name="dailymotion" unicode="dailymotion" 
d="M299 181q11 -6 17 -17t6 -23q0 -21 -13.5 -35t-34.5 -14q-20 0 -33 13.5t-13 35.5q0 20 13.5 33t33.5 13q13 0 24 -6zM0 416h448v-448h-448v448zM375 43v264l-56 -12v-78q-12 12 -25 17q-14 6 -30 5q-26 0 -48 -13q-21 -13 -32 -36q-12 -22 -12 -50t11 -51q12 -22 33 -35
q22 -14 49 -14q40 0 56 27h1v-24h53zM375 43z" />
    <glyph glyph-name="square-instagram" unicode="instagram&#x2d;square" 
d="M224 245q22 0 37.5 -15.5t15.5 -37.5q0 -16 -9 -29.5t-24 -19.5q-32 -14 -57.5 11t-11.5 58q6 15 19.5 24t29.5 9zM349 286q6 -16 6 -94t-6 -94q-9 -22 -31 -31q-16 -6 -94 -6t-94 6q-22 9 -31 31q-6 16 -6 94t6 94q9 22 31 31q16 6 94 6t94 -6q22 -9 31 -31zM224 110
q34 0 58 24t24 58q0 25 -14 45.5t-37 30t-47 5t-42 -22.5t-22.5 -42t4.5 -47q7 -16 18.5 -27.5t26.5 -17.5t31 -6zM309 258q8 0 14 6t6 13q0 13 -12 18t-21 -4t-4 -21t17 -12zM400 416q20 0 34 -14t14 -34v-352q0 -20 -14 -34t-34 -14h-352q-20 0 -34 14t-14 34v352
q0 20 14 34t34 14h352zM383 126q1 20 1 66t-1 66q-2 43 -26 67t-67 26q-20 1 -66 1t-66 -1q-43 -2 -67 -26t-26 -67q-1 -20 -1 -66t1 -66q2 -43 26 -67t67 -26q20 -1 66 -1t66 1q43 2 67 26t26 67z" />
    <glyph glyph-name="mixer" unicode="mixer" horiz-adv-x="512" 
d="M115 372l128 -172q5 -8 0 -15l-129 -173q-12 -16 -32.5 -18t-35.5 12q-13 12 -14 30t10 32l92 125l-92 123q-10 14 -9 32t14 30q15 14 35 12t33 -18zM470 68q11 -14 10 -32t-14 -30q-15 -14 -35.5 -12t-32.5 18l-129 174q-5 7 0 14l128 172q13 16 33 18t35 -12
q13 -12 14 -30t-9 -32l-92 -123z" />
    <glyph glyph-name="shopify" unicode="shopify" 
d="M388 344l55 -368l-126 -31v433l30 -29q35 -1 37 -1q4 0 4 -4zM289 378l14 4h5v-438l-303 52q37 282 38 292t3.5 12.5t12.5 5.5q1 1 48 15q4 35 26 70q30 48 68 49q19 1 30 -12l1.5 -1.5l0.5 -0.5h4q28 0 44 -31q5 -8 8 -17zM233 360q1 29 -8 48q-8 -4 -17 -13
q-18 -20 -25 -50q8 2 25 7.5t25 7.5zM201 424q-26 -1 -48.5 -32.5t-29.5 -65.5q16 5 42 13q8 41 31 67q10 10 19 14q-7 4 -14 4zM154 203q0 5 1 9t8 10t21 7q9 1 18.5 -0.5t14.5 -3.5l4 -2l16 57q-2 1 -5 2t-13 2.5t-22 0.5q-47 -3 -72 -31.5t-22 -66.5q1 -18 10.5 -31.5
t20.5 -19.5t20 -15.5t10 -20.5q0 -4 -1.5 -8.5t-6.5 -8t-11 -3.5q-10 -1 -22 4t-19 10l-8 5l-10 -44l3 -3t9.5 -7t15.5 -8.5t21 -6t27 -1.5q30 2 48.5 24.5t16.5 58.5q-1 20 -12.5 35.5t-24.5 23t-24 16t-12 16.5zM249 365q14 4 24 7q-10 33 -31 37q7 -19 7 -44z" />
    <glyph glyph-name="deezer" unicode="deezer" horiz-adv-x="576" 
d="M451 203v73h125v-73h-125zM451 377h125v-72h-125v72zM451 102v73h125v-73h-125zM0 1v73h125v-73h-125zM150 1v73h125v-73h-125zM301 1v73h125v-73h-125zM451 1v73h125v-73h-125zM301 102v73h125v-73h-125zM150 102v73h125v-73h-125zM150 203v73h125v-73h-125zM150 203z
" />
    <glyph glyph-name="edge-legacy" unicode="edge&#x2d;legacy" horiz-adv-x="512" 
d="M26 220zM486 204v-52h-314q1 -45 32 -72t74.5 -31.5t89.5 5t76 31.5v-105q-25 -15 -64 -25.5t-88 -10.5t-88 15q-52 20 -86 69t-34 103q-2 131 120 188q-26 -33 -34 -79h176q3 30 -6.5 51.5t-24.5 31.5t-30.5 15.5t-26.5 6.5h-12q-71 -2 -127.5 -37.5t-92.5 -87.5
q12 93 73 156.5t160 63.5q64 0 116 -29.5t82 -83.5q29 -52 29 -123zM486 204z" />
    <glyph glyph-name="google-pay" unicode="google&#x2d;pay" horiz-adv-x="640" 
d="M106 233h99q2 -11 2 -22q0 -49 -31 -79q-28 -26 -70 -26q-30 0 -55.5 16t-39.5 43v1q-11 22 -11 47.5t11 48.5q14 27 39.5 43t55.5 16q41 0 70 -28l-30 -31q-17 17 -40 16q-21 0 -37 -12t-23 -32q-6 -20 0 -41q7 -19 23 -31.5t37 -12.5t36 10q17 12 21 33h-57v41z
M495 237q15 -14 15 -39v-79h-22v18h-1q-15 -22 -39 -22q-21 0 -35 13q-15 12 -14 31q0 20 14.5 31.5t39.5 11.5q21 0 35 -8v6q0 13 -10 21q-10 9 -23 9q-19 0 -31 -17l-21 13q17 25 51 25q26 0 41 -14zM476 148q12 11 12 26q-12 9 -31 9q-15 0 -24.5 -7t-9.5 -18q0 -9 8 -15
q8 -7 18 -6q16 0 27 11zM382 290q16 -16 17 -38t-14 -38l-2 -2q0 -1 -1 -1q-16 -16 -40 -16h-39v-76h-24v187h63q23 0 40 -16zM366 227q9 10 8.5 23.5t-9.5 23.5q-9 9 -23 9h-39v-65h39q14 -1 24 9zM614 247h26l-79 -184h-24l29 64l-52 120h26l37 -92h1zM614 247z" />
    <glyph glyph-name="rust" unicode="rust" horiz-adv-x="512" 
d="M509 198q3 -2 3 -6t-4 -6l-21 -14q-1 -4 -1 -6l19 -17q3 -3 2 -7t-5 -5l-24 -9q-1 -4 -1 -6l15 -21q2 -3 0.5 -7t-5.5 -4l-25 -5q-3 -4 -3 -5l10 -23q2 -4 0 -7.5t-7 -3.5l-25 1l-4 -4l6 -25q1 -4 -2 -7t-7 -2l-25 6l-4 -4l1 -26q0 -4 -3.5 -6t-7.5 0l-23 10q-1 0 -5 -3
l-5 -25q0 -4 -4 -5.5t-7 0.5l-21 15q-1 0 -6 -1l-9 -24q-1 -4 -5 -5t-7 2l-17 19q-3 0 -6 -1l-14 -21q-2 -4 -6 -4t-6 4l-14 21q-4 1 -6 1l-17 -19q-3 -3 -7 -2t-5 5l-9 24q-5 1 -6 1l-21 -15q-3 -2 -7 -0.5t-4 5.5l-5 25q-4 3 -5 3l-23 -10q-4 -2 -7.5 0t-3.5 6l1 26l-4 4
l-25 -6q-4 -1 -7 2t-2 7l6 25l-4 4l-26 -1q-4 0 -6 3.5t0 7.5l10 23q0 1 -3 5l-25 5q-4 0 -5.5 4t0.5 7l15 21q0 1 -1 6l-24 9q-4 1 -5 5t2 7l19 17q0 3 -1 6l-22 14q-3 2 -3 6t3 6l22 14q1 4 1 6l-19 17q-3 3 -2 7t5 5l24 9q1 5 1 6l-15 21q-2 3 -0.5 7t5.5 4l25 5q2 3 3 5
l-10 23q-2 4 0 7.5t6 3.5l26 -1l4 4l-6 25q-1 4 2 7t7 2l25 -6l4 4l-1 25q0 5 3.5 7t7.5 0l23 -10q2 1 5 3l5 25q0 4 4 5.5t7 -0.5l21 -15q1 0 6 1l9 24q1 4 5 5t7 -2l17 -19q3 0 6 1l14 22q2 3 6 3t6 -3l14 -22q4 -1 6 -1l17 19q3 3 7 2t5 -5l9 -24q4 -1 6 -1l21 15
q3 2 7 0.5t4 -5.5l5 -26q3 -1 5 -2l23 10q4 2 7.5 0t3.5 -7l-1 -25l4 -4l25 6q4 1 7 -2t2 -7l-6 -25l4 -4l26 1q4 0 6 -3.5t0 -7.5l-10 -23q1 -2 3 -5l25 -5q4 0 5.5 -4t-0.5 -7l-15 -21q0 -2 1 -6l24 -9q4 -1 5 -5t-2 -7l-19 -17q0 -3 1 -6zM358 69l32 -7q9 10 17 20h-79
q-8 0 -16 9t-11 18q-2 4 -5.5 21.5t-3.5 18.5q-7 26 -30 26h-48l-1 -35h45q3 0 3 -2v-54q0 -2 -3 -2h-153q8 -10 16 -19l32 7q6 1 10.5 -2t5.5 -9l8 -35q78 -37 156 -1l8 35q1 6 6 9t11 2zM383 34.5q0 6.5 -4 11t-11 4.5q-6 0 -10.5 -4.5t-4.5 -10.5q0 -4 2 -8t5.5 -6
t7.5 -2q6 0 10.5 4.5t4.5 11zM158 35q0 7 -4.5 11t-10.5 5h-1q-6 0 -10.5 -4.5t-4.5 -11t4.5 -11t10.5 -4.5q5 0 8.5 2t5.5 5.5t2 7.5zM70 214q-4 -37 6 -72h53v120h-26l6 -15q3 -5 1 -10.5t-8 -8.5zM58 250q0 -6 4.5 -10.5t10.5 -4.5q5 0 8.5 2t5.5 5.5t2 7.5
q0 6 -4.5 10.5t-10.5 4.5q-7 0 -11.5 -4.5t-4.5 -10.5zM213 225h59q28 0 28 17q0 7 -5.5 11.5t-10 6t-7.5 1.5h-63zM399 141q22 3 22 27v9q0 3 3 3h19q1 16 0 32l-35 16q-13 5 -7 18l18 40q-14 24 -33.5 43t-44 31.5t-50.5 17.5l-27 -25q-4 -4 -9.5 -4t-9.5 4l-24 25
q-62 -12 -105 -59h199q20 0 40 -13q30 -20 30 -50q0 -29 -39 -53q10 -8 14 -12t9 -14t8 -26q1 -4 8 -7.5t14 -2.5zM240 388q0 -3 1 -6t3 -5t5 -3t6 -1q4 -1 7.5 1t5.5 5.5t2 7.5q1 7 -3.5 11.5t-10.5 4.5h-1q-6 0 -10.5 -4.5t-4.5 -10.5zM437 234q6 0 10.5 4.5t4.5 10.5
q0 4 -2 7.5t-5.5 5.5t-7.5 2q-6 0 -10.5 -4t-4.5 -10.5t4.5 -11t10.5 -4.5z" />
    <glyph glyph-name="tiktok" unicode="tiktok" 
d="M448 238v87q-37 0 -67 21q-44 28 -54 80q-2 11 -2 22h-88v-349q0 -25 -14 -44.5t-37 -27t-46 0t-37.5 27t-14.5 43.5t14 44t37 27.5t46 0.5v90q-50 7 -95.5 -16t-69.5 -68t-18.5 -95.5t38.5 -88.5t82.5 -50.5t97 5t76.5 59.5t29 93v178q55 -39 123 -39zM448 238z" />
    <glyph glyph-name="unsplash" unicode="unsplash" 
d="M448 218h-141v-125h-166v125h-141v-250h448v250zM307 416v-125h-166v125h166zM307 416z" />
    <glyph glyph-name="cloudflare" unicode="cloudflare" horiz-adv-x="640" 
d="M408 128q19 -1 28 -14q10 -14 4 -35l-3 -11q-1 -4 -5 -4h-427q-3 0 -4 4q-1 7 -1 14q0 39 27.5 67t66.5 29q-5 21 2.5 41.5t26 32.5t40 11.5t38.5 -13.5q23 66 88 91.5t126.5 -7t77.5 -100.5v-2v-3l-14 -34q-8 -21 -27.5 -35.5t-40.5 -15.5l-233 -3q-4 0 -5 -4
q-1 -2 0.5 -4t3.5 -2zM514 227q52 0 89 -37t37 -89q0 -17 -5 -34q-1 -3 -4 -3h-176q-2 0 -2.5 1t-0.5 3l4 9q8 21 27.5 35.5t40.5 15.5l51 3q4 0 6 4q0 2 -1 4t-3 2l-50 3q-19 1 -28 14q-10 14 -4 35l9 31q1 3 3 3h7z" />
    <glyph glyph-name="guilded" unicode="guilded" 
d="M443 384q1 -44 -5 -87h-337q1 -52 28 -106q19 -37 45 -62.5t51 -35.5q54 25 81 69h-89q-39 33 -45 87h260q-19 -83 -66 -146q-55 -72 -141 -103q-1 0 -12.5 4.5t-32 16t-42.5 28.5t-47 47t-43 66q-43 86 -43 222h438z" />
    <glyph glyph-name="hive" unicode="hive" horiz-adv-x="512" 
d="M260 193q1 -1 0 -2l-127 -222q-1 -1 -2 -1t-2 1l-129 222v2l128 222q0 1 1.5 1t2.5 -1zM299 219l-110 194q-1 1 -0.5 2t2.5 1h66q1 0 2 -1l111 -194q0 -1 -0.5 -2t-1.5 -1h-67q-1 0 -2 1zM512 193v-2l-127 -222q-1 -1 -2 -1h-67q-1 0 -1.5 1t-0.5 2l127 221l-127 221
q0 1 0.5 2t1.5 1h67q1 0 2 -1zM366 163q1 0 2 -1t0 -2l-109 -191q-1 -1 -2 -1h-66q-2 0 -2.5 1t0.5 2l109 191q0 1 2 1h66z" />
    <glyph glyph-name="42-group" unicode="&#x34;&#x32;&#x2d;group" horiz-adv-x="640" 
d="M320 352q32 0 61.5 -12t52 -34.5t34.5 -52t12 -61.5t-12 -61.5t-34.5 -52t-52 -34.5t-61.5 -12v320zM0 192l160 160l160 -160l-160 -160zM480 192q0 66 47 113t113 47v-320q-32 0 -61.5 12t-52 34.5t-34.5 52t-12 61.5z" />
    <glyph glyph-name="instalod" unicode="instalod" horiz-adv-x="512" 
d="M153 -32l51 147l299 57l-116 -204h-234zM505 208l-145 -28l-204 236h231zM124 399l102 -117l-103 -295l-116 205zM124 399z" />
    <glyph glyph-name="octopus-deploy" unicode="octopus&#x2d;deploy" horiz-adv-x="512" 
d="M456 99q1 -1 15 -11t20.5 -18t6.5 -16q0 -24 -47 5q-5 3 -7 4q1 -2 9 -11q51 -64 20 -68q-13 -1 -27 6.5t-23 17t-21.5 24.5t-17.5 19q-30 30 -30 -35v-17v-8q0 -14 -6 -30t-17.5 -23.5t-27.5 9.5q-15 16 -21.5 54t-14.5 51q-4 7 -9.5 9t-11 -1t-10.5 -8t-10.5 -12.5
t-9.5 -13.5t-7.5 -12.5t-5.5 -8.5q-3 -6 -7.5 -11t-12 -15t-15 -16t-15.5 -11t-15 -3.5t-11 10.5q-3 5 -4 12t-1 12.5t1.5 14t3 13.5t5.5 14t5.5 13t5.5 12.5t5 10.5q-3 -7 -45 -28q-34 -18 -65 -15q-51 3 8 41q88 57 67 118q-2 7 -9.5 24.5t-11 30t-3.5 25.5q-3 38 11 74
q25 68 92 99t138 10q32 -10 58.5 -32.5t42 -51.5t19 -63t-9.5 -66q-12 -29 -16 -47.5t3 -40.5t29 -40z" />
    <glyph glyph-name="perbyte" unicode="perbyte" 
d="M305 163q24 0 38 -13.5t14 -34.5q0 -23 -13.5 -36.5t-38.5 -13.5h-58v98h58zM149 319q24 0 38 -13.5t14 -35.5t-13.5 -35.5t-38.5 -13.5h-58v98h58zM367 416q33 0 57 -24t24 -57v-286q0 -33 -24 -57t-57 -24h-286q-33 0 -57 24q-3 3 -6 6.5t-5.5 7.5t-4.5 8t-3.5 8.5
t-2.5 9t-1.5 9t-0.5 8.5v286q0 33 24 57t57 24h286zM430 49v286q0 26 -18.5 44.5t-44.5 18.5h-286q-26 0 -44.5 -18.5t-18.5 -44.5v-286q0 -26 18.5 -44.5t44.5 -18.5h286q26 0 44.5 18.5t18.5 44.5zM305 319q24 0 38 -13.5t14 -35.5t-13.5 -35.5t-38.5 -13.5h-58v98h58z
" />
    <glyph glyph-name="uncharted" unicode="uncharted" 
d="M172 215q-1 0 -2 1l-116 68v-86q0 -4 -3 -7q-3 -2 -7 -2q-2 0 -5 1l-22 13q-5 2 -5 8v115q0 6 5 8l100 58q5 3 10 0l22 -12q5 -3 5 -8.5t-5 -8.5l-75 -43l117 -69q2 -1 2 -3q0 -3 -1 -4q-12 -10 -15 -26q-2 -3 -5 -3zM323 70q9 0 11 -9v-26q-1 -5 -5 -8l-101 -58
q-2 -1 -4.5 -1t-4.5 1l-101 58q-5 2 -5 8v26q0 10 10 10q3 0 5 -2l74 -43v134q0 2 2 3.5t5 0.5q14 -4 29 1q6 2 6 -5v-134l74 43q3 1 5 1zM286 370q-10 0 -16.5 6.5t-6.5 16.5t6.5 16.5t16.5 6.5t16.5 -6.5t6.5 -16.5t-6.5 -16.5t-16.5 -6.5zM349.5 380q9.5 0 16.5 -6.5
t7 -16t-7 -16.5t-16.5 -7t-16 7t-6.5 16.5t6.5 16t16 6.5zM412.5 296q-9.5 0 -16 7t-6.5 16.5t6.5 16t16 6.5t16.5 -6.5t7 -16t-7 -16.5t-16.5 -7zM349.5 306q9.5 0 16.5 -7t7 -16.5t-7 -16t-16.5 -6.5t-16 6.5t-6.5 16t6.5 16.5t16 7zM286 222q-10 0 -16.5 7t-6.5 16.5
t6.5 16t16.5 6.5t16.5 -6.5t6.5 -16t-6.5 -16.5t-16.5 -7zM223.5 186q-9.5 0 -16 6.5t-6.5 16.5t6.5 16.5t16 6.5t16.5 -6.5t7 -16.5t-7 -16.5t-16.5 -6.5zM413 268q6 0 11.5 -3t8.5 -8t3 -12q0 -9 -7 -16t-16.5 -7t-16 7t-6.5 16.5t6.5 16t16.5 6.5zM413 196q6 0 11.5 -3
t8.5 -8.5t3 -11.5q0 -9 -7 -16t-16.5 -7t-16 7t-6.5 16.5t6.5 16t16.5 6.5zM413 196z" />
    <glyph glyph-name="watchman-monitoring" unicode="watchman&#x2d;monitoring" horiz-adv-x="512" 
d="M256 432q99 0 169.5 -70.5t70.5 -169.5t-70.5 -169.5t-169.5 -70.5t-169.5 70.5t-70.5 169.5t70.5 169.5t169.5 70.5zM122 19l27 205l-9 7q-5 4 -5 10v20l14 2v11l-103 -18q-9 -31 -9 -64q0 -52 22.5 -97t62.5 -76zM227 302v-3l194 37q-31 36 -74.5 55.5t-90.5 19.5
q-55 0 -102.5 -25.5t-77.5 -68.5l73 -19l1 4l-9 8q-7 5 0 9l40 35q7 8 15 0q33 -31 40 -35q3 -2 3 -4t-2 -4l-1 -1zM261 -27q89 2 151.5 66t62.5 153q0 25 -6 50l-241 32v-11l14 -2v-20q0 -6 -5 -10l-9 -7zM261 -27z" />
    <glyph glyph-name="wodu" unicode="wodu" horiz-adv-x="640" 
d="M178 108l46 171h-36l-28 -118h-1l-29 118h-35l-30 -116l-27 116h-38l45 -171h38l29 117l29 -117h37zM271 235q-19 0 -33.5 -8t-22 -22.5t-7.5 -34.5q0 -29 17 -47t46.5 -18t47 18t17.5 47.5t-17.5 47t-47.5 17.5zM271 131q-29 0 -29 39q0 12 1 19.5t8 14t20 6.5
q31 0 31 -40q0 -39 -31 -39zM435 124v-16h32v171h-34v-62q-12 18 -37 18q-26 0 -40 -18.5t-14 -45.5t14.5 -46.5t40.5 -19.5t38 19zM405 210q30 0 30 -40q0 -39 -30 -39q-14 0 -21.5 11.5t-7.5 27.5q0 40 29 40zM593 108v124h-34v-65q0 -35 -26 -35q-22 0 -22 30v70h-34v-76
q0 -25 10 -38t35 -13t38 21h1v-18h32zM602 145v-37h38v37h-38zM602 145z" />
    <glyph glyph-name="notdef" unicode="notdef" horiz-adv-x="384" 
d="M64 58v268l90 -134zM102 0l90 134l90 -134h-180zM230 192l90 134v-268zM282 384l-90 -134l-90 134h180zM0 400v-416q0 -20 14 -34t34 -14h288q20 0 34 14t14 34v416q0 20 -14 34t-34 14h-288q-20 0 -34 -14t-14 -34z" />
    <glyph glyph-name="wirsindhandwerk" unicode="wirsindhandwerk" horiz-adv-x="512" 
d="M51 -32v65l83 47v-112h-83zM380 -32v112l82 -47v-65h-82zM380 416h82v-361l-206 123l-205 -123v361h84v-220l121 73l124 -73v220zM380 416z" />
    <glyph glyph-name="bots" unicode="bots" horiz-adv-x="640" 
d="M86 250q27 0 44.5 -20t17.5 -53q0 -35 -17.5 -54.5t-44.5 -19.5q-24 0 -41 20v-9q0 -3 -2.5 -5.5t-5.5 -2.5h-29q-3 0 -5.5 2.5t-2.5 5.5v178q0 8 8 8h29q8 0 8 -8v-62q16 20 41 20zM72 142q13 0 22 9.5t9 25t-9 25t-22 9.5q-18 0 -27 -13v-43q9 -13 27 -13zM228 201
q7 0 12 -5t5 -12t-5 -12t-12 -5t-12.5 5t-5.5 12t5.5 12t12.5 5zM274 291q34 -1 61 -22.5t37 -54.5q5 -16 4.5 -33t-6 -32.5t-15.5 -29t-24 -23.5q-28 -20 -62.5 -20t-62.5 20t-39 52.5t-1.5 65.5t36.5 54.5t62 22.5v45q-10 4 -8 15t13 11t13 -11t-8 -15v-45zM360 184
q0 15 -12 27.5t-33 20t-46 7.5q-38 0 -64.5 -16t-26.5 -39t26.5 -39t64.5 -16t64.5 16t26.5 39zM310 167q-7 0 -12.5 5t-5.5 12t5.5 12t12.5 5t12 -5t5 -12t-5 -12t-12 -5zM581 198q13 -3 20 -5t18 -7t16 -14t5 -23q0 -20 -17 -33t-47 -13q-35 0 -59 16q-7 5 -3 12l10 16v1
q2 2 5.5 3t6.5 -1q21 -14 42 -14q19 0 19 11q0 7 -24 11q-12 2 -19.5 4t-17.5 6.5t-15 13.5t-5 22q0 19 16 32.5t44 13.5t52 -14q7 -4 3 -11l-9 -15q-5 -7 -11 -3q-16 10 -35 10q-18 0 -18 -10q0 -6 23 -9zM485 137l5 -20q1 -6 -4 -9q-11 -5 -28 -5q-44 0 -44 41v64h-15
q-8 0 -8 8v23q0 8 8 8h15v30q0 8 8 8h28q9 0 9 -8v-30h20q8 0 8 -8v-23q0 -8 -8 -8h-20v-51q0 -15 12 -15q2 0 4 1q8 1 10 -6zM485 137z" />
    <glyph glyph-name="cmplid" unicode="cmplid" horiz-adv-x="640" 
d="M226 60v-2l-11 -41q-1 -5 -6 -5h-149h-3q-30 0 -47 24.5t-7 52.5l27 104q10 33 36.5 54t60.5 23h149h1q4 -2 3 -5l-11 -41q-1 -5 -6 -6h-149q-11 0 -20 -7.5t-12 -18.5l-27 -102q-4 -10 2 -18t16 -8h149q1 0 2 -1q2 -1 2 -3zM307 367l-22 -81h-51l21 81q2 5 7 5h41
q2 0 3 -1t1 -3v-1zM180 80l32 122h51l-32 -122h-51zM512 368v-1l-92 -350q-1 -5 -6 -5h-41q-4 0 -4 4v1l91 350q2 5 7 5h41q4 0 4 -4zM325 64q2 0 3 -2t0 -4l-10 -41q-2 -5 -7 -5h-41q-2 0 -3 1t-1 3q0 1 1 1l10 41q2 5 7 6h41zM636 372v0q4 0 4 -4v-1l-92 -350q-1 -5 -6 -5
h-41q-4 0 -4 4v1l92 350q1 5 6 5h41zM372 223q-2 -5 -7 -5h-41q-4 0 -4 3v2l11 41q1 5 6 5h42q4 0 4 -4l-1 -1z" />
    <glyph glyph-name="bilibili" unicode="bilibili" horiz-adv-x="512" 
d="M489 344q-26 25 -65 26h-29l25 26q8 8 8 21.5t-8.5 22t-21.5 8.5t-22 -9l-75 -69h-88l-73 69q-9 9 -22 9t-22 -8.5t-9 -22t9 -21.5l25 -26h-29q-39 -1 -65 -26q-26 -27 -27 -66v-198q1 -43 26.5 -69t65.5 -27h328q40 1 65.5 26.5t26.5 65.5v202q2 39 -23 66zM450 274
v-194q-1 -14 -10.5 -24t-23.5 -10h-320q-14 0 -23.5 10t-9.5 24v194q0 15 9.5 24t23.5 9h320q15 0 23 -9q10 -9 11 -24zM185 232h1q-10 9 -24 10q-14 -1 -23.5 -10.5t-9.5 -23.5v-33q0 -14 9.5 -23.5t23.5 -9.5t23.5 9.5t10.5 23.5v33q-1 14 -11 24zM377 231.5
q-9 9.5 -23 10.5q-14 -1 -23.5 -10.5t-10.5 -23.5v-33q1 -15 10 -23q9 -10 23.5 -10t24 9.5t9.5 23.5v33q-1 14 -10 23.5z" />
    <glyph glyph-name="golang" unicode="golang" horiz-adv-x="640" 
d="M400 253q6 2 3 6q-12 28 -36 43q-37 25 -83 16q-53 -10 -87 -54q-32 -41 -26 -91q5 -44 39 -70q36 -27 84 -20q55 7 88 53q8 8 14 21q8 -28 31 -49q31 -26 76 -27q6 1 9 1q11 1 16 2q45 9 74 40q45 43 37 105q-6 44 -44 70q-37 25 -89 16q-55 -10 -87 -52
q-15 -20 -22 -40h-101q-4 0 -7 -6q-8 -14 -16 -34q-4 -9 6 -9h60q-1 -3 -2 -3v0l-6 -9q-22 -24 -54 -20q-18 2 -29.5 16t-11.5 33q-1 38 32 59q28 18 56 5q7 -4 15 -12q4 -5 8 -4l1 1l12 3t11 3q1 0 29 7zM48 248l113 -1q2 0 3 2l5 8q2 2 0 2h-112q-2 0 -3 -1l-7 -9
q-1 -1 1 -1zM1 219h148q2 0 2 2l3 8q1 2 -2 2h-142q-2 0 -3 -2l-7 -8q-1 -2 1 -2zM76 192l4 8q1 2 3 2h62q2 0 2 -2v-8q0 -2 -2 -2h-68q-3 0 -1 2zM577 210v-1.5v-1.5q-2 -39 -39 -60q-25 -13 -51 -2q-17 8 -25 24.5t-4 34.5q11 45 55 55q22 5 40.5 -7t22.5 -35q1 -1 1 -7z
" />
    <glyph glyph-name="pix" unicode="pix" horiz-adv-x="512" 
d="M242 156l-76 -77q-22 -22 -53 -22h-10l98 -98q23 -22 55 -22t55 22l97 97h-15q-31 0 -53 22l-77 78q-11 10 -21 0zM263 229l77 77q22 22 53 22h15l-97 97q-15 15 -35 20.5t-40 0t-35 -20.5l-98 -97h10q32 0 53 -22l76 -77q10 -9 21 0zM113 305h-32l-58 -58
q-23 -23 -23 -55t23 -55l58 -58h32q20 0 37 16l76 76q11 11 26.5 11t26.5 -10l77 -77q15 -16 37 -16h37l59 58q22 23 22 55t-22 55l-59 59h-37q-22 0 -37 -16l-77 -77q-13 -11 -26.5 -11t-26.5 11l-76 77q-17 15 -37 15z" />
    <glyph glyph-name="sitrox" unicode="sitrox" 
d="M212 448q-55 0 -101.5 -38.5t-46.5 -89.5h384v128h-236zM237 256h-173q0 -34 22 -64t56 -47t69 -17h173q0 51 -46 89.5t-101 38.5zM236 -64h-236v128h384q0 -51 -46.5 -89.5t-101.5 -38.5z" />
    <glyph glyph-name="hashnode" unicode="hashnode" horiz-adv-x="512" 
d="M35 277l136 136q35 35 85 35t85 -35l136 -136q35 -35 35 -85t-35 -85l-136 -136q-35 -35 -85 -35t-85 35l-136 136q-35 35 -35 85t35 85zM315.5 132.5q24.5 24.5 24.5 59.5t-24.5 59.5t-59.5 24.5t-59.5 -24.5t-24.5 -59.5t24.5 -59.5t59.5 -24.5t59.5 24.5z" />
    <glyph glyph-name="meta" unicode="meta" horiz-adv-x="640" 
d="M640 130q0 55 -14.5 106t-38.5 88t-57.5 59.5t-70.5 22.5q-64 0 -130 -90q-38 48 -72.5 69t-72.5 21q-51 0 -93.5 -40t-66.5 -103.5t-24 -135.5q0 -66 31 -105.5t85 -39.5q42 0 75.5 28.5t81.5 112.5q27 49 47 83q2 -3 9.5 -15.5t11.5 -19.5l32 -53q47 -79 79 -107.5
t78 -28.5q52 0 81 39.5t29 108.5zM287 256l-65 -102q-41 -63 -61 -83t-42 -20q-24 0 -37 19.5t-13 55.5q0 80 34.5 145t79.5 65q26 0 49.5 -17.5t54.5 -62.5zM531 51q-22 0 -40 20t-64 94l-38 62q-17 28 -29 46q26 40 48.5 59t46.5 19q51 0 87 -66t36 -160q0 -74 -47 -74z
" />
    <glyph glyph-name="padlet" unicode="padlet" horiz-adv-x="640" 
d="M298 448q-13 0 -18 -12l-132 -308v-1l3 -10l43 -158q2 -8 7 -13.5t13 -8t16 -0.5l68 15l68 -15q13 -3 23.5 3.5t12.5 18.5l43 158l3 10v1h-1l-132 308q-5 12 -17 12zM160 126l132 -26l5 320l9 -320l131 25h-1l-130 -39l-8 -122l-7 123zM426 225l43 -97l-32 -109l157 247
h-74zM597 267l-17 -66l47 -23q6 -3 10.5 2t1.5 10zM127 130l42 96l-151 84q-8 4 -14.5 -2.5t-1.5 -13.5l157 -276z" />
    <glyph glyph-name="nfc-directional" unicode="nfc&#x2d;directional" horiz-adv-x="512" 
d="M211.5 -41q-2.5 4 -6.5 5q-87 20 -137 90q-52 71 -44.5 158t70.5 148t151 65v-89l-25 26q-3 3 -7.5 3t-8.5 -3q-3 -2 -3 -8q0 -4 3 -8l44 -46q1 -2 3.5 -3t3.5 -1q3 0 5 1t4 3l44 46q2 2 2.5 4t0.5 4t-1 4t-2.5 4t-3.5 2.5t-4.5 0.5t-4.5 -1t-3 -2l-25 -26v101
q0 2 -0.5 4t-2.5 4q-1 0 -2 1t-2 1q-3 1 -4 1q-98 0 -171 -65t-83.5 -162.5t46 -177t152.5 -101.5q4 -1 8 1.5t5 7t-1.5 8.5zM171 322q2 2 2 4q1 2 0.5 4.5t-2.5 4.5q-1 2 -3 3t-4 1q-2 1 -4 0q-3 0 -4 -2q-36 -24 -57 -62q-20 -39 -20 -82t20 -81q21 -39 57 -63q4 -3 8 -1
q4 -1 7 4q2 6 2 8q-1 5 -5 8q-31 21 -49 55q-17 32 -17 70t17.5 71.5t48.5 54.5q2 1 3 3zM341 64v1q-1 -3 -2 -5v-4l2 -4q2 -3 3 -3t2.5 -1l1.5 -1q2 0 4.5 0.5t4.5 1.5q36 25 56 63q19 36 19 81t-19 82q-20 38 -56 62q-2 2 -4.5 2.5t-4.5 -0.5q-2 0 -4 -1q-1 -1 -3 -4
q-1 -1 -2 -4v-4l2 -4q0 -1 1 -2l1 -1q33 -22 50 -55t17 -71t-17 -71q-18 -33 -50 -54q0 -1 -1 -2t-1 -2zM312 442q-2 0 -4 -0.5t-4 -1.5t-3.5 -3t-2 -4t0.5 -4q-1 -1 1 -4q2 -2 3 -4q2 -1 4 -1q86 -20 137 -90q52 -71 44 -158q-7 -86 -70 -148q-63 -61 -151 -65v87l25 -25
q1 -2 8 -4q5 0 8 4q3 2 3 7t-3 8l-44 47q-3 3 -9 3q-5 0 -7 -3l-44 -47q-3 -3 -3 -8t3 -7q3 -4 8 -4q7 2 8 4l25 26v-100q0 -2 1 -4q1 -3 2 -4l4 -2t4 -1q74 0 137 39q62 40 94 107q32 66 23 140q-8 73 -55 131q-56 69 -143 89zM353 192q0 49 -49 83q-4 3 -8.5 2.5
t-7.5 -4.5t-2 -8.5t5 -7.5q39 -28 39 -65q0 -33 -32 -59l-63 62q-3 4 -7.5 4t-8 -3.5t-3.5 -8.5q-1 -3 3 -8l70 -69q3 -3 7 -4q4 0 8 2q49 35 49 84zM216.5 106.5q4.5 0.5 7.5 4.5t2 8.5t-5 7.5q-39 28 -39 65q0 33 32 59l63 -63q2 -3 8 -3q5 0 8 3q3 6 3 8q0 5 -3 8l-70 70
q-3 3 -7 3.5t-8 -2.5q-50 -35 -50 -83t50 -84q4 -2 8.5 -1.5z" />
    <glyph glyph-name="nfc-symbol" unicode="nfc&#x2d;symbol" horiz-adv-x="576" 
d="M393 416q-12 -3 -19 -13t-5 -22t12 -19q50 -35 77 -79t27 -90q0 -87 -85 -156l-165 164q-8 9 -21 9q-12 0 -20 -9q-10 -10 -10 -21q2 -13 10 -21l183 -182q8 -8 19 -9t18 5q42 30 71 65t44 74t15 81q0 61 -33.5 117.5t-96.5 100.5q-9 7 -21 5zM187 -32q12 3 19 13t5 22
t-13 19q-103 73 -103 171q0 85 84 154l165 -164q8 -9 21 -9q12 0 21 9t9 21t-9 21l-183 182q-8 8 -18.5 9t-19.5 -5q-63 -44 -96 -100.5t-33 -117.5q0 -62 33 -119t96 -101q10 -7 22 -5z" />
    <glyph glyph-name="screenpal" unicode="screenpal" horiz-adv-x="512" 
d="M234 425.5q0 -9.5 6.5 -16t15.5 -6.5t15.5 6.5t6.5 16t-6.5 16t-15.5 6.5t-15.5 -6.5t-6.5 -16zM313 189q0 24 -16.5 40.5t-40.5 16.5t-40.5 -16.5t-16.5 -40.5t16.5 -40.5t40.5 -16.5t40.5 16.5t16.5 40.5zM337 98q-35 -31 -81 -31t-81 31t-40 77h-120
q6 -96 75.5 -161.5t165.5 -65.5t165.5 65.5t75.5 161.5h-120q-5 -46 -40 -77zM73 307.5q0 9.5 -7 16t-16 6t-15.5 -7t-6.5 -16t7 -16t16.5 -6t15.5 7t6 16zM439 307q0 -9 6.5 -16t16 -7t16 7t6.5 16q0 5 -2 9t-5 7t-7 5t-9 2q-9 0 -15.5 -7t-6.5 -16zM318 353q27 23 32 57
q-22 10 -47 15q0 -20 -13.5 -34t-33.5 -14t-33.5 14t-13.5 34q-25 -5 -47 -15q5 -34 32 -57q29 -23 62 -23t62 23zM83 217q33 12 50.5 42.5t11 65t-33.5 56.5q-20 -15 -36 -33q8 -5 14 -12.5t8.5 -16.5t1 -18.5t-6 -17.5t-12.5 -14q-7 -6 -16 -8q-9 -3 -18.5 -1.5t-17.5 6.5
q-8 -24 -11 -48q33 -13 66 -1zM429 217q33 -12 66 1q-3 25 -11 47q-17 -9 -35.5 -4t-28.5 22q-10 16 -5 36q5 19 22 29q-16 18 -36 33q-27 -22 -34 -57q-6 -35 11 -65q18 -30 51 -42z" />
    <glyph glyph-name="space-awesome" unicode="space&#x2d;awesome" horiz-adv-x="512" 
d="M96 192v-32h-32v-32h-32v-32h-32v-160h128v256h-32zM512 96h-32v32h-32v32h-32v32h-32v-256h128v160zM320 384v32h-32v32h-64v-32h-32v-32h-32v-384h32v32h128v-32h32v384h-32zM288 320v-64h-64v64h64z" />
    <glyph glyph-name="square-font-awesome" unicode="square&#x2d;font&#x2d;awesome" 
d="M384 416q27 0 45.5 -19t18.5 -45v-320q0 -27 -18.5 -45.5t-45.5 -18.5h-320q-26 0 -45 18.5t-19 45.5v320q0 26 19 45t45 19h320zM336 136v160q-45 -16 -59 -16q-16 0 -37.5 8t-37.5 8q-15 0 -33.5 -7t-24.5 -8v7q0 6 -4.5 11t-11 5t-11.5 -5t-5 -11v-192q0 -7 5 -11.5
t11.5 -4.5t11 4.5t4.5 11.5v153q8 2 18 5.5t19.5 6.5t20.5 3q16 0 37.5 -8t37.5 -8q13 0 28 4v-96q-15 -4 -28 -4q-16 0 -37.5 8t-37.5 8q-12 0 -26 -4v-32q13 4 26 4q16 0 37.5 -8t37.5 -8q14 0 59 16z" />
    <glyph glyph-name="square-gitlab" unicode="gitlab&#x2d;square" 
d="M48 416q-20 0 -34 -14t-14 -34v-352q0 -20 14 -34t34 -14h352q20 0 34 14t14 34v352q0 20 -14 34t-34 14h-352zM382 223l1 -1q9 -28 2 -53q-8 -26 -30 -43l-69 -51l-54 -41q-6 -3 -8 -3q-4 0 -8 3l-55 41l-67 51h-1q-22 17 -29.5 43.5t1.5 52.5l1 1l45 116q1 4 4 6
q2 2 5 2q1 0 6 -1q1 0 2 -1l2 -2q2 -2 3 -5l29 -92h123l30 92q1 3 3 5q1 2 4 3t6 1t5 -2q3 -2 5 -5z" />
    <glyph glyph-name="odysee" unicode="odysee" horiz-adv-x="512" 
d="M407 -15q-8 -2 -16 -2q-12 0 -19 4t-10.5 12t-4.5 13.5t-1.5 16.5t-1.5 16q-1 10 -4.5 19.5t-10 20.5t-17.5 16t-25 3v-5t0.5 -13t0 -19.5t-2.5 -22t-5.5 -23t-10 -20t-14.5 -15.5q-17 -11 -38 -18.5t-42 -9.5t-37.5 7t-22.5 30q-4 15 -0.5 26t11.5 15.5t17 7.5t17 2
t11 0h2q5 0 14 5t16.5 17t-3.5 32q-9 18 -20 36.5t-17 28.5l-6 10q-32 -10 -58 -28q-14 -7 -23 -17q-39 -40 -63 -29q-4 2 -8 5q27 -75 93 -122.5t148 -47.5q83 0 151 49zM311 9q4 -1 5 3t-3 5q-3 1 -5 -3q0 -4 3 -5zM104 104q-4 -1 -3 -4q1 -4 4 -3q3 0 3 4q-1 4 -4 3z
M452 27q1 5 1 7l-2 2q-31 52 -34 86q-3 31 -59 73q-13 9 -3 22v0q1 2 2 2q53 51 69 79q17 32 17 69q69 -74 69 -175q0 -93 -60 -165zM391 197q1 6 6 4q5 -1 4 -6t-6 -4q-5 0 -4 6zM452 258l-13 3l-5 11l-3 -13l-12 -5l13 -3l6 -11l3 13zM395 407q-63 41 -139 41
q-106 0 -181 -75t-75 -181q0 -16 2 -33q8 12 32 31t48 32q14 8 40 17q22 8 26 12q-1 2 -2 7q-8 24 -11 39.5t-5 39t7 41t29 29.5q19 11 36.5 17t35.5 6.5t33 -11t23 -34.5q11 -32 18 -64q4 -17 9 -17h1h2q32 -1 41 37q1 1 1 2.5v1.5q3 12 4.5 17.5t4.5 14t5.5 13.5t6.5 9.5
t8 7.5zM59 258q3 -3 -2 -6q-3 -3 -6 1t1 7t7 -2zM327 383q-4 -3 -1 -6q3 -4 6 -2q5 2 2 7q-3 4 -7 1zM95 343q0 2 3 2t2 -3q0 -3 -3 -2q-3 0 -2 3zM180 344q2 -30 18.5 -42.5t46.5 -0.5q31 12 38.5 23.5t-0.5 35.5q-9 28 -22.5 38t-43.5 0q-1 -1 -2.5 -1.5t-5.5 -2.5
t-8 -4.5t-8 -7t-7 -9.5t-5 -13t-1 -16zM269 329q-5 1 -4 6q2 7 -2 15q-1 5 4 7q3 1 6 -3q5 -10 2 -20q0 -5 -5 -5h-1zM259 370h1l1 1q6 3 3 7q-3 5 -5 8q-4 3 -7.5 -0.5t-0.5 -7.5q2 -3 3 -5q2 -3 5 -3zM259 370z" />
    <glyph glyph-name="stubber" unicode="stubber" 
d="M136 154v0q7 31 20.5 52.5t31 31.5t32.5 14t31 4q23 0 44.5 -10t34.5 -22t30 -22t33 -10q40 0 55 61v51q0 46 -33 79t-79 33h-336l42 -56l-42 -56l42 -56l-42 -56l42 -56l-42 -56l42 -56l-42 -56h336q46 0 79 33t33 79v62q-25 -14 -55 -14q-24 0 -45.5 10t-34.5 22
t-29.5 22t-33.5 10q-40 0 -55 -61zM136 154z" />
    <glyph glyph-name="debian" unicode="debian" 
d="M248 447q6 0 9 1h-7q-11 -1 -17 -2l4 -1q3 2 11 2zM380 202h1q-3 -6 -3 -8l-8 -3q-3 -7 -2 -10t-1 -7q-3 -3 -5 -4v0q-25 -22 -30 -24q-1 1 -0.5 2t2.5 3t2 3q-4 -3 -9 -8q-7 -7 -20 -10l-1 1q-36 -17 -74 10t-38 72q0 -3 -1 -4h-1q-2 23 9.5 44t32.5 30q21 10 43 7
t37 -17q-23 30 -58 28q-18 -1 -34.5 -11t-22.5 -23q-7 -5 -14 -24q-3 -10 -6 -11q-5 -39 7.5 -61.5t43.5 -46.5q4 -2 3 -4q71 -26 126 18q5 3 13 12q8 8 10 8q-2 -4 -1.5 -5t-1.5 -4q5 7 4 11t6 15l5 -7q-1 6 6 19q9 18 8 29q3 5 4 -2q0 -7 -3 -18q3 10 3 20q-1 6 0 11
q0 -1 0.5 -2.5l0.5 -1.5v0q3 -6 3 -9q-2 11 4 26q2 5 3 8q-1 0 -2 -1q-5 -2 -5 12q0 5 1 5t2 1q-5 3 -8 18q0 1 1 0t2 -3v0q2 -4 4 -4q-1 3 -2 10v0v0v0q-3 9 -3 13q-3 5 -4 5q-1 -3 -4 1q-2 7 -2 10t1 3h3q5 -1 5 3q11 -15 20 -49l1 -3q-3 18 -10 37q1 1 1 2.5t-1 5.5
q-1 6 0 6q1 1 4 -6q-5 19 -17.5 38t-28 33t-32.5 23q9 -8 7 -9q-13 8 -14 12l-0.5 1l-0.5 1q-9 4 -16 2q-4 -2 -7 -2q-17 9 -34 14q-11 4 -18 6l1 -4q-9 2 -20 0q-9 -1 -17 -1l11 4q-7 -1 -14 0q-8 2 -16 0l8 4v0l4 2q-6 0 -16 -2q-10 -1 -10 1q-4 -2 -13 -6
q-49 -21 -66 -36l-1 4l-14 -14q-29 -25 -30 -35l-3 -1q-3 -6 -8 -18q-1 -1 -1.5 -2.5t-1.5 -3t-1 -3.5q-5 -9 -9 -5v0v-1q-12 -25 -24 -62l-1 -4q3 -3 2 -28q-1 -20 0 -31q-5 -85 49.5 -160t129.5 -95q12 -5 46 -5v0q1 -1 3 -1h4q-11 3 -21 5q-13 2 -24 6q-10 4 -20 15
q-5 6 -8 9l4 -8q-11 4 -16 9q-5 3 -13 6l4 6q-4 0 -11 6t-9 11l-8 -1q-13 17 -13 25l-2 -4l-5 7q-19 25 -16 26q1 1 4 -1l-2 2q-6 4 -9 10l3 3q-14 19 -13 26q4 -5 10 -7q-10 23 -19 24q-3 0 -4.5 1t-4.5 6.5t-6 15.5h3l-4 8q-1 1 -2 3l2 13q-11 12 -4 74q1 15 2 20
q1 7 9 21q6 13 10 21l-5 1q9 15 32.5 38t36.5 21l3 5l-1 -1q-5 -2 -6 -1q15 15 31 17q6 1 10 2l4 3q-1 0 -4 -1q-7 -1 -6 1q11 3 20 9q12 7 31 9q2 -1 0.5 -1.5l-4.5 -1.5q-5 -1 -7 -3q16 8 45.5 6.5t52.5 -11.5q27 -13 50.5 -45.5t24.5 -64.5h2q-1 -7 0 -18q1 -27 -4 -40
l4 9q1 -11 -5 -25zM233 126q0 -1 -0.5 -1h-1t-0.5 1t0.5 1.5t1 0t0.5 -1.5zM233 126q1 -5 15 -12q18 -7 50 -6q-12 -5 -28.5 -2.5t-32.5 9t-30 18t-22 24.5q2 0 10 -9v0q15 -18 22 -20q-8 6 -17 20q14 -17 32 -25q0 1 1 2v1zM237 441h1h-1.5h-1.5l12 -1q-1 -1 -3 -1
q1 1 -7 2zM330 233q0 7 -1 9q-1 3 -3 -3q0 -1 -1 -2q1 0 2 -3t1.5 -3.5t1.5 2.5zM323 211q-1 -5 -6 -13l-1 -2q-7 -5 -7.5 -3t3.5 7l4 8q-6 -7 -7.5 -10.5t-1 -4.5t2.5 -1q3 -1 3 -3q8 11 10 22zM280 171l8 8q-8 -3 -21 -1q-9 -1 3 -4zM244 439l-3 -1zM175 166l-2 -6
q2 -2 5 -6q8 -12 13 -16q-3 5 -7 12q-6 9 -9 16zM182 176l-1 2q2 -7 8 -17l1 -2l-2 7q-3 3 -6 10zM421 217l-1 -3q-4 -25 -15 -47q13 23 16 50zM35 338zM35 338h1q0 -6 -3 -12h-1h1q4 3 5 4q2 7 0 7q-2 -1 -3 1zM25 296q1 2 1 4q-5 -7 -4 -13v-5q2 6 3 14zM25 296z" />
    <glyph glyph-name="threads" unicode="threads" 
d="M332 212h-1h1q-3 52 -30 80t-74 28h-1q-58 0 -88 -45l35 -24q17 27 53 27h1q31 0 46 -18q11 -13 15 -35q-28 4 -60 3q-44 -3 -70.5 -27t-24.5 -60q2 -38 34 -59q28 -18 64 -16q47 2 73 35q19 25 25 65q22 -14 32 -35q9 -16 4.5 -45t-26.5 -51q-14 -14 -30.5 -23
t-37 -13.5t-45.5 -4.5q-87 1 -129 55q-39 50 -40 143q1 93 40 143q43 54 128 55q87 -1 131 -55q21 -26 32 -65l41 10q-13 48 -41 82q-56 69 -162 70h-1q-105 -1 -160 -70q-49 -62 -49 -170v0q0 -108 49 -170q27 -34 67.5 -52t92.5 -18h1q90 1 142 53q23 22 32.5 50t8 50.5
t-9.5 42.5q-17 40 -62 61q-1 1 -3 2t-3 1zM176 143v1q-1 10 4 18.5t18.5 15t33.5 7.5q6 1 14 1q24 0 44 -5q-4 -41 -20 -56t-40 -17q-21 -1 -37.5 8.5t-16.5 26.5zM176 143z" />
    <glyph glyph-name="square-threads" unicode="square&#x2d;threads" 
d="M64 416h320q26 0 45 -19t19 -45v-320q0 -26 -19 -45t-45 -19h-320q-26 0 -45 19t-19 45v320q0 26 19 45t45 19zM294 204q-1 1 -4 2q-1 23 -9.5 39t-23.5 24.5t-36 8.5h-1q-38 0 -58 -30l23 -16q11 18 35 18h1q20 -1 31 -12q7 -9 9 -24q-18 3 -39 2q-20 -1 -34.5 -8.5
t-22.5 -20t-7 -28.5q2 -26 23 -40q18 -12 43 -11q31 2 48 24q13 16 17 43q15 -9 21 -23q6 -11 3.5 -30t-17.5 -34q-27 -27 -76 -27q-57 0 -85 36q-27 33 -27 95t27 96q28 35 85 36q58 -1 87 -36q14 -18 21 -44l27 7q-8 32 -27 55q-37 46 -108 46q-70 0 -107 -47
q-32 -41 -33 -113v0q1 -72 33 -113q36 -46 107 -47q60 1 95 35q22 22 26 51t-6 45q-11 27 -41 41zM222 136h1q-9 0 -17 2t-13.5 8t-6.5 14q0 10 9 18t29 10h9q16 0 29 -3q-4 -47 -40 -49zM222 136z" />
    <glyph glyph-name="square-x-twitter" unicode="square&#x2d;x&#x2d;twitter" 
d="M64 416h320q26 0 45 -19t19 -45v-320q0 -26 -19 -45t-45 -19h-320q-26 0 -45 19t-19 45v320q0 26 19 45t45 19zM361 332h-47l-79 -90l-67 90h-98l117 -153l-111 -127h47l86 98l75 -98h95l-122 161zM323 80h-26l-172 225h28zM323 80z" />
    <glyph glyph-name="x-twitter" unicode="x&#x2d;twitter" horiz-adv-x="512" 
d="M389 400l-116 -133l-101 133h-145l174 -228l-165 -188h70l128 145l111 -145h142l-181 240l154 176h-71zM364 26l-255 334h42l252 -334h-39z" />
    <glyph glyph-name="square-twitter" unicode="square&#x2d;twitter" 
d="M64 416h320q26 0 45 -19t19 -45v-320q0 -26 -19 -45t-45 -19h-320q-26 0 -45 19t-19 45v320q0 26 19 45t45 19zM351 249v8q19 14 33 34q-19 -8 -38 -10q21 13 29 36q-20 -12 -42 -16q-19 21 -47 21q-31 0 -51 -24t-13 -57q-83 5 -136 69q-9 -15 -9 -33q0 -16 8 -31
t22 -24q-16 1 -30 9v-1q0 -24 15 -42t38 -23q-14 -3 -30 -1q6 -20 23 -32.5t38 -12.5q-36 -28 -81 -28h-16q46 -29 101 -29q57 0 101 29t64.5 71t20.5 87zM351 249z" />
    <glyph glyph-name="square-facebook" unicode="facebook&#x2d;square" 
d="M400 416q20 0 34 -14t14 -34v-352q0 -20 -14 -34t-34 -14h-137v152h58l11 72h-69v47q0 38 40 38h31v61q-28 5 -55 5q-29 0 -49.5 -11t-32.5 -33t-12 -52v-55h-63v-72h63v-152h-137q-20 0 -34 14t-14 34v352q0 20 14 34t34 14h352z" />
    <glyph glyph-name="linkedin" unicode="linkedin" 
d="M416 416q13 0 22.5 -9.5t9.5 -22.5v-384q0 -13 -9.5 -22.5t-22.5 -9.5h-384q-13 0 -22.5 9.5t-9.5 22.5v384q0 13 9.5 22.5t22.5 9.5h384zM135 32h1v214h-67v-214h66zM102 275q16 0 27.5 11.5t11.5 27t-11.5 27t-27.5 11.5t-27 -11.5t-11 -27t11 -27t27 -11.5zM384 32
v117q0 50 -16.5 76t-62.5 26q-23 0 -39.5 -10t-23.5 -24h-1v29h-64v-214h67v106q0 12 1 20.5t5 17t12.5 13t20.5 4.5t20 -5t10.5 -15t3.5 -17.5t1 -19.5v-104h66z" />
    <glyph glyph-name="square-github" unicode="github&#x2d;square" 
d="M400 416q20 0 34 -14t14 -34v-352q0 -20 -14 -34t-34 -14h-352q-20 0 -34 14t-14 34v352q0 20 14 34t34 14h352zM277 32q50 17 80.5 60.5t30.5 98.5q0 68 -48.5 114.5t-117.5 46.5t-115.5 -46.5t-46.5 -114.5q0 -55 31 -98.5t81 -60.5q12 -2 12 8q0 1 -0.5 17t-0.5 24
q-2 -1 -5 -1.5t-11.5 -0.5t-15.5 1.5t-14 6.5t-10 14q-7 19 -18 24l-7 7q0 3 8 3q16 -1 25 -17q17 -29 49 -14q2 15 10 22q-18 2 -28 4.5t-22.5 9.5t-18 22t-5.5 37t16 39q-9 20 1 45q6 2 17.5 -2.5t20.5 -9.5l8 -6q20 6 41.5 6t41.5 -6q4 3 9.5 6.5t18 8.5t18.5 3
q10 -24 2 -45q17 -18 17 -39q0 -18 -5 -31.5t-11 -20.5t-18 -11.5t-20 -6t-22 -3.5q11 -9 11 -30v-34.5v-21.5q0 -10 11 -8zM179.5 93.5q3.5 0.5 3 3t-4.5 1.5q-3 0 -2.5 -2.5t4 -2zM170 94q0 3 -4 3q-3 0 -3 -3q0 -2 3 -2q4 0 4 2zM156 95.5q1 2.5 -3 3.5q-3 1 -4 -1.5
t3 -3.5q3 -1 4 1.5zM144 101q1 1 -1.5 4t-3.5 0q-2 -1 0 -4q3 -2 5 0zM135 110q2 1 0 4t-4 1q-2 -1 0 -3.5t4 -1.5zM128.5 119.5q1.5 1.5 -0.5 3.5t-3.5 0.5t0.5 -3.5t3.5 -0.5zM121 127q1 1 -1 3q-2 0 -3 -1t2 -2q2 -2 2 0z" />
    <glyph glyph-name="twitter" unicode="twitter" horiz-adv-x="512" 
d="M459 296q31 23 53 55q-30 -13 -60 -17q34 21 46 58q-31 -18 -67 -25q-31 33 -77 33q-28 0 -52.5 -14t-38 -38.5t-13.5 -52.5q0 -12 2 -24q-64 3 -120.5 32t-95.5 78q-15 -25 -15 -53q0 -56 47 -88q-25 1 -47 14v-2q0 -37 24 -66t60 -37q-14 -3 -28 -3q-9 0 -19 1
q10 -31 36.5 -51.5t61.5 -20.5q-58 -45 -131 -45q-14 0 -25 1q73 -47 161 -47q70 0 128 27t94.5 70.5t56.5 96t20 105.5q0 9 -1 13zM459 296z" />
    <glyph glyph-name="facebook" unicode="facebook" horiz-adv-x="512" 
d="M504 192q0 -61 -27.5 -114t-75.5 -87.5t-106 -43.5v173h58l11 72h-69v47q0 38 40 38h31v61q-28 5 -55 5q-29 0 -49.5 -11t-32.5 -33t-12 -52v-55h-63v-72h63v-173q-89 14 -149 83.5t-60 161.5q0 103 72.5 175.5t175.5 72.5t175.5 -72.5t72.5 -175.5z" />
    <glyph glyph-name="github" unicode="github" horiz-adv-x="496" 
d="M166 51q0 4 -6 3q-5 0 -5 -3q0 -5 6 -4q5 0 5 4zM134.5 55q1.5 4 6.5 2q5 -1 4 -5t-6 -2q-6 1 -4.5 5zM179 57q5 0 5.5 -3t-4.5 -5q-5 -1 -5.5 3t4.5 5zM245 440q68 0 126 -32t91.5 -88t33.5 -124q0 -41 -12 -79.5t-34 -69.5t-53.5 -54.5t-68.5 -35.5q-6 -1 -10 1t-5.5 5
t-1.5 6v32.5v51.5q0 32 -17 46q18 2 28.5 4t26 6t24.5 11.5t18.5 19t13.5 29t4 41.5q0 19 -6 31t-20 27q12 31 -2 68q-10 3 -27 -3.5t-30 -14.5l-12 -9q-31 9 -63.5 9t-62.5 -9q-5 4 -14 9.5t-27.5 13t-27.5 4.5q-15 -37 -3 -68q-23 -25 -23 -58q0 -18 2 -32.5t7.5 -25
t11 -18.5t14.5 -13.5t16.5 -9t19.5 -6t20 -3.5t21 -3q-13 -12 -16 -34q-7 -3 -14.5 -4.5t-18.5 -1.5t-21.5 7t-18.5 20q-3 5 -6.5 9t-7 6.5t-7 4.5t-7 3t-6 2t-3.5 1h-1q-22 0 -2 -15q7 -4 14 -13t10 -16l4 -8q4 -12 14 -20t22 -10t23 -2t18 1l7 1q0 -12 0.5 -36t0.5 -25
q0 -6 -4.5 -10t-13.5 -2q-75 25 -122 90.5t-47 148.5q0 104 70.5 174t174.5 70zM97 95q2 2 5 -1t1 -5t-5 1t-1 5zM86 103q2 2 5 1q3 -2 2 -4q-1 -3 -4 -1q-4 2 -3 4zM119 68q2 3 6 -1t2 -7q-3 -3 -7 1t-1 7zM107 82q3 3 6 -2q3 -4 0 -6t-5.5 2.5t-0.5 5.5zM107 82z" />
    <glyph glyph-name="pinterest" unicode="pinterest" horiz-adv-x="496" 
d="M496 192q0 103 -72.5 175.5t-175.5 72.5t-175.5 -72.5t-72.5 -175.5q0 -78 43.5 -141t114.5 -90q-5 46 0 71l30 123q-8 15 -8 37q0 26 13 43t32 17q15 0 23 -9.5t8 -24.5q0 -10 -3 -23.5t-9 -31.5t-8 -28q-3 -12 1.5 -22.5t14 -16.5t21.5 -6q33 0 55.5 32t22.5 82
q0 44 -29 72.5t-75 28.5q-51 0 -81.5 -32.5t-30.5 -75.5q0 -34 18 -57q3 -3 2 -7q-1 -3 -2.5 -9.5t-3 -11.5t-1.5 -7q-1 -6 -8 -3q-22 10 -36.5 38.5t-14.5 57.5q0 62 44 106t120 44q65 0 109 -41t44 -102q0 -65 -36.5 -109.5t-91.5 -44.5q-19 0 -35 8t-22 20
q-13 -47 -16 -59q-6 -25 -30 -65q35 -11 73 -11q103 0 175.5 72.5t72.5 175.5z" />
    <glyph glyph-name="square-pinterest" unicode="pinterest&#x2d;square" 
d="M448 368q0 20 -14 34t-34 14h-352q-20 0 -34 -14t-14 -34v-352q0 -20 14 -34t34 -14h89l-3 1q-1 11 -1.5 19.5t-1 16t1 16.5t2.5 16t4 21t6 25t8.5 34.5t10.5 43.5q-7 15 -7 37q0 44 31 57q26 10 39 -11q5 -9 5 -21q0 -7 -2 -17.5t-5 -20t-7 -22.5t-6 -22q-4 -18 7 -31
t29 -13q33 0 55 31.5t22 80.5q0 44 -28.5 72t-73.5 28q-50 0 -80.5 -32t-30.5 -75q0 -33 18 -56q3 -3 2 -7t-4 -15t-3 -12q-1 -7 -8 -4q-22 11 -36 39t-14 56q0 62 43.5 105.5t118.5 43.5q65 0 108.5 -40.5t43.5 -101.5q0 -42 -16.5 -77t-45.5 -55t-66 -20q-18 0 -34 8
t-22 20q-12 -47 -15 -59q-6 -23 -28 -59h246q20 0 34 14t14 34v352z" />
    <glyph glyph-name="square-google-plus" unicode="google&#x2d;plus&#x2d;square" 
d="M400 416q20 0 34 -14t14 -34v-352q0 -20 -14 -34t-34 -14h-352q-20 0 -34 14t-14 34v352q0 20 14 34t34 14h352zM164 92q43 0 69.5 27t26.5 71q0 8 -2 16h-94v-34h57q-1 -6 -4.5 -13t-10 -14t-17.5 -11.5t-25 -4.5q-25 0 -43.5 18.5t-18.5 44.5t18 44.5t44 18.5
q24 0 40 -15l27 26q-28 26 -67 26q-41 0 -70.5 -29.5t-29.5 -70.5t29.5 -70.5t70.5 -29.5zM384 174v29h-29v29h-29v-29h-29v-29h29v-29h29v29h29z" />
    <glyph glyph-name="google-plus-g" unicode="google&#x2d;plus&#x2d;g" horiz-adv-x="640" 
d="M386 220h-181v-67h109q-2 -11 -8.5 -24.5t-19 -27t-33.5 -22t-48 -8.5q-32 0 -59.5 16t-43.5 44t-16 61q0 50 35 85.5t84 35.5q46 0 76 -29l52 50q-53 50 -128 50q-80 0 -136 -56t-56 -136t56 -136t136 -56q41 0 75.5 14t58.5 38.5t37 59.5t13 76q0 15 -3 32zM571 213h56
v-56h-56v-56h-56v56h-55v56h55v56h56v-56zM571 213z" />
    <glyph glyph-name="linkedin-in" unicode="linkedin&#x2d;in" 
d="M100 0v299h-93v-299h93zM54 340q22 0 38 16t16 38q0 31 -27 47q-13 7 -27.5 7t-26.5 -7q-27 -16 -27 -47q0 -14 7 -26.5t19.5 -20t27.5 -7.5zM448 0v164q0 33 -4.5 57t-16 44.5t-34 31t-56.5 10.5q-32 0 -55 -14.5t-33 -34.5h-1v41h-90v-299h93v148q0 23 3.5 38t16.5 27
t36 12q17 0 27.5 -7t14.5 -20.5t5 -24t1 -27.5v-146h93zM448 0z" />
    <glyph glyph-name="github-alt" unicode="github&#x2d;alt" horiz-adv-x="480" 
d="M186 119q0 19 -9.5 37t-27 18t-27 -18t-9.5 -37t9.5 -37t27 -18t27 18t9.5 37zM480 170q0 68 -39 114q8 23 8 48q0 23 -15 52q-34 0 -58.5 -7.5t-49.5 -27.5q-38 9 -80 9q-47 0 -89 -10q-25 20 -49.5 28t-59.5 8q-14 -29 -14 -52q0 -25 8 -49q-42 -48 -42 -113
q0 -55 20 -95q7 -14 17 -25.5t25 -19t26 -13.5t32 -9t30.5 -5t34.5 -2.5t30.5 -0.5h30.5q28 0 40 0.5t39.5 2t43.5 6t36.5 12.5t34 21.5t22.5 32.5q18 36 18 95zM416 119q0 -31 -13 -52.5t-36.5 -31.5t-47.5 -13.5t-54 -3.5h-48q-30 0 -53.5 3.5t-47 13.5t-37 31.5
t-13.5 52.5q0 35 20 59t54 24q13 0 56 -6q21 -3 45 -3t45 3q44 6 56 6q34 0 54 -24t20 -59zM333.5 174q17.5 0 27 -18t9.5 -37t-9.5 -37t-27 -18t-27.5 18t-10 37t10 37t27.5 18z" />
    <glyph glyph-name="maxcdn" unicode="maxcdn" horiz-adv-x="512" 
d="M461 5l48 223q13 61 -24 106q-36 45 -98 45h-372l44 -96l-59 -278h97l60 278h83l-59 -278h97l60 278h49q16 0 24 -9.5t5 -25.5l-52 -243h97z" />
    <glyph glyph-name="html5" unicode="html&#x35;" horiz-adv-x="384" 
d="M0 416h384l-35 -396l-157 -52l-157 52zM308 288l5 48h-241l12 -146h167l-6 -62l-53 -15l-54 15l-4 38h-47l6 -76l99 -27h1l97 27l14 149h-176l-4 49h184z" />
    <glyph glyph-name="css3" unicode="css&#x33;" horiz-adv-x="512" 
d="M480 416h-407l-17 -82h334l-11 -53h-334l-16 -82h334l-19 -97l-134 -44l-116 44l8 41h-82l-20 -95l193 -80l223 80zM480 416z" />
    <glyph glyph-name="btc" unicode="btc" horiz-adv-x="384" 
d="M310 205q77 -18 70 -100q-6 -53 -41.5 -75t-101.5 -26v-68h-49v67h-38v-67h-49v68h-97l10 58h10q17 -1 23.5 -0.5t12.5 4.5t7 12v217q-3 16 -14.5 19.5t-40.5 2.5h-8v52q84 -1 97 0v79h49v-78q26 1 38 1v77h49v-79q24 -3 43 -8t35 -14t25.5 -24t10.5 -36q6 -58 -41 -82z
M151 313v-96q1 0 10.5 -0.5t14.5 0t15.5 0.5t17.5 1.5t16.5 3.5t15.5 6t11.5 9t8.5 12t3 16q0 12 -4.5 20.5t-13.5 14t-17.5 8.5t-22 4t-21 1.5t-20.5 0t-14 -0.5zM151 62q1 0 12.5 -0.5t17.5 0t18.5 1t20.5 2t19 3.5t18 6.5t13.5 9.5t10 13t3.5 18q0 13 -5.5 22.5t-16 15
t-20 9.5t-26 5t-24.5 1.5t-24 0t-17 -0.5v-106zM151 62z" />
    <glyph glyph-name="square-youtube" unicode="square&#x2d;youtube" 
d="M187 246v-108l95 54zM448 368q0 20 -14 34t-34 14h-352q-20 0 -34 -14t-14 -34v-352q0 -20 14 -34t34 -14h352q20 0 34 14t14 34v352zM406 192q0 -60 -8 -88q-6 -25 -32 -32q-12 -4 -47.5 -6t-65.5 -2h-29q-114 0 -142 8q-26 6 -32 32q-2 5 -3 13t-2 16.5t-1.5 17
t-1 15.5t-0.5 13v9v4q0 59 8 88q6 26 32 32q12 4 47.5 6t65.5 2h29q114 0 142 -8q26 -6 32 -32q4 -13 6 -35t2 -38v-15zM406 192z" />
    <glyph glyph-name="youtube" unicode="youtube" horiz-adv-x="576" 
d="M550 324q3 -12 5.5 -30t3.5 -35.5t1.5 -32.5t0.5 -25v-9q0 -90 -11 -133q-10 -37 -49 -48q-19 -5 -72 -7.5t-97 -3.5h-44q-171 0 -213 11q-39 11 -49 48q-3 12 -5.5 30t-3.5 35.5t-1.5 33t-0.5 24.5v10q0 89 11 132q5 18 18 31t31 18q19 5 72 7.5t97 3.5h44
q171 0 213 -11q7 -2 13.5 -5.5t12 -8t10 -10t8 -12t5.5 -13.5zM232 110l143 82l-143 81v-163zM232 110z" />
    <glyph glyph-name="xing" unicode="xing" horiz-adv-x="384" 
d="M163 238l-45 78q-7 12 -18 12h-65q-6 0 -9 -4.5t0 -9.5l44 -76l-69 -122q-2 -5 0.5 -9.5t8.5 -4.5h65q10 0 18 13zM383 402q2 5 -0.5 9.5t-8.5 4.5h-66q-10 0 -17 -12q-41 -72 -77 -135.5t-51.5 -90.5t-16.5 -29l92 -169q7 -12 18 -12h66q6 0 8.5 4.5t-0.5 9.5l-91 167z
M383 402z" />
    <glyph glyph-name="square-xing" unicode="square&#x2d;xing" 
d="M400 416q20 0 34 -14t14 -34v-352q0 -20 -14 -34t-34 -14h-352q-20 0 -34 14t-14 34v352q0 20 14 34t34 14h352zM140 128q8 0 13 9q48 85 50 88l-32 55q-5 9 -13 9h-46q-5 0 -6.5 -3t0.5 -7l31 -54l-49 -87q-2 -4 0 -7t6 -3h46zM360 342q2 4 0 7t-6 3h-47q-7 0 -12 -9
q-102 -179 -104 -182l66 -120q5 -9 13 -9h47q4 0 6 3t0 7l-66 119zM360 342z" />
    <glyph glyph-name="dropbox" unicode="dropbox" horiz-adv-x="528" 
d="M264 332l-132 84l-132 -84l132 -84l-132 -84l132 -85l132 84l-132 84zM132 52l132 -84l132 84l-132 85zM264 164l132 -85l132 84l-132 84l132 85l-132 84l-132 -84l132 -84zM264 164z" />
    <glyph glyph-name="stack-overflow" unicode="stack&#x2d;overflow" horiz-adv-x="384" 
d="M291 137l-9 -39l-195 41l8 39zM342 224l-26 -31l-153 129l25 30zM310 184l-16 -36l-182 84l17 37zM262 416l119 -160l-32 -24l-119 160zM282 88v-40h-200v40h200zM322 8v120h40v-160h-359v160h40v-120h279zM322 8z" />
    <glyph glyph-name="instagram" unicode="instagram" 
d="M224 307q48 0 81.5 -33.5t33.5 -81.5t-33.5 -81.5t-81.5 -33.5t-81.5 33.5t-33.5 81.5t33.5 81.5t81.5 33.5zM224 117q20 0 37.5 10t27.5 27.5t10 37.5q0 31 -22 53t-53 22t-53 -22t-22 -53t22 -53t53 -22zM371 312q0 4 -1.5 8t-4 7.5t-6 6t-7.5 3.5t-8 1q-11 0 -19 -7.5
t-8 -18.5t8 -19t19 -8t19 8t8 19zM447 284q1 -27 1 -92t-1 -92q-3 -61 -36.5 -94.5t-93.5 -35.5q-28 -2 -93 -2t-92 2q-61 3 -94 36q-19 18 -27 41t-9 53q-2 27 -2 92t2 93q3 60 36 93q33 34 94 37q27 1 92 1t92 -1q61 -3 94.5 -36.5t36.5 -94.5zM399 60q3 8 5 20.5t3 30
t1 28.5v31v22.5v22v30.5t-1 28.5t-3 30t-5 20.5q-12 31 -43 43q-8 3 -20.5 5t-30 3t-28 1h-31h-22.5h-22h-31t-28.5 -1t-30 -3t-20.5 -5q-31 -12 -43 -43q-3 -8 -5 -20.5t-3 -30t-1 -28v-31v-22.5v-22v-31t1 -28.5t3 -30t5 -20.5q13 -31 43 -43q7 -2 18 -4t21.5 -3
t25.5 -1.5t24.5 -0.5h24h18.5h22.5h30.5t28.5 1t30 3t20.5 5q31 13 43 43z" />
    <glyph glyph-name="flickr" unicode="flickr" 
d="M400 416q20 0 34 -14t14 -34v-352q0 -20 -14 -34t-34 -14h-352q-20 0 -34 14t-14 34v352q0 20 14 34t34 14h352zM144.5 129q26.5 0 45 18.5t18.5 45t-18.5 45t-45 18.5t-45 -18.5t-18.5 -45t18.5 -45t45 -18.5zM303.5 129q26.5 0 45 18.5t18.5 45t-18.5 45t-45 18.5
t-45 -18.5t-18.5 -45t18.5 -45t45 -18.5z" />
    <glyph glyph-name="adn" unicode="adn" horiz-adv-x="496" 
d="M248 280l-65 -98h130zM496 192q0 103 -72.5 175.5t-175.5 72.5t-175.5 -72.5t-72.5 -175.5t72.5 -175.5t175.5 -72.5t175.5 72.5t72.5 175.5zM396 109h-30l-34 52h-168l-34 -52h-30l148 223z" />
    <glyph glyph-name="bitbucket" unicode="bitbucket" horiz-adv-x="512" 
d="M22 416h467h3q6 -1 10 -6.5t3 -12.5l-68 -416q-2 -14 -16 -14h-326q-8 0 -14 5t-7 13l-68 412v3q0 7 5 11.5t11 4.5zM308 118l25 147h-157l28 -147h104zM308 118z" />
    <glyph glyph-name="tumblr" unicode="tumblr" horiz-adv-x="320" 
d="M310 -32q4 4 0 14l-22 64q-2 7 -7 8q-4 2 -13 -2q-33 -12 -50.5 -1.5t-17.5 37.5v133h83q10 0 10 10v82q0 10 -10 10h-83v115q0 10 -10 10h-70q-15 0 -17 -16q-2 -37 -22 -70t-62 -47q-11 -4 -11 -16v-68q0 -10 10 -10h47v-144q0 -23 6.5 -45t21.5 -45t46 -37t73 -14
q33 0 59.5 9.5t38.5 22.5zM310 -32z" />
    <glyph glyph-name="square-tumblr" unicode="square&#x2d;tumblr" 
d="M400 416q20 0 34 -14t14 -34v-352q0 -20 -14 -34t-34 -14h-352q-20 0 -34 14t-14 34v352q0 20 14 34t34 14h352zM318 52q2 2 0 9l-14 40q-1 4 -4 5t-8 -1q-21 -8 -32 -1.5t-11 23.5v83h52q6 0 6 7v51q0 6 -6 6h-52v72q0 6 -6 6h-44q-9 0 -10 -10q-4 -56 -53 -73
q-7 -3 -7 -10v-43q0 -6 6 -6h30v-90q0 -14 4 -28t13.5 -28t28.5 -23t46 -9q42 0 61 20zM318 52z" />
    <glyph glyph-name="apple" unicode="apple" horiz-adv-x="384" 
d="M319 179q0 -63 61 -92q-7 -22 -20.5 -47t-36.5 -48.5t-45 -23.5q-14 0 -37 9t-40 9q-14 0 -27.5 -4.5t-25.5 -9t-22 -4.5q-22 -1 -46.5 24t-39 52t-22.5 49q-14 42 -14 82q0 62 34.5 97t80.5 36q15 0 42.5 -10t33.5 -10q4 0 11.5 2.5l16.5 5.5t18.5 6.5t21 5t21.5 1.5
q57 -5 85 -45q-51 -30 -50 -85zM262 344q-32 -38 -69 -35q-4 40 25 72q12 14 31 24t37 11q3 -40 -24 -72z" />
    <glyph glyph-name="windows" unicode="windows" 
d="M0 354v-152h184v178zM0 30v150h184v-176zM204 2v178h244v-212zM204 382l244 34v-214h-244v180zM204 382z" />
    <glyph glyph-name="android" unicode="android" horiz-adv-x="576" 
d="M420.5 146q9.5 0 17 7t7.5 17t-7.5 17t-17 7t-16.5 -7t-7 -17t7 -17t16.5 -7zM155.5 146q9.5 0 16.5 7t7 17t-7 17t-16.5 7t-17 -7t-7.5 -17t7.5 -17t17 -7zM429 291q25 -14 46.5 -32t38.5 -39.5t30 -46t21.5 -52.5t10.5 -57h-576q6 73 45 133t102 94l-48 83
q-3 5 -0.5 10t8.5 5t9 -5l49 -85q59 27 123 27t123 -27l49 85q3 5 9 5t8.5 -5t-0.5 -10z" />
    <glyph glyph-name="linux" unicode="linux" 
d="M221 325h-2l-2 1q0 1 1 2q2 1 6 -1q3 -1 3 -2.5t-3 -1.5q-1 0 -2 1zM199 323q-3 0 -3 1q0 2 3 3q4 2 6 0q1 0 0.5 -0.5t-2.5 -1.5h-1l-1 -1t-2 -1zM420 44q16 -18 15 -30q0 -10 -13 -18q-5 -2 -16.5 -7.5t-20 -11.5t-14.5 -13q-22 -26 -49 -28t-40 23q-1 3 -2 7
q-12 -1 -30.5 2t-25.5 2q-11 -1 -26.5 -4t-21.5 -3q-7 -16 -26 -20q-25 -6 -56 11q-8 4 -18.5 6t-22.5 3.5t-18 2.5q-15 3 -20 12q-5 11 2 32q2 5 -1 21q-1 8 -1 12q0 7 3 12q5 10 18 15q14 4 17 8q3 2 5.5 6t5.5 8t6 6q-4 24 6 53q15 46 58 97q20 28 23 65q0 5 -1 17.5
t-1 23.5t1 25.5t5.5 25.5t13 21.5t24 16t36.5 5.5q23 0 39 -9.5t22.5 -24t10.5 -32t3.5 -34.5t0.5 -31q-1 -14 5 -28t11 -22t17 -22q33 -40 46 -75q17 -42 4 -79l4 -2t4 -3q7 -5 11 -22q4 -16 7 -20zM224 361q-5 -11 -3 -22q8 -2 13 -5q-2 9 2 16.5t10 6.5q6 0 9 -9t0 -18
q-1 0 -4 -4q9 -3 12 -5q15 17 5 40q-8 16 -22.5 16t-21.5 -16zM183 372q-14 0 -17 -20.5t9 -31.5l6 5l-1 1q-5 5 -4.5 16t6.5 12q5 0 8 -6.5t2 -13.5q4 3 10 5q1 14 -5 23.5t-14 9.5zM169 311q-6 -4 -4 -12q3 -8 15 -15q3 -2 9.5 -7.5t10.5 -7.5t9 -2q11 -1 24 6.5t15 8.5
q18 5 22 18q5 12 -10 18q-4 2 -7.5 3t-6 2l-5 2t-4.5 2q-14 9 -26 9t-28 -14zM173 -23q1 12 -19 38.5t-22 30.5l-20 36q-10 14 -22 16q-10 2 -18 -7q-2 -2 -6.5 -8.5t-7.5 -9.5q-6 -5 -19 -10q-11 -4 -15 -11q-3 -6 -1 -20q3 -18 0 -24q-3 -10 -3.5 -17t1.5 -10
q3 -6 15.5 -8t30.5 -4.5t30 -9.5q24 -14 49 -10t27 28zM171 3q31 -17 59.5 -14t55.5 22q6 21 6 29q2 28 5 40q5 21 21 27q3 28 38 12q28 -12 23 -26h1.5h1h1.5q7 20 -30 35q4 17 -1 36q-8 35 -35 59q-4 0 3 -7q13 -12 22.5 -36.5t0.5 -48.5q-6 2 -11 2q-5 31 -23 64
q-25 46 -38 96q-7 -10 -22 -15l-4 -2t-3.5 -2t-4 -2.5t-4.5 -2.5q-24 -14 -42 1q-1 1 -5.5 5t-7.5 6q-2 1 -6 4q-1 -14 -6 -31.5t-9.5 -28t-13.5 -31t-10 -22.5q-13 -31 -14 -62q-24 32 2 83q12 22 9 21q-22 -36 -27 -60q-5 -19 0 -35q6 -18 25 -30q25 -14 38 -32
q11 -15 8 -25q-4 -9 -17 -9q10 -12 14 -20zM429 15q0 9 -14 25q-4 4 -6.5 13t-4.5 17t-6 11q-7 6 -23 5q-6 -7 -17.5 -12.5t-20.5 -3.5q-17 4 -19 29h-1q-10 -5 -14 -21q-2 -11 -4 -39q0 -3 -10 -40q-6 -24 -1 -37q11 -21 34 -19q24 2 43 25q10 11 26 19.5t26.5 14.5
t11.5 13zM173 299q-4 4 -1 7q1 0 2.5 -2.5l1.5 -2.5q5 -5 8 -7q12 -10 24 -10t30 11q2 1 14 9q2 1 3.5 3.5t2.5 1.5q4 0 -3 -6q-7 -7 -15 -11q-20 -10 -31 -10q-14 0 -28 10q-3 3 -8 7zM173 299z" />
    <glyph glyph-name="dribbble" unicode="dribbble" horiz-adv-x="512" 
d="M256 440q103 0 175.5 -72.5t72.5 -175.5t-72.5 -175.5t-175.5 -72.5t-175.5 72.5t-72.5 175.5t72.5 175.5t175.5 72.5zM420 326q-6 -8 -15.5 -18t-38.5 -31t-64 -35q9 -20 18 -42q73 10 148 -6q-1 74 -48 132zM396 350q-39 35 -89 47.5t-101 0.5q43 -57 79 -124
q34 12 61.5 31t36 28.5t13.5 16.5zM166 383q-45 -21 -76 -60t-41 -88q94 -1 195 26q-36 65 -78 122zM44 192q0 -82 55 -142q27 47 76 87t104 55q-7 18 -17 36q-108 -32 -218 -30v-6zM126 25q46 -37 104 -44t109 16q-13 77 -45 160q-61 -20 -105.5 -57.5t-62.5 -74.5zM374 16
q77 52 91 142q-63 20 -132 9q29 -80 41 -151z" />
    <glyph glyph-name="skype" unicode="skype" 
d="M425 148q23 -30 23 -68q0 -46 -33 -79t-79 -33q-38 0 -68 23q-22 -4 -44 -4q-85 0 -145 60t-60 145q0 21 4 44q-23 30 -23 68q0 46 33 79t79 33q38 0 68 -23q22 4 44 4q85 0 145 -60t60 -145q0 -21 -4 -44zM230 57q45 0 78.5 22.5t33.5 63.5q0 57 -91 78q-5 1 -16 3
q-17 4 -24 6t-15.5 5.5t-11 7.5t-2.5 11q0 22 42 22q20 0 32.5 -8t22 -16.5t20.5 -8.5q14 0 22.5 9t8.5 23q0 16 -16.5 29t-41.5 19.5t-53 6.5q-44 0 -76.5 -20t-32.5 -61q0 -11 1.5 -20t6 -16t8.5 -12t13 -10t13.5 -8t17 -6.5t17.5 -5t20.5 -5t20.5 -4.5q17 -5 23 -6.5
t12.5 -7t6.5 -14.5q0 -12 -12 -19.5t-31 -7.5q-18 0 -32 7t-20.5 15.5t-16 15.5t-19.5 7q-14 0 -21.5 -8.5t-7.5 -21.5q0 -27 35.5 -46t84.5 -19zM230 57z" />
    <glyph glyph-name="foursquare" unicode="foursquare" horiz-adv-x="368" 
d="M323 445q29 0 39 -16t3 -49l-48 -243q-2 -9 -4 -13t-6.5 -12t-13 -11.5t-21.5 -3.5h-83q-4 0 -7 -3q-2 -3 -131 -152q-13 -15 -33 -7q-18 7 -18 30v434q0 17 12.5 31.5t37.5 14.5h273zM307 371q1 5 -1 9t-5.5 6.5t-7.5 2.5h-219q-7 0 -11.5 -5.5t-4.5 -11.5v-339
q0 -2 1 0l90 108q5 6 8.5 8.5t7 3.5t10.5 1h74q7 0 11.5 4.5t5.5 8.5q4 23 11 59q1 5 -1 9t-5.5 6.5t-8.5 2.5h-90q-9 0 -15 6t-6 15v13q0 4 2 8t4.5 6.5t6.5 4t8 1.5h106q6 0 11 4.5t6 9.5zM307 371z" />
    <glyph glyph-name="trello" unicode="trello" 
d="M392 416q23 0 39.5 -16.5t16.5 -39.5v-336q0 -15 -7.5 -28t-20.5 -20.5t-28 -7.5h-336q-23 0 -39.5 16.5t-16.5 39.5v296v40q0 23 16.5 39.5t39.5 16.5h336zM197 77v254q0 11 -8 19t-19 8h-83q-7 0 -13 -3.5t-10 -10t-4 -13.5v-254q0 -11 8 -19t19 -8h83q11 0 19 8t8 19z
M390 189v142q0 11 -8 19t-19 8h-81q-7 0 -13.5 -4t-10 -10t-3.5 -13v-142q0 -6 2.5 -11t6 -8.5t8.5 -5.5t10 -2h81q11 0 19 8t8 19z" />
    <glyph glyph-name="gratipay" unicode="gratipay" horiz-adv-x="496" 
d="M248 440q103 0 175.5 -72.5t72.5 -175.5t-72.5 -175.5t-175.5 -72.5t-175.5 72.5t-72.5 175.5t72.5 175.5t175.5 72.5zM363 214q5 7 7.5 19t-2 27.5t-19.5 25.5q-23 11 -39.5 6.5t-28.5 -18.5q-12 -13 -31 -13.5t-31 13.5t-29 18.5t-40 -6.5q-14 -10 -19 -26t-2 -27.5
t8 -18.5l113 -153zM363 214z" />
    <glyph glyph-name="vk" unicode="vk" 
d="M31.5 384.5q21.5 21.5 58 26.5t125.5 5h18q89 0 125.5 -5t58.5 -26q15 -16 22 -42.5t8 -53t1 -88.5v-18q0 -89 -5 -125.5t-26.5 -58t-58 -26.5t-125.5 -5h-18q-89 0 -125.5 5t-58 26.5t-26.5 58t-5 125.5v18q0 89 5 125.5t26.5 58zM76 280q1 -88 43.5 -137.5t118.5 -49.5
h6v67q28 -4 49 -22t28 -45h53q-8 31 -28 55.5t-48 38.5q25 15 42 39.5t23 53.5h-48q-8 -28 -28.5 -50t-42.5 -24v74h-48v-129q-17 4 -31.5 17t-25.5 42.5t-12 69.5h-51z" />
    <glyph glyph-name="weibo" unicode="weibo" horiz-adv-x="512" 
d="M407 270q-3 -10 3.5 -16.5t16 -5t12.5 11.5q12 36 -13.5 64.5t-63.5 20.5q-10 -2 -12.5 -11.5t3.5 -16.5t17 -5q18 4 30.5 -10t6.5 -32zM215 1q117 0 189 65q53 49 41 97q-10 38 -61 54q-4 1 -5.5 2t-3 3.5t0.5 7.5q19 49 -17.5 63.5t-96.5 -12.5h-1q-15 -5 -11 6
q18 59 -23 69q-46 11 -116 -44q-18 -14 -35 -31q-76 -76 -76 -143q0 -61 65 -99t150 -38zM358.5 147.5q4.5 -41.5 -37.5 -75.5t-106 -40q-64 -7 -111.5 18.5t-51.5 67t37.5 75.5t105.5 40q64 7 111.5 -18.5t52 -67zM348 413q50 10 92.5 -13t61.5 -68t3 -93q-6 -19 -24.5 -13
t-12.5 25q17 53 -20 94t-92 30q-12 -3 -19 5.5t-4 19t15 13.5zM269 102q13 29 -0.5 54.5t-45.5 33.5q-30 8 -60 -5t-43 -40t-1.5 -53.5t41.5 -35.5q32 -11 64.5 3t44.5 43zM183 132q10 -4 13 -14t-3 -20t-17.5 -14t-21.5 1t-12.5 14.5t3.5 19.5q6 9 17 13t21 0zM216 145
q9 -3 4 -13q-5 -9 -15 -5q-9 4 -4 13q6 8 15 5z" />
    <glyph glyph-name="renren" unicode="renren" horiz-adv-x="512" 
d="M214 279v157q-88 -15 -147 -84t-59 -161q0 -90 58 -159q66 32 107 98.5t41 148.5zM255 -56q64 0 119 30q-45 28 -76.5 68.5t-42.5 86.5q-11 -46 -42.5 -86.5t-76.5 -68.5q56 -30 119 -30zM446 32q58 69 58 159q0 92 -59 161t-147 84v-157q0 -82 41 -148.5t107 -98.5z" />
    <glyph glyph-name="pagelines" unicode="pagelines" horiz-adv-x="384" 
d="M384 135q-18 15 -37.5 22t-35.5 6t-32 -5.5t-27.5 -12t-20.5 -14t-14 -11.5l-5 -5q13 37 20 78q3 -1 8 -1.5t19.5 -1t27.5 1.5t29 9t28 18.5t20.5 32t9.5 47.5q-19 7 -36.5 7t-30.5 -4.5t-25 -11.5t-20 -15.5t-13.5 -16t-8.5 -11.5l-3 -5q1 7 1 19.5t-1 13.5q2 3 4 7
t6 17.5t5.5 26t-0.5 29.5t-9 31.5t-24 28.5t-43 23q-19 -26 -22 -52.5t6 -46t21 -35t23 -24.5l10 -8q0 -19 -3 -53q-1 3 -2.5 7t-7 16t-13 22.5t-20 21t-27.5 16t-36.5 4.5t-46.5 -10q3 -34 19.5 -56.5t38 -30.5t42.5 -11.5t35 -1.5l15 2q-7 -44 -22 -80q-9 15 -21.5 28
t-33.5 24t-53 10t-70 -17q12 -31 29.5 -51.5t34 -29.5t36 -10.5t33.5 1.5t29 8q-29 -51 -69.5 -80.5t-88.5 -29.5q-12 0 -12 -12t12 -12q57 0 105.5 36t79.5 98q3 -1 7.5 -4t19.5 -9t29.5 -9t33.5 -2t36 8t33.5 24.5t27.5 45.5z" />
    <glyph glyph-name="stack-exchange" unicode="stack&#x2d;exchange" 
d="M18 116v-22q0 -19 8.5 -34.5t23.5 -24.5t33 -9h176v-90l87 90h19q27 0 46 19.5t19 48.5v22h-412zM18 139v85h412v-85h-412zM18 249v85h412v-85h-412zM365 448q27 0 46 -20t19 -48v-22h-412v22q0 28 19 48t46 20h282z" />
    <glyph glyph-name="square-vimeo" unicode="square&#x2d;vimeo" 
d="M400 416q20 0 34 -14t14 -34v-352q0 -20 -14 -34t-34 -14h-352q-20 0 -34 14t-14 34v352q0 20 14 34t34 14h352zM384 266q3 63 -47 64q-66 3 -90 -75q15 9 31.5 4.5t13.5 -26.5q-1 -16 -21 -48q-27 -42 -39 -27t-28 117q-4 28 -15.5 40.5t-30.5 10.5q-6 0 -14 -4
t-18.5 -12.5t-18 -15t-22 -19.5t-21.5 -19l15 -19q21 15 25 15q7 0 12 -6t11 -23.5t10.5 -31.5t12.5 -47q7 -25 11 -39q19 -51 47 -51q45 0 110 85q64 81 66 127zM384 266z" />
    <glyph glyph-name="slack" unicode="slack&#x2d;hash" 
d="M94 133v47h-47q-19 0 -33 -14t-14 -33.5t14 -33t33 -13.5t33 13.5t14 33.5zM118 133v-118q0 -19 13.5 -33t33 -14t33.5 14t14 33v118q0 19 -14 33t-33.5 14t-33 -14t-13.5 -33zM165 322h47v47q0 19 -14 33t-33.5 14t-33 -14t-13.5 -33t13.5 -33t33.5 -14zM165 298h-118
q-19 0 -33 -13.5t-14 -33t14 -33.5t33 -14h118q19 0 33 14t14 33.5t-14 33t-33 13.5zM354 251v-47h47q19 0 33 14t14 33.5t-14 33t-33 13.5t-33 -13.5t-14 -33.5zM330 251v118q0 19 -13.5 33t-33 14t-33.5 -14t-14 -33v-118q0 -19 14 -33t33.5 -14t33 14t13.5 33zM283 62
h-47v-47q0 -19 14 -33t33.5 -14t33 14t13.5 33t-13.5 33t-33.5 14zM283 86h118q19 0 33 13.5t14 33t-14 33.5t-33 14h-118q-19 0 -33 -14t-14 -33.5t14 -33t33 -13.5z" />
    <glyph glyph-name="wordpress" unicode="wordpress" horiz-adv-x="512" 
d="M62 279q-19 -42 -19 -87q0 -62 33 -113.5t87 -77.5zM400 203q0 -17 -16 -69l-22 -71l-76 229l24 2q8 1 7.5 9.5t-9.5 7.5q-34 -2 -56 -2l-56 2q-6 1 -8.5 -3.5t-0.5 -9t7 -4.5q11 -1 23 -2l33 -91l-47 -140l-77 231l24 2q9 1 8 9.5t-9 7.5q-35 -2 -57 -2h-14q29 44 76 70
t102 26q83 0 144 -56h-3q-15 0 -25.5 -11.5t-10.5 -26.5q0 -16 21 -50q18 -30 18 -58zM260 173l65 -179q1 -1 2 -3q-35 -12 -71 -12q-30 0 -60 9zM443 294q26 -47 26 -102q0 -58 -29 -107t-77 -77l65 188q16 40 16 76q0 12 -1 22zM504 192q0 67 -33 124.5t-90.5 90.5
t-124.5 33q-103 0 -175.5 -72.5t-72.5 -175.5t72.5 -175.5t175.5 -72.5t175.5 72.5t72.5 175.5zM493 192q0 -98 -69.5 -167.5t-167.5 -69.5t-167.5 69.5t-69.5 167.5t69.5 167.5t167.5 69.5t167.5 -69.5t69.5 -167.5z" />
    <glyph glyph-name="openid" unicode="openid" 
d="M272 16h-1v384l-68 -33v-340q-58 7 -96.5 36t-38.5 67q0 36 34.5 64t89.5 37v43q-83 -10 -137.5 -50.5t-54.5 -93.5q0 -56 58.5 -97t145.5 -49zM448 157l-9 97l-35 -19q-51 31 -120 39v-43q40 -7 70 -25l-37 -20z" />
    <glyph glyph-name="yahoo" unicode="yahoo" horiz-adv-x="512" 
d="M224 307h93l-141 -339h-94l39 90l-106 249h96l56 -143zM329 171q24 0 41 -17t17 -41q0 -18 -9.5 -32.5t-26 -21.5t-34 -3.5t-30 16t-15.5 30t3.5 34t21 26t32.5 9.5zM395 416h104l-93 -223h-104zM395 416z" />
    <glyph glyph-name="google" unicode="google" horiz-adv-x="488" 
d="M488 186q0 20 -4 42h-236v-86h141q-3 -15 -11.5 -32t-24 -34.5t-43 -29t-62.5 -11.5q-64 0 -109 46t-45 111q0 40 17.5 73.5t46.5 53t62 27t67 -1.5t60 -34l67 65q-69 65 -166 65q-103 0 -175.5 -72.5t-72.5 -175.5t72.5 -175.5t175.5 -72.5q107 0 173.5 68t66.5 174z
M488 186z" />
    <glyph glyph-name="reddit" unicode="reddit" horiz-adv-x="512" 
d="M201.5 142q10.5 0 17.5 7.5t7 17.5q0 4 -1 8t-3.5 7t-5.5 5t-6.5 3.5t-7.5 1.5q-11 0 -18 -7.5t-7 -17.5t7 -17.5t17.5 -7.5zM504 192q0 103 -72.5 175.5t-175.5 72.5t-175.5 -72.5t-72.5 -175.5t72.5 -175.5t175.5 -72.5t175.5 72.5t72.5 175.5zM372 233q16 0 25.5 -12
t7 -27.5t-17.5 -22.5q2 -8 2 -16q0 -40 -39 -67.5t-94 -27.5q-54 0 -93 27.5t-39 67.5q0 8 2 15q-15 8 -18 23.5t6.5 27.5t25.5 12q15 0 24 -10q36 25 86 27l19 86q2 6 7 5l61 -14q7 14 22 14q7 0 12.5 -3.5t9 -9t3.5 -12.5q0 -10 -7 -17.5t-17.5 -7.5t-17.5 7t-7 18l-56 12
l-17 -78q50 -2 86 -27q10 10 24 10zM303 117q4 4 8 0q5 -5 0 -9q-17 -17 -55 -17t-55 17q-5 4 0 9q4 4 8 0q13 -13 46.5 -13.5t47.5 13.5zM310 192q11 0 18 -7.5t7 -17.5t-7 -17.5t-17.5 -7.5t-17.5 7.5t-7 17.5q0 7 3 12.5t9 9t12 3.5z" />
    <glyph glyph-name="square-reddit" unicode="reddit&#x2d;square" 
d="M283 102q-4 5 -9 0q-14 -14 -50 -14t-50 14q-5 5 -9 0q-5 -4 0 -9q18 -18 59 -18t59 18q5 5 0 9zM192 156q0 -11 -8 -18.5t-19 -7.5t-18.5 7.5t-7.5 18.5t7.5 19t18.5 8t19 -8t8 -19zM283 183q11 0 18.5 -8t7.5 -19t-7.5 -18.5t-18.5 -7.5t-19 7.5t-8 18.5t8 19t19 8z
M448 368q0 20 -14 34t-34 14h-352q-20 0 -34 -14t-14 -34v-352q0 -20 14 -34t34 -14h352q20 0 34 14t14 34v352zM348 227q18 0 28.5 -13t7 -29.5t-19.5 -24.5q3 -7 3 -17q0 -42 -42 -72t-101 -30q-58 0 -100 30t-42 72q0 9 2 17q-16 8 -19.5 24.5t7 29.5t28.5 13
q15 0 26 -11q38 27 92 29l20 93q2 6 7 5l66 -15q8 15 24 15q11 0 19 -8t8 -19t-8 -18.5t-19 -7.5t-19 7.5t-8 18.5l-59 14l-19 -85q54 -1 93 -28q11 10 25 10zM348 227z" />
    <glyph glyph-name="stumbleupon-circle" unicode="stumbleupon&#x2d;circle" horiz-adv-x="496" 
d="M256 440q103 0 175.5 -72.5t72.5 -175.5t-72.5 -175.5t-175.5 -72.5t-175.5 72.5t-72.5 175.5t72.5 175.5t175.5 72.5zM256 262q7 0 12.5 -5t5.5 -12v-21l23 -10l34 10v23q0 30 -22 51.5t-53 21.5t-53 -21t-22 -51v-108q0 -8 -5 -13t-12.5 -5t-12.5 5t-5 13v45h-58v-46
q0 -31 22 -53t53 -22t53 21.5t22 52.5v107q0 7 5.5 12t12.5 5zM424 139v46h-58v-48q0 -7 -5 -12t-12.5 -5t-12.5 5t-5 12v47l-34 -10l-23 11v-47q0 -31 22 -52.5t53 -21.5t53 22t22 53zM424 139z" />
    <glyph glyph-name="stumbleupon" unicode="stumbleupon" horiz-adv-x="512" 
d="M503 182h-86v-72q0 -11 -8 -18.5t-19 -7.5t-18.5 7.5t-7.5 18.5v71l-52 -16l-34 16v-70q0 -46 33 -78.5t79.5 -32.5t79.5 33t33 79v70zM278 240v31q0 11 -7.5 19t-19 8t-19 -8t-7.5 -19v-160q0 -46 -33 -78.5t-80 -32.5q-46 0 -79 33t-33 79v70h86v-69q0 -11 8 -18.5
t19 -7.5q5 0 10 2t8.5 5.5t5.5 8.5t2 10v163q0 45 33.5 76.5t79 31.5t79 -32t33.5 -77v-36l-51 -15zM278 240z" />
    <glyph glyph-name="delicious" unicode="delicious" 
d="M446 380q2 -5 2 -12v-352q0 -20 -14 -34t-34 -14h-352q-6 0 -12 1q-11 3 -20 11q-2 2 -3 4q-4 4 -7 9t-4.5 11t-1.5 12v352q0 20 14 34t34 14h352q6 0 12 -2q3 0 5.5 -1t5.5 -3q2 -1 4 -2.5t3 -2.5q4 -3 7 -7q3 -2 5 -6t3 -8q1 -3 1 -4zM416 16v176h-192v192h-176
q-7 0 -11.5 -4.5t-4.5 -11.5v-176h192v-192h176q7 0 11.5 4.5t4.5 11.5zM416 16z" />
    <glyph glyph-name="digg" unicode="digg" horiz-adv-x="512" 
d="M82 276v76h51v-251h-133v175h82zM82 142v93h-31v-93h31zM379 276h133v-244h-133v41h82v28h-82v175zM461 142v93h-31v-93h31zM225 101v175h133v-244h-133v41h82v28h-82zM276 235v-93h31v93h-31zM153 352v-51h52v51h-52zM153 276v-175h52v175h-52z" />
    <glyph glyph-name="pied-piper-pp" unicode="pied&#x2d;piper&#x2d;pp" 
d="M205 273.5q0 15.5 -9 26.5t-22 11q-11 0 -18 -4v-68q7 -4 18 -4q13 0 22 11.5t9 27zM258 206q13 0 22.5 -11t9.5 -26.5t-9.5 -27t-22.5 -11.5q-11 0 -17 4v68q7 4 17 4zM448 368q0 20 -14 34t-34 14h-352q-20 0 -34 -14t-14 -34v-352q0 -20 14 -34t34 -14h352q20 0 34 14
t14 34v352zM185 193q-15 0 -29 5v-51l-51 -10v206h45q17 9 35 9q31 0 52.5 -23.5t21.5 -56t-21.5 -56t-52.5 -23.5zM343 168q0 -22 -9.5 -40.5t-27 -29t-37.5 -10.5q-16 0 -28 5v-51l-52 -10v156q30 2 52 25q13 14 19 33q4 1 9 1q31 0 52.5 -23t21.5 -56z" />
    <glyph glyph-name="pied-piper-alt" unicode="pied&#x2d;piper&#x2d;alt" horiz-adv-x="576" 
d="M244 202l-28 -6l-1 5q3 0 9 2t10 2q5 0 10 -3zM380 4q3 0 6.5 -4.5t8 -12.5t7.5 -14t6.5 -14.5t4.5 -9.5q-51 -19 -106 -10l-7 45q11 8 38 14t42 6zM341 271q-3 4 -39.5 2.5t-59.5 -12.5q8 15 26 22q10 3 19 10t13 11t14 15.5t13 14.5q4 -3 8.5 -9.5t9.5 -10.5t13 -3v-22
h7q71 27 106 54q8 7 14.5 12t12.5 10.5t9.5 9t8.5 10t7 8.5t7 10.5t6.5 11t7.5 13.5t9 15l2 3q-1 -16 -13 -40q-44 -92 -147 -117q-3 0 -9 -1t-10 -2t-9 -2.5t-9 -2.5q1 -6 7 -13.5t6 -9.5q0 -4 -7 -9q-18 20 -23 22zM556 448l-1 -1v-1v1zM496 66q10 -16 23 -31.5t21.5 -23
t28.5 -25.5q-14 -9 -31.5 -17t-39.5 -16.5t-32 -13.5q-15 12 -24.5 41t-14 60t-11.5 60.5t-22 49t-40 19.5q-3 -1 -5 -2l4 -4q2 -2 6.5 -5.5t6.5 -5t5 -4.5l4.5 -4.5t3.5 -4.5t3 -5t2.5 -5.5t2 -7t1 -7.5t0.5 -10v-9q1 -13 -10 -64q-7 1 -38.5 -3.5t-39.5 0.5v19.5t1 22.5
q0 3 16.5 19.5t16.5 23.5q-7 1 -13 -7q-5 -7 -13 -14.5t-18 -13.5t-20.5 -10t-19.5 -4q-6 0 -16.5 12t-20.5 26t-21.5 29t-17.5 19q-2 2 -8 9q-29 -7 -85.5 -19.5t-61.5 -12.5t-8.5 3t-3.5 8q0 10 9 12l140 30q-2 5 -3 8t3 5.5t6.5 3.5t8 2t6.5 1t4.5 2t5.5 2q8 0 13 -14
q48 10 50 10q11 0 12 -10t-9 -12l-53 -12v-4q0 -5 11.5 -20t25 -27.5t16.5 -12.5q14 0 34.5 23t20.5 37q0 10 -6.5 15t-14.5 5.5t-14.5 3t-6.5 9.5q0 5 2 10l-19 6q16 16 11 50q23 5 41 5t27 -1t15.5 -6t8 -8.5t6.5 -17t9 -22.5l14 7q-1 -14 -10 -19t-17 -6t-8 -6v-6
q27 1 50 -8t41.5 -28t31 -36t27.5 -43zM300 20h9l3 -24l-12 -3v27zM231 170l14 4l31 -51l-21 -14zM316 15q7 1 18 3t20 3t21 1l1 -5q0 -2 -5 -4t-13 -3.5t-15.5 -3t-15.5 -2.5t-9 -1zM316 15z" />
    <glyph glyph-name="drupal" unicode="drupal" 
d="M304 340q22 -22 33 -34t29.5 -35t27.5 -41t16.5 -43.5t7.5 -51.5v-9q-1 -80 -59.5 -136t-139 -54t-136 60t-53.5 139q0 32 9 61t29 56.5t34.5 44t41.5 43.5q24 24 36 36.5t25.5 33t18.5 38.5q5 -18 18.5 -38.5t26 -33.5t35.5 -36zM130 117l16 19l45 50q3 3 0 7l-43 44
l-9 9q-12 -13 -22 -27q-15 -23 -23 -50q-10 -37 2 -62l1 -2q2 -4 3 -7q5 -8 9 -8h2q2 1 3 3q7 13 16 24zM226 -10q28 0 47.5 19.5t19.5 46.5q0 21 -12 38q-1 3 -3 5q-19 23 -51 58q-10 -11 -27 -29t-24 -27q-13 -14 -16 -33.5t5 -38t24.5 -29t36.5 -10.5zM352 96q6 19 6 39
q0 46 -27 83q-31 43 -69 79q-27 27 -38 39q-11 -12 -34 -35q-11 -11 -9 -28v-1q2 -5 5 -9q0 -1 1 -2q17 -19 35 -36l59 -61l18 -19q22 -23 40 -49q2 -4 6 -5h1q5 1 6 5z" />
    <glyph glyph-name="joomla" unicode="joomla" 
d="M1 356q0 -21 13 -37.5t33 -20.5q-8 -26 -1.5 -53t26.5 -46q16 -16 32.5 -33t67.5 -67l44 44l-100 100q-10 11 -10 26t10.5 26t24.5 11t31 -15l44 45q-42 42 -96 30q-4 21 -20.5 35.5t-39.5 14.5q-24 0 -41.5 -17.5t-17.5 -42.5zM130 239l100 100q19 20 46 26.5t52 -1.5
q3 22 20 37t40 15q24 0 41.5 -17.5t17.5 -42.5q0 -23 -15 -39.5t-37 -20.5q16 -56 -29 -101l-44 45q15 16 15 30t-11 25t-26 11t-26 -11l-100 -100zM396 87q22 -3 37 -19.5t15 -39.5q0 -25 -17.5 -42.5t-42.5 -17.5q-21 0 -38 13.5t-21 34.5q-25 -8 -53.5 -1t-48.5 29l44 44
q16 -14 30 -14t25 11t11 26t-11 26l-100 100l45 44q91 -91 99 -100q40 -40 26 -94zM312 140l-67.5 -67.5l-31.5 -31.5q-40 -40 -95 -26q-4 -21 -20.5 -34t-37.5 -13q-25 0 -42.5 17.5t-17.5 42.5q0 21 13 37.5t33 20.5q-14 55 30 99l44 -45q-14 -16 -14 -30t11 -25
q10 -11 25.5 -11t25.5 11q89 88 100 100zM312 140z" />
    <glyph glyph-name="behance" unicode="behance" horiz-adv-x="576" 
d="M232 211q65 -18 65 -90q0 -51 -36 -77t-89 -26h-172v355h167q113 0 113 -88q0 -51 -48 -74zM78 312v-83h79q47 0 47 43q0 40 -53 40h-73zM161 78q58 0 58 47q0 51 -56 51h-85v-98h83zM520 319v35h-144v-35h144zM576 143q0 -5 -1 -13h-185q0 -32 16.5 -49t46.5 -17
q11 0 22.5 4t21 11.5t12.5 18.5h62q-28 -86 -120 -86q-60 0 -95.5 37t-35.5 97q0 59 36.5 97.5t94.5 38.5t91.5 -40t33.5 -99zM390 174h115q-5 55 -56 55q-25 0 -41 -15t-18 -40z" />
    <glyph glyph-name="square-behance" unicode="behance&#x2d;square" 
d="M186 155q0 27 -30 28h-46v-53h45q31 0 31 25zM179 237q0 -23 -26 -23h-43v45h40q29 0 29 -22zM311 214q28 0 31 -30h-63q1 14 9.5 22t22.5 8zM448 368q0 20 -14 34t-34 14h-352q-20 0 -34 -14t-14 -34v-352q0 -20 14 -34t34 -14h352q20 0 34 14t14 34v352zM272 263v19h78
v-19h-78zM229 153q0 -19 -10 -32t-25 -18.5t-33 -5.5h-93v192h90q62 0 62 -48q0 -24 -26 -37q35 -10 35 -51zM380 168v-8h-101q0 -35 35 -35q6 0 12 2t11 6t7 10h34q-16 -47 -66 -47q-32 0 -51.5 20.5t-19.5 52.5t20 53t51.5 21t49.5 -21.5t18 -53.5zM380 168z" />
    <glyph glyph-name="steam" unicode="steam" horiz-adv-x="496" 
d="M496 192q0 67 -33 124.5t-90.5 90.5t-124.5 33q-65 0 -120 -30t-89 -82.5t-39 -115.5l133 -55q20 13 44 12l59 86v1q0 39 27.5 66t66.5 27q25 0 46.5 -12.5t34 -34t12.5 -46.5q0 -26 -13 -48t-35 -34t-48 -12l-84 -60q1 -30 -20 -51.5t-50 -21.5q-26 0 -45 16t-24 40
l-95 39q22 -79 88 -129.5t151 -50.5q103 0 175.5 72.5t72.5 175.5zM156 64q15 -6 29.5 0t21 21t0 29.5t-20.5 20.5l-32 13q20 8 39 0q20 -9 29 -29q8 -20 -0.5 -40t-28.5 -28.5t-41 -0.5q-18 8 -27 26zM330 194q25 0 43.5 18t18.5 44q0 17 -8.5 31t-23 22.5t-30.5 8.5
q-26 0 -44.5 -18t-18.5 -44q0 -17 8.5 -31.5t23 -22.5t31.5 -8zM330 209q-20 0 -33.5 14t-13.5 33q0 10 3.5 18.5t10 14.5t15 10t18.5 4q19 0 33 -14t14 -33q0 -13 -6.5 -23.5t-17.5 -17t-23 -6.5z" />
    <glyph glyph-name="square-steam" unicode="square&#x2d;steam" 
d="M185 91.5q-6 -13.5 -19.5 -19.5t-27.5 0l-29 12q8 -17 26 -24q18 -8 37 -0.5t27 26.5t0 38t-26 27q-19 7 -37 0l30 -12q14 -6 19.5 -20t-0.5 -27.5zM400 416q20 0 34 -14t14 -34v-352q0 -20 -14 -34t-34 -14h-352q-20 0 -34 14t-14 34v113l89 -37q5 -23 23 -38t42 -15
q27 0 46.5 20t18.5 49l79 56q37 -1 63.5 25t26.5 63q0 36 -25.5 61.5t-62 25.5t-62 -25.5t-25.5 -61.5v-1l-56 -80q-22 1 -40 -12l-117 48v161q0 20 14 34t34 14h352zM300 194q12 0 23 4.5t18.5 12t12.5 18.5t5 23q0 24 -17.5 41t-41.5 17t-41 -17t-17 -41t17 -41t41 -17z
M300 208q-9 0 -17 3.5t-14 9.5t-9.5 14t-3.5 17q0 18 13 31t31.5 13t31 -13t12.5 -31t-12.5 -31t-31.5 -13z" />
    <glyph glyph-name="spotify" unicode="spotify" horiz-adv-x="496" 
d="M248 440q103 0 175.5 -72.5t72.5 -175.5t-72.5 -175.5t-175.5 -72.5t-175.5 72.5t-72.5 175.5t72.5 175.5t175.5 72.5zM349 75q6 0 10.5 4.5t4.5 10.5q0 11 -10 17q-96 57 -237 26q-13 -3 -13 -17q0 -4 1.5 -7.5t5.5 -5.5t8 -2q2 0 12 2q124 26 207 -24q6 -4 11 -4z
M376 141q8 0 13.5 5.5t5.5 13.5q0 13 -11 20q-77 45 -177 45q-50 0 -98 -13q-16 -5 -16 -21q0 -8 6 -13.5t14 -5.5q2 0 12 2q63 16 126.5 7.5t111.5 -36.5q8 -4 13 -4zM407 217q9 0 16 6.5t7 16.5q0 15 -13 23q-82 48 -205 48q-66 0 -118 -16q-17 -5 -17 -24q0 -9 6.5 -16
t16.5 -7q3 0 13 2q60 18 144 10t137 -39q6 -4 13 -4zM407 217z" />
    <glyph glyph-name="deviantart" unicode="deviantart" horiz-adv-x="320" 
d="M320 355v93h-98l-1 -1l-8 -8l-43 -84l-14 -9h-156v-128h86l7 -9l-93 -180v-93h93l1 1l8 8l44 84l13 9h161v128h-91l-7 10zM320 355z" />
    <glyph glyph-name="soundcloud" unicode="soundcloud" horiz-adv-x="640" 
d="M111 192q0 4 -4 4t-4 -4l-6 -65l6 -69q0 -4 4 -4t4 4l6 69zM133 237q5 0 5 -5l5 -105l-5 -69q0 -5 -5 -5t-5 5l-5 69l5 105q0 5 5 5zM158 261q6 0 6 -5l5 -130l-5 -68q0 -5 -6 -5q-5 0 -5 5l-5 68l5 130q0 5 5 5zM7 165q2 0 3 -3l5 -35l-5 -35q-1 -3 -3 -3t-2 3l-5 35
l5 35q0 3 2 3zM31 187q2 0 3 -3l7 -57l-7 -57q-1 -2 -3 -2q-3 0 -3 3l-6 56l6 57q0 3 3 3zM56 198q3 0 3 -3l7 -68l-7 -66q0 -3 -3 -3t-3 3l-6 66l6 68q0 3 3 3zM81.5 200q3.5 0 3.5 -3l7 -70l-7 -68q0 -4 -3.5 -4t-3.5 4l-6 68l6 70q0 3 3.5 3zM323 311q4 -2 4 -7l4 -177
l-4 -65q0 -8 -8 -8q-9 0 -9 8l-2 32l-2 33l4 176v1q0 4 3 7q2 2 6 2q2 0 4 -2zM296 296q4 -2 4 -7l3 -163l-3 -58v-7q0 -3 -3 -5q-2 -3 -5 -3q-4 0 -7 3q-1 2 -1 5l-3 66l2 161l1 1q0 5 3 7q3 1 5 1t4 -1zM184.5 273q5.5 0 6.5 -6l5 -140l-5 -67q-1 -6 -6 -6q-6 0 -6 6
l-5 67l5 140q0 6 5.5 6zM561 211q22 0 40 -10.5t28.5 -29t10.5 -39.5q0 -33 -23 -56t-56 -23h-218q-9 1 -9 10v249q0 7 8 10q24 9 50 9q55 0 94.5 -36.5t44.5 -89.5q15 6 30 6zM265 271q7 0 7 -8l4 -137l-4 -65q0 -8 -7 -8q-8 0 -8 8l-3 65l3 137q0 8 8 8zM211 279q6 0 7 -7
l4 -145l-4 -67q-1 -7 -7 -7t-6 7l-4 67l4 145q0 7 6 7zM238 275q7 0 7 -7l4 -141l-4 -67q0 -7 -7 -7t-7 7l-4 67l4 141q0 7 7 7zM238 275z" />
    <glyph glyph-name="vine" unicode="vine" horiz-adv-x="384" 
d="M384 193q-54 -13 -92 15.5t-38 86.5q0 16 4 27.5t11 17t16 5.5q28 0 28 -46q0 -22 -8 -49q8 -13 23.5 -18t28.5 -4l12 2q10 22 13 51t-2 59t-29 50.5t-64 20.5q-31 0 -54.5 -15t-35.5 -41t-12 -59q0 -49 21.5 -88t58.5 -58q-31 -62 -76 -107q-43 54 -72.5 123.5
t-41.5 178.5h-75q10 -75 28 -138t36.5 -100.5t40 -67t35 -41.5t24.5 -18q22 -13 43 -1t60.5 58t64.5 98q25 0 52 6v52zM384 193z" />
    <glyph glyph-name="codepen" unicode="codepen" horiz-adv-x="512" 
d="M502 288q10 -6 10 -18v-156q0 -12 -10 -18l-234 -156q-12 -8 -24 0l-234 156q-10 6 -10 18v156q0 12 10 18l234 156q12 8 24 0zM278 385v-103l95 -63l77 51zM234 385l-172 -115l77 -51l95 63v103zM44 229v-74l55 37zM234 -1v103l-95 63l-77 -51zM256 140l78 52l-78 52
l-78 -52zM278 -1l172 115l-77 51l-95 -63v-103zM468 155v74l-55 -37zM468 155z" />
    <glyph glyph-name="jsfiddle" unicode="jsfiddle" horiz-adv-x="576" 
d="M511 211q34 -19 49.5 -53t6.5 -70q-4 -19 -14 -35t-24 -27.5t-32 -18t-38 -6.5q-35 -1 -252 -1q-74 0 -91 1q-36 1 -65.5 24t-39.5 57q-7 24 -4.5 46.5t14.5 43t31 35.5q6 4 5 9q-6 49 33 77q38 28 85 9l8 -4q25 41 65 64q49 24 97.5 21.5t90.5 -33.5t59 -80q4 -9 9 -49
q1 -8 7 -10zM532 54q29 36 18.5 80t-53.5 64q-10 5 -10 16q-1 30 -11.5 57t-27.5 45.5t-40.5 31t-48.5 17t-52 0t-50 -17.5q-40 -22 -61 -62q-2 -4 -4 -6t-4.5 -2h-3.5t-5 2.5t-5 3.5q-38 20 -72 -3q-35 -24 -27 -63q3 -15 -10 -23q-29 -19 -38.5 -52t4.5 -64q27 -60 95 -60
q164 -2 164 0h170q43 1 72 36zM444 134q3 17 -1.5 33t-15 28t-26.5 17q-49 19 -83 -28q-4 -5 0.5 -10t12.5 0q2 1 4 3t4 4.5t3 3.5q16 15 35 15t31.5 -12t18.5 -29.5t-6 -36.5q-11 -19 -30.5 -24t-38.5 7q-15 9 -48 45t-59 56q-30 23 -67 2q-33 -18 -36 -56q0 -25 13.5 -44
t35.5 -26t44 1.5t35 27.5q5 9 -1 12.5t-12 -1.5q-2 -1 -4.5 -3.5t-4.5 -5t-4 -4.5q-15 -13 -31.5 -13.5t-28.5 9t-19.5 23t-4.5 30t17 28.5q30 27 60 4q15 -10 51.5 -48t44.5 -45q19 -18 44 -18q24 0 43.5 16t23.5 39zM444 134z" />
    <glyph glyph-name="rebel" unicode="rebel" horiz-adv-x="512" 
d="M256 -56q108 0 176 70t67 179q-1 43 -11 77t-30 58.5t-35 38t-40 31.5l-4 1q0 -1 3 -4q4 -5 11.5 -14.5t21 -37.5t19 -54t-3.5 -59.5t-38 -59.5q-1 -1 -3 -2.5t-8.5 -5.5t-12.5 -7t-15 -5t-17 -1.5t-16.5 5t-14.5 14.5q-13 17 -16 42.5t2 47t13 37.5q18 31 45 40l-28 32
q-30 -17 -44 -40q2 34 22 63l-44 50l-45 -51q1 0 2 -1.5t3 -5.5t4.5 -8t5 -9.5t4 -11.5t3 -12.5t0.5 -12.5q-18 28 -43 39l-29 -32q36 -15 46 -40l2.5 -5t4.5 -11.5t5.5 -17.5t4 -21.5t1 -24t-4.5 -24t-12 -22.5l-5 -5t-12.5 -8.5t-19.5 -7t-24.5 3.5t-28.5 19
q-28 27 -36.5 60t-3 60t18 52.5t22 38t13.5 16.5q0 1 -1 1q-55 -36 -85 -88.5t-32 -112.5q-3 -104 68.5 -179t174.5 -75z" />
    <glyph glyph-name="empire" unicode="empire" horiz-adv-x="496" 
d="M288 394l-5 -24q61 -12 102 -58l18 15q10 -11 20 -27l16 9q-30 48 -78.5 76.5t-106.5 30.5v-19q18 0 34 -3zM53 126q7 -17 14 -32l-16 -9q-27 50 -27 107t27 106l16 -9q-8 -15 -14 -31l23 -7q-10 -28 -10 -59q0 -30 10 -59zM213 14l-5 -24q19 -3 34 -3v-19
q-58 2 -107 30.5t-78 76.5l16 9q8 -13 20 -27l18 16q41 -47 102 -59zM93 327q-10 -11 -20 -27l-16 9q20 31 48 54.5t63.5 37.5t73.5 15v-19q-18 0 -34 -3l5 -24q-61 -12 -102 -58zM403 57q12 14 20 27l16 -9q-29 -48 -78 -76.5t-107 -30.5v19q15 0 33 3l-4 24q61 12 102 59z
M496 192q0 103 -72.5 175.5t-175.5 72.5t-175.5 -72.5t-72.5 -175.5t72.5 -175.5t175.5 -72.5t175.5 72.5t72.5 175.5zM484 192q0 -98 -69 -167t-167 -69t-167 69t-69 167t69 167t167 69t167 -69t69 -167zM445 299q27 -50 27 -107t-27 -106l-16 9q8 14 14 31l-23 7
q10 29 10 59q0 31 -10 59l23 7q-6 16 -14 31zM262 121l13 -67q-14 -3 -27 -3t-27 3l13 67q-25 5 -41 23l-51 -44q-18 21 -27 46l64 22q-4 12 -4 24t4 23l-64 23q9 25 27 46l51 -44q17 18 41 23l-13 67q12 3 27 3q14 0 27 -3l-13 -67q24 -5 40 -23l52 44q18 -21 27 -46
l-64 -23q3 -11 3 -23t-3 -24l64 -22q-9 -25 -27 -46l-52 44q-16 -18 -40 -23zM262 121z" />
    <glyph glyph-name="square-git" unicode="git&#x2d;square" 
d="M101 114q-7 -8 -7 -14q0 -8 16.5 -12t33 0t16.5 14q0 6 -7 7.5t-32 2.5q-13 1 -20 2zM129 230q14 0 20 -11t0 -22t-21 -11q-16 0 -22 11t0.5 22t22.5 11zM448 368q0 20 -14 34t-34 14h-352q-20 0 -34 -14t-14 -34v-352q0 -20 14 -34t34 -14h352q20 0 34 14t14 34v352z
M221 299q0 22 23 22t23 -22q0 -23 -23 -23t-23 23zM199 253v-22l-23 -1q9 -12 9 -26q0 -22 -15.5 -33.5t-32 -10.5t-26.5 2l-8 -14q5 0 14 -1q21 -1 30.5 -2t21.5 -3t16.5 -6t8 -10.5t3.5 -16.5q0 -22 -18 -34t-51 -12q-64 0 -64 32q0 12 14 26q-11 4 -11 16q0 10 23 31
q-22 11 -22 38q0 24 15.5 37t33.5 12.5t33 -2.5h49zM284 143l-1 -20h-72v20q3 0 7 1q7 1 8.5 1.5t1.5 4.5v75q0 3 -1.5 4t-15.5 6l3 20h52v-105q0 -5 5 -5zM384 133q-21 -10 -41 -10q-23 0 -32.5 9.5t-9.5 31.5v66v1q0 2 -10 2h-10v22q17 2 24.5 11.5t9.5 30.5h24v-23
q0 -12 0.5 -14t1.5 -2h36v-25h-38v-61v-1q0 -4 0.5 -7t4 -8.5t11.5 -4.5t22 4zM384 133z" />
    <glyph glyph-name="git" unicode="git" horiz-adv-x="512" 
d="M216 290v-35l-37 -3q15 -19 15 -41t-10 -37.5t-24 -22.5t-31 -9.5t-30.5 -1.5t-23.5 3l-13 -21q8 -1 23 -2q21 -1 31 -1.5t26 -2t23 -3.5l17.5 -5t14.5 -7t8.5 -10t6 -14t1.5 -18q0 -35 -29 -54t-82 -19q-102 0 -102 50q0 21 22 42q-17 7 -17 27q0 10 7.5 19.5t29.5 29.5
q-35 17 -35 61q0 29 14.5 48t35 24t43 6.5t37.5 -3.5h79zM153 48q0 9 -11 11.5t-51 5.5h-7.5t-7 0.5l-9 1t-8.5 0.5q-11 -13 -11 -22q0 -14 26 -19.5t52.5 1t26.5 21.5zM102 182q25 0 34.5 18t0 35.5t-33.5 17.5t-34.5 -17.5t-1 -35.5t34.5 -18zM235 82h116v32l-20 3
q-5 0 -6 1.5t-1 6.5v169h-84l-5 -33q5 -2 12 -4q11 -4 13.5 -5.5t2.5 -7.5v-119q0 -6 -2.5 -7t-14.5 -3h-3t-3.5 -0.5t-4.5 -0.5v-32zM288 326q17 0 27 9.5t10 27.5q0 35 -37 35t-37 -35q0 -18 9.5 -27.5t27.5 -9.5zM512 98l-11 35q-18 -6 -30.5 -6.5t-18 2.5t-8.5 10
t-3.5 11t-0.5 9v1v97h61v41h-57h-1q-2 0 -2.5 3t-0.5 23.5v35.5h-38q-4 -34 -16 -48.5t-39 -18.5v-36h16q12 1 14 0.5t2 -3.5v-1v-106q0 -35 15.5 -50.5t51.5 -15.5q33 0 66 17zM512 98z" />
    <glyph glyph-name="hacker-news" unicode="hacker&#x2d;news" 
d="M0 416h448v-448h-448v448zM21 219zM239 165l81 155h-35q-24 -45 -35.5 -68.5t-17 -37.5t-7.5 -20q-3 5 -5.5 12.5t-5 14.5t-8 19t-16 32t-25.5 48h-37l80 -153v-103h31v101z" />
    <glyph glyph-name="tencent-weibo" unicode="tencent&#x2d;weibo" horiz-adv-x="384" 
d="M72 -48q-16 172 91 287q28 -19 57.5 -3.5t29.5 48.5q0 23 -16.5 39.5t-38.5 16.5q-31 0 -47 -25.5t-4 -52.5q-55 -57 -82.5 -137.5t-18.5 -175.5q1 -14 15.5 -13t13.5 16zM192 448q69 0 118 -49t49 -118q0 -78 -61.5 -128.5t-142.5 -33.5q-15 4 -11.5 18t17.5 11
q62 -16 115 25t53 108q0 57 -40 97t-97 40q-37 0 -68 -18t-48 -46.5t-20.5 -64t14.5 -70.5q4 -8 -1 -15t-13 -7t-12 9q-23 40 -18.5 83t24 78.5t58 58t84.5 22.5z" />
    <glyph glyph-name="qq" unicode="qq" 
d="M434 28q2 0 3 3.5t2 11.5t0 19t-4.5 28t-10.5 37q-7 25 -40 106q3 95 -38 155t-122 60q-82 0 -122.5 -60.5t-37.5 -154.5q-3 -8 -8.5 -21t-8 -19.5t-6.5 -16.5t-6.5 -17t-5.5 -15.5t-5 -16.5q-10 -32 -13.5 -56t-1.5 -33.5t5 -10t9 5t12 13t11.5 15.5t9.5 14l3 5
q0 -25 13 -52.5t38 -48.5q-8 -3 -15.5 -6t-16.5 -7.5t-13 -10.5t-1 -11q15 -8 70 -8t90 4q35 -4 90 -4t70 8q6 10 -10 19t-36 16q25 21 38 48.5t13 52.5q1 -1 2 -3t4.5 -7.5t7.5 -10.5t8.5 -11t8.5 -10.5t7.5 -7.5t6.5 -2zM434 28z" />
    <glyph glyph-name="weixin" unicode="weixin" horiz-adv-x="576" 
d="M385 280q-45 0 -83 -20.5t-60 -56t-22 -77.5q0 -20 6 -40q-10 -1 -18 -1q-19 0 -68 10l-68 -35l19 59q-78 55 -78 132q0 69 57 117t138 48q71 0 127.5 -39t68.5 -98q-9 1 -19 1zM281 333q-12 0 -21 -6.5t-9 -17.5t9 -17.5t21 -6.5q11 0 17.5 6.5t6.5 17.5t-6.5 17.5
t-17.5 6.5zM144 285q11 0 18 6.5t7 17.5q0 7 -3 12.5t-8.5 8.5t-13.5 3q-11 0 -20 -6.5t-9 -17.5q0 -7 4.5 -12.5t11 -8.5t13.5 -3zM563 129q0 -61 -68 -112l15 -49l-54 29q-40 -10 -58 -10q-70 0 -118 41.5t-48 100t48 100t118 41.5q66 0 115.5 -42t49.5 -99zM344 153
q11 0 17.5 6t6.5 14q0 7 -6.5 13t-17.5 6q-5 0 -9.5 -3t-7 -7.5t-2.5 -8.5q0 -8 6 -14t13 -6zM451 153q7 0 12.5 3t8.5 7.5t3 9.5q0 7 -7 13t-17 6q-7 0 -13 -6t-6 -13.5t6 -13.5t13 -6z" />
    <glyph glyph-name="slideshare" unicode="slideshare" horiz-adv-x="512" 
d="M187.5 294q25.5 0 43.5 -16.5t18 -40.5t-18 -41t-43.5 -17t-43.5 17t-18 41t18 40.5t43.5 16.5zM331.5 294q25.5 0 43.5 -16.5t18 -40.5q0 -16 -8.5 -29.5t-22.5 -21t-31 -7.5q-25 0 -43.5 17t-18.5 41t18.5 40.5t44 16.5zM488 204q11 8 17 0.5t-1 -17.5
q-35 -43 -106 -72q30 -103 -24 -155q-34 -33 -74 -22q-38 10 -37 53v3v8.5v12.5v15.5v17.5v18.5v17.5q-3 0 -7.5 1.5t-6.5 1.5v-17.5v-18.5v-18v-16.5v-13.5v-9v-3q1 -42 -37 -53q-40 -11 -74 22q-54 52 -23 155q-72 29 -107 72q-7 10 -1 17.5t17 -0.5q1 0 3.5 -1.5
t3.5 -2.5v198q0 21 13.5 35.5t32.5 14.5h359q19 0 32.5 -14.5t13.5 -35.5v-198zM457 185v191q0 25 -9 35t-32 10h-317q-24 0 -32.5 -9.5t-8.5 -35.5v-193q31 -16 64 -23t53.5 -6t40.5 1q19 1 27 -7q10 -10 20 -17q2 26 34 24q19 0 40 -1t55 6.5t65 24.5zM457 185z" />
    <glyph glyph-name="twitch" unicode="twitch" horiz-adv-x="512" 
d="M391 345v-110h-38v110h38zM285 345v-110h-39v110h39zM121 448h367v-256l-174 -165h-77l-97 -91v91h-116v330zM449 210v201h-309v-274h87v-64l68 64h77zM449 210z" />
    <glyph glyph-name="yelp" unicode="yelp" horiz-adv-x="384" 
d="M43 208q-9 4 -18.5 0t-13.5 -14q-14 -41 -9 -85q1 -10 9.5 -16t19.5 -3l107 26q16 4 17.5 20t-12.5 23zM87 -32q-9 6 -10 16.5t6 18.5l74 82q11 12 25.5 6t14.5 -22l-4 -111q0 -10 -8 -16.5t-19 -5.5q-43 8 -79 32zM232 78q-8 14 2 26.5t25 7.5l105 -34q10 -3 14 -12.5
t0 -19.5q-19 -39 -53 -67q-8 -7 -18 -5t-16 10zM381 211q4 -10 -0.5 -19.5t-14.5 -12.5l-107 -30q-7 -2 -14 0.5t-10.5 8t-4.5 12.5t4 14l62 91q6 9 16 10.5t18 -5.5q33 -29 51 -69zM62 418q53 25 112 30q10 1 17.5 -6t7.5 -17v-208q0 -18 -17 -22.5t-26 10.5l-104 181
q-5 8 -2 17.5t12 14.5z" />
    <glyph glyph-name="paypal" unicode="paypal" horiz-adv-x="384" 
d="M111 152q2 9 5.5 14.5t12 7.5t14 2.5t21 0t23.5 -0.5q109 2 140 91q18 44 8 83.5t-52 56.5q-10 4 -19 6t-16.5 3.5t-25.5 2t-30.5 0.5t-48.5 -0.5t-64 -0.5q-8 0 -13.5 -4.5t-6.5 -12.5l-59 -372q-1 -5 3 -9t9 -4h75q2 0 3 2q1 8 6 39.5t9.5 59t5.5 35.5zM357 296
q36 -27 24 -93q-22 -112 -143 -112h-4h-9t-6.5 -2t-6 -6t-3.5 -12q-14 -87 -15 -91q-3 -15 -17 -15h-64q-5 0 -8 4t-2 9q4 30 27 170q1 9 11 9h17h21.5t21.5 1t24 3t23 5.5t24 9t21.5 13t20.5 18t16.5 24t14.5 30.5q6 18 9 34q1 3 3 1zM357 296z" />
    <glyph glyph-name="google-wallet" unicode="google&#x2d;wallet" 
d="M157 321q0 -12 0.5 -36t0 -42t-3.5 -34q31 -50 56 -149q19 49 31 99q-31 77 -84 162zM109 248q8 0 13 -6q55 -76 83 -194h-104q-31 110 -91 187q-3 4 -1 8.5t7 4.5h93zM157 336h109q126 -174 143 -368h-114q-10 166 -138 368zM409 405q31 -111 31 -213q0 -106 -25 -203
q-17 138 -91 271q-6 74 -26 146q-1 4 1 7t6 3h89q12 0 15 -11zM409 405z" />
    <glyph glyph-name="cc-visa" unicode="cc&#x2d;visa" horiz-adv-x="576" 
d="M470 217l-3 13q-1 -2 -2 -6t-2 -6.5l-1 -2.5q-13 -34 -16 -43h33zM576 368q0 20 -14 34t-34 14h-480q-20 0 -34 -14t-14 -34v-352q0 -20 14 -34t34 -14h480q20 0 34 14t14 34v352zM152 117h-42l-36 135q-19 11 -42 17l1 3h64q16 -1 19 -13l14 -71l4 -22l39 106h43z
M247 117h-40l25 155h40zM387 167q0 -24 -19.5 -38.5t-50.5 -14.5q-28 1 -45 9l6 35l5 -3q19 -8 38 -8q23 0 24 15q0 9 -21 19q-36 18 -35 42q0 23 19 37.5t48 14.5q20 0 36 -7l-5 -33l-4 1q-14 7 -29 6q-23 0 -24 -13q0 -8 23 -19q34 -17 34 -43zM528 117h-37q-4 17 -5 23
h-52l-8 -23h-42l60 142q5 13 21 13h31z" />
    <glyph glyph-name="cc-mastercard" unicode="cc&#x2d;mastercard" horiz-adv-x="576" 
d="M483 37.5q0 11.5 -11 11.5t-11 -11.5t11 -11.5t11 11.5zM172 49q11 0 11 -11.5t-11 -11.5t-11 11.5t11 11.5zM289.5 50q8.5 0 9.5 -9h-19q1 9 9.5 9zM397 49q12 0 12 -11.5t-12 -11.5q-10 0 -10 11.5t10 11.5zM503 23v1l-1 1h-1h-1h-1v-1q-1 0 -1 -1v-1v-1l1 -1h1h1h1h1
v1l0.5 0.5l0.5 0.5q0 1 -1 1zM501 22l1 -1h-1l-1 1v-1h-1v3h2h1v-1.5v-0.5h-1zM576 367q0 20 -14 34t-34 14h-480q-20 0 -34 -14t-14 -34v-352q0 -20 14 -34t34 -14h480q20 0 34 14t14 34v352zM64 227.5q0 57.5 40.5 98t98.5 40.5q41 0 76 -24q-54 -44 -54.5 -114.5
t54.5 -115.5q-35 -23 -76 -23q-58 0 -98.5 40.5t-40.5 98zM288 119q-53 41 -53 108.5t53 108.5q53 -41 53 -108.5t-53 -108.5zM146 42v-23h-8v8.5v9.5t-1 7t-2.5 4t-4.5 1t-4.5 -0.5t-2.5 -2t-1.5 -3t-1 -4.5t-0.5 -5.5t0.5 -7t0.5 -7.5h-8v9q0 21 -9 21q-2 0 -3.5 -0.5
t-2.5 -2l-2 -3t-1 -4.5v-5.5v-7v-7.5h-8v37h8v-4q4 5 11 5q8 0 12 -7q4 7 13 7q15 0 15 -15zM191 56v-37h-8v5q-4 -6 -12 -6t-13 5.5t-5 14t5 14t13 5.5q7 0 12 -5v4h8zM231 30q0 -9 -12 -11t-20 4l3 6q5 -4 13 -4t8 5q0 2 -11.5 4.5t-11.5 10.5q0 10 11.5 12t18.5 -4l-3 -6
q-5 3 -12 3t-7 -4q0 -3 11.5 -5t11.5 -11zM267 21q-4 -4 -13.5 -2.5t-9.5 13.5v17h-8v7h8v11h8v-11h13v-7h-13v-17q0 -11 12 -4zM280 35q1 -8 8.5 -9.5t13.5 4.5l4 -6q-9 -9 -21.5 -5t-12.5 19q0 8 5 13.5t13 5.5q17 0 17 -22h-27zM339 56l-2 -8q-3 3 -8 1.5t-5 -9.5v-21h-8
v37h8v-4q5 8 15 4zM350 37.5q0 -8.5 6.5 -11t13.5 2.5l4 -6q-8 -8 -20.5 -3.5t-12.5 18.5q0 13 12 17.5t21 -2.5l-4 -7q-7 5 -13.5 2.5t-6.5 -11zM416 56v-37h-8v5q-6 -9 -18 -4.5t-12 18.5q0 13 12 17.5t18 -3.5v4h8zM450 56l-2 -8q-3 3 -8 1t-5 -9v-21h-8v37h8v-4
q5 9 15 4zM490 71v-52h-8v5q-5 -9 -17.5 -4.5t-12.5 18t12 18t18 -3.5v19h8zM498 146h-2v1h5v-1h-2v-5h-1v5zM504 22v-1l-0.5 -0.5l-0.5 -0.5l-0.5 -0.5l-0.5 -0.5h-1h-1.5t-1.5 1q-1 0 -1 1v1v2l1 1l1 1h1h1h1l1 -1l1 -1v-2zM508 147v-5h-1v4l-2 -4h-1l-2 4v-4v5h1l2 -4
l1 4h2zM512 227.5q0 -57.5 -40.5 -98t-97.5 -40.5q-42 0 -77 23q55 45 54.5 115.5t-54.5 115.5q35 23 77 23q57 0 97.5 -40.5t40.5 -98z" />
    <glyph glyph-name="cc-discover" unicode="cc&#x2d;discover" horiz-adv-x="576" 
d="M520 252q0 -13 -15 -13h-5v25h5q15 0 15 -12zM528 416q20 0 34 -14t14 -34v-352q0 -20 -14 -34t-34 -14h-480q-20 0 -34 14t-14 34v352q0 20 14 34t34 14h480zM484 277v-82h16v33h2l22 -33h20l-26 35q19 3 19 23q0 6 -1.5 10t-5.5 7t-7 4.5t-9.5 2t-9 0.5h-10.5h-10z
M428 277v-82h45v14h-29v22h28v14h-28v18h29v14h-45zM359 277h-17l35 -84h8l36 84h-18l-22 -55zM303.5 280q-18.5 0 -31.5 -13t-13 -31.5t13 -31.5t31.5 -13t31.5 13t13 31.5t-13 31.5t-31.5 13zM254 274q-22 11 -42.5 -1.5t-20.5 -36.5t20.5 -36.5t42.5 -1.5v19
q-14 -14 -30.5 -7t-16.5 26q0 18 16 25.5t31 -6.5v19zM157 208q-12 0 -18 10l-10 -10q13 -19 35 -14.5t22 26.5q0 10 -5 15t-19 10q-12 5 -12 11q0 7 8.5 8.5t16.5 -6.5l8 11q-14 13 -32 8t-18 -22q0 -16 21 -23q11 -4 14 -10t-1 -10t-10 -4zM55 195q22 0 33 12.5t11 28.5
q0 12 -5.5 21.5t-15.5 14.5t-23 5h-23v-82h23zM123 195v82h-16v-82h16zM544 15v145q-51 -32 -172.5 -84.5t-243.5 -75.5h401q6 0 10.5 4.5t4.5 10.5zM74 256q9 -7 9 -20t-9 -21q-7 -6 -22 -6h-4v54h4q15 0 22 -7z" />
    <glyph glyph-name="cc-amex" unicode="cc&#x2d;amex" horiz-adv-x="576" 
d="M48 -32h480q20 0 34 14t14 34v1h-62l-32 35l-32 -35h-203v164h-66l82 185h78l28 -64v64h98l17 -48l16 48h76v2q0 20 -14 34t-34 14h-480q-20 0 -34 -14t-14 -34v-352q0 -20 14 -34t34 -14zM483 84l42 -46h51l-68 72l68 72h-51l-42 -47l-41 47h-52l68 -73l-68 -71h50z
M576 151l-39 -41l39 -42v83zM308 71v22h80v32h-80v23h83v33h-122v-143h122v33h-83zM537 302v-100h39v143h-60l-32 -89l-32 89h-62v-143h39v100l37 -100h34zM334 230l12 -28h45l-64 143h-51l-62 -143h43l12 28h65zM302 310l19 -47h-39z" />
    <glyph glyph-name="cc-paypal" unicode="cc&#x2d;paypal" horiz-adv-x="576" 
d="M186 190q0 15 -16 15q-6 0 -11 -3t-8 -8t-3 -11q0 -15 16 -15q10 0 16 6.5t6 15.5zM80 238q11 0 15.5 -2.5t2.5 -12.5q-2 -14 -22 -14h-8l5 27q0 2 3 2h4zM364 238q18 0 19 -11q0 -18 -22 -18h-8l4 27q0 2 3 2h4zM576 368q0 20 -14 34t-34 14h-480q-20 0 -34 -14t-14 -34
v-352q0 -20 14 -34t34 -14h480q20 0 34 14t14 34v352zM128 233q0 -22 -12 -34t-34 -12h-3.5h-4.5h-4.5t-4 -1.5t-1.5 -3.5l-4 -27q-1 -5 -6 -5h-19q-4 0 -3 4l16 102q1 5 6 5h40q34 0 34 -28zM212 224q4 0 4 -4l-11 -64q-1 -6 -5 -6h-17q-3 0 -3 4q0 3 1 6q-11 -12 -27 -12
q-14 0 -23 9t-9 23q0 19 13 32.5t31 13.5q16 0 23 -10q1 8 4 8h19zM253 126q-2 -3 -5 -3h-19q-3 0 -3 3t21 32q-1 2 -6.5 17.5t-10.5 30l-5 14.5q0 4 4 4h18q4 0 6 -4l11 -38l26 39q2 3 5 3h19q3 0 3 -4v-2zM412 233q0 -22 -12 -34t-34 -12h-3h-5h-4t-3.5 -1.5t-2.5 -3.5
l-4 -29q-1 -3 -4 -3h-21q-3 0 -3 4l16 102q1 5 6 5h40q34 0 34 -28zM496 224q4 0 4 -4l-11 -64q-1 -6 -5 -6h-17q-4 0 -4 4q0 1 1 6q-10 -12 -26 -12q-10 0 -17 4t-11 11.5t-4 16.5q0 19 12.5 32.5t30.5 13.5t24 -10q1 8 4 8h19zM544 257l-16 -101q-1 -6 -5 -6h-17
q-3 0 -3 3v1l16 104q0 3 3 3h19q3 0 3 -4zM454 205q16 0 16 -15q0 -9 -6 -15.5t-16 -6.5q-16 0 -16 15q0 10 6.5 16t15.5 6z" />
    <glyph glyph-name="cc-stripe" unicode="cc&#x2d;stripe" horiz-adv-x="576" 
d="M492 227q8 0 13 -5.5t5 -17.5h-36q0 8 2.5 13.5t7 7.5t8.5 2zM375 225q10 0 16 -9.5t6 -23.5q0 -10 -3 -17.5t-8 -12t-11 -4.5q-10 0 -17 7v53q6 7 17 7zM528 416q20 0 34 -14t14 -34v-352q0 -20 -14 -34t-34 -14h-480q-20 0 -34 14t-14 34v352q0 20 14 34t34 14h480z
M122 167q0 18 -13.5 27.5t-27 13.5t-13.5 10q0 7 12 7q18 0 35 -9v34q-16 6 -35 6q-22 0 -35 -10.5t-13 -29.5q0 -17 13.5 -26t27 -13.5t13.5 -10.5q0 -9 -14 -9q-17 0 -39 12v-34q19 -8 39 -8q23 0 36.5 10.5t13.5 29.5zM191 223v31h-27v31l-35 -8v-114q0 -15 10.5 -25.5
t26.5 -10.5q17 0 25 4v29q-3 -3 -15 -1.5t-12 14.5v50h27zM265 221v33q-20 7 -30 -11l-2 11h-31v-125h36v85q10 13 27 7zM309 129v125h-36v-125h36zM309 272v29l-36 -8v-28zM383 127q21 0 35 16.5t14 48.5q0 30 -14.5 47t-34.5 17q-15 0 -27 -11l-2 9h-32v-166l36 7v41
q13 -9 25 -9zM544 178v13q0 29 -13.5 47t-37.5 18q-13 0 -23 -5t-17 -13.5t-11 -20.5t-4 -26q0 -31 16 -47.5t43 -16.5q23 0 40 9v29q-16 -8 -35 -8q-26 0 -28 21h70z" />
    <glyph glyph-name="lastfm" unicode="lastfm" horiz-adv-x="512" 
d="M226 81q-4 -4 -11 -9t-32.5 -13.5t-54.5 -8.5q-62 0 -95 35t-33 102q0 70 34 108.5t98 38.5q23 0 41.5 -3.5t31.5 -9t24.5 -17t18.5 -20t15 -27t11.5 -29.5t11.5 -35q5 -14 7 -22q6 -17 13.5 -29.5t18.5 -23t27.5 -16t38.5 -5.5q61 0 61 31q0 6 -1.5 11.5t-6.5 9.5
t-9 6.5t-13 5.5t-14 4.5t-18 4t-18 3.5q-68 17 -68 77q0 45 30 64.5t75 19.5q94 0 101 -74l-59 -7q-3 35 -46 35q-19 0 -30 -8t-11 -23q0 -9 2.5 -15.5t10 -11t20.5 -7.5q2 -1 16 -4t16.5 -3.5t15 -4t16 -5.5t13.5 -6.5t13 -8.5t9.5 -10.5t9 -13.5t4.5 -16.5t2 -19.5
q0 -81 -122 -81q-48 0 -81 14.5t-48.5 35.5t-25.5 52q-3 9 -9.5 29t-8.5 27t-8 22.5t-10 20.5t-11 14.5t-14.5 12.5t-17.5 6t-22 3q-31 0 -51.5 -23.5t-20.5 -74.5q0 -41 19 -66t50 -25q20 0 39 8.5t28 16.5l9 9z" />
    <glyph glyph-name="square-lastfm" unicode="lastfm&#x2d;square" 
d="M400 416q20 0 34 -14t14 -34v-352q0 -20 -14 -34t-34 -14h-352q-20 0 -34 14t-14 34v352q0 20 14 34t34 14h352zM308 103q76 0 76 51q0 6 -1.5 12t-2.5 10.5t-5.5 8.5t-6.5 6.5t-8 5.5l-8 4t-10 3t-9.5 2.5t-11 2.5l-9.5 2q-21 5 -21 21q0 20 26 20q27 0 29 -22l37 4
q-5 47 -63 47q-29 0 -47.5 -12.5t-18.5 -40.5q0 -37 43 -48q3 0 8 -1t8 -2t7 -2t6.5 -2t5.5 -2t5 -2.5l4 -3t3 -3.5t2 -4.5t1 -5.5q0 -19 -38 -19q-46 0 -62 46q-1 3 -5.5 17t-5.5 17t-5.5 14.5t-6.5 14t-7 11t-9 10.5t-11 7t-14 6.5t-16.5 3t-19.5 1.5q-40 0 -61.5 -24
t-21.5 -68q0 -42 20.5 -64t59.5 -22q18 0 33.5 5t21.5 10l6 4l-12 32q-19 -21 -47 -21q-19 0 -31 15.5t-12 41.5q0 32 13 46.5t32 14.5q7 0 13.5 -1.5t11 -3.5t9 -8t7 -9.5t6 -13t5 -13.5t5.5 -17t6 -18q6 -20 16 -33t30.5 -22t50.5 -9zM308 103z" />
    <glyph glyph-name="ioxhost" unicode="ioxhost" horiz-adv-x="640" 
d="M616 288q10 0 17 -7t7 -17t-7 -17t-17 -7h-53q5 -23 5 -48q0 -103 -72.5 -175.5t-175.5 -72.5q-51 0 -96.5 19.5t-79.5 53.5t-53 79h-67q-10 0 -17 7t-7 17t7 17t17 7h53q-5 23 -5 48q0 103 72.5 175.5t175.5 72.5q76 0 138 -42t91 -110h67zM520 192q0 24 -6 48h-298
q-10 0 -17 7t-7 17t7 17t17 7h280q-26 47 -73 75.5t-103 28.5q-83 0 -141.5 -58.5t-58.5 -141.5q0 -24 6 -48h298q10 0 17 -7t7 -17t-7 -17t-17 -7h-280q26 -47 73 -75.5t103 -28.5q83 0 141.5 58.5t58.5 141.5zM216 216q-10 0 -17 -7t-7 -17t7 -17t17 -7h208q10 0 17 7
t7 17t-7 17t-17 7h-208z" />
    <glyph glyph-name="angellist" unicode="angellist" 
d="M347 233q33 -8 44 -32t11 -62q0 -88 -52.5 -145.5t-138.5 -57.5q-70 0 -117.5 46t-47.5 103t51 71q-8 22 -8 30q0 18 15.5 35.5t33.5 17.5q8 0 20 -5q-47 133 -47 162q0 11 3 20.5t8.5 16.5t14 11t20.5 4q37 0 92 -166q2 -5 3 -7q1 3 10 28.5t17 44t19.5 42t24.5 36.5
t26 13q20 0 31.5 -14t11.5 -35q0 -31 -45 -157zM312 340l-33 -94l34 -6q47 130 47 148q0 16 -11 16q-16 0 -37 -64zM142 400q0 -29 46 -149q6 4 35 1l-34 101q-23 67 -39 62q-8 -2 -8 -15zM140 204q-6 0 -13 -7.5t-7 -13.5q0 -17 30.5 -57.5t45.5 -40.5q5 0 8 4t3 8
q0 15 -24 61t-43 46zM324 18q26 28 36.5 68t7.5 69t-13 37q-16 14 -60.5 22t-77.5 8q-8 0 -12 -2.5t-4.5 -4.5t-0.5 -7q0 -40 114 -39h6q15 0 17 -21q-8 -8 -27 -16q-19 -7 -27 -13q-12 -8 -21.5 -19t-16 -25t-6.5 -28q0 -8 5 -24.5t5 -25.5l-1 -3.5l-1 -3.5q-39 2 -41 61
h-12q4 -14 -7.5 -28t-30.5 -14q-30 0 -54.5 32.5t-3.5 54.5q6 -9 14 -19.5t11.5 -15t8.5 -9.5t8.5 -6.5t8.5 -1.5q3 0 7.5 2.5t4.5 6.5q0 10 -23 41.5t-32 31.5q-15 0 -23 -18t3 -51q17 -41 50.5 -64.5t78.5 -23.5q65 0 109 49zM226 144q7 -20 9 -25q11 12 20 19z" />
    <glyph glyph-name="buysellads" unicode="buysellads" 
d="M224 297l-43 -160h86zM448 368q0 20 -14 34t-34 14h-352q-20 0 -34 -14t-14 -34v-352q0 -20 14 -34t34 -14h352q20 0 34 14t14 34v352zM383 43h-91l-24 91l-112 -91h-91l95 298h128z" />
    <glyph glyph-name="connectdevelop" unicode="connectdevelop" horiz-adv-x="576" 
d="M550 207q12 -2 12 -15q0 -12 -12 -15l-55 -95q1 -3 1 -5q0 -12 -12 -15l-52 -90q1 -2 1 -4q0 -6 -4.5 -10.5t-10.5 -4.5q-7 0 -11 4h-107q-5 -5 -12 -5t-12 5h-106q-5 -5 -12 -5q-6 0 -10.5 4.5t-4.5 10.5q0 2 1 6l-52 89q-12 3 -12 15q0 2 1 5l-55 95q-12 3 -12 15
q0 13 12 15l54 92q0 1 -0.5 1.5l-0.5 0.5q0 10 9 14l56 97q-1 3 -1 5q0 3 1.5 6t3.5 5t5 3t6 1q7 0 11 -6h106q5 6 12 6t12 -6h106q5 6 12 6q6 0 10.5 -4.5t4.5 -10.5q0 -2 -1 -5l56 -96q6 0 10 -4.5t4 -10.5q0 -3 -2 -7zM154 -3v76h-44zM154 81v51l-45 -48q1 -2 1 -3h44z
M154 144v92l-51 52q-3 -2 -7 -2l-52 -90v-4q0 -2 -1 -4l56 -96l4 -2zM154 246v72l-44 -16v-1q0 -4 -2 -8zM154 326v60l-44 -75zM480 287v1l-98 -102l63 -67l36 167zM292 93l-12 -12h23zM291 104l80 82l-83 88l-80 -84zM297 98l17 -17h124l6 28l-68 71zM410 404l-117 -124
l83 -88l98 101q-2 4 -2 8v1l-58 100q-1 1 -4 2zM401 406h-4l-166 -60l57 -61zM278 406h-104l51 -54l148 54h-75q-4 -5 -10 -5t-10 5zM162 400v-71l54 20l-51 54q-1 0 -2 -1zM162 321v-83l41 -43l79 85l-60 63zM162 228v-76l36 38zM162 140v-59h107l17 18l-82 86zM169 -22h1
l91 95h-99v-90l1 -1q3 -1 6 -4zM298 -22h105l-92 95h-38l-92 -95h97q4 5 10 5t10 -5zM418 -10l18 83h-115l90 -92q2 1 3 2zM431 12l35 61h-22zM466 81q0 2 1 3l-17 18l-4 -21h20zM532 189v3t1 5l-46 79l-35 -164l21 -22q1 1 4 2z" />
    <glyph glyph-name="dashcube" unicode="dashcube" 
d="M327 344l102 104v-427q0 -37 -26.5 -61t-64.5 -24h-228q-38 0 -64.5 24t-26.5 61v229q0 25 12 46.5t33 34.5t46 13h217zM154 32v-1h224l-51 53v123q0 9 -4.5 16.5t-12 12t-15.5 4.5h-141q-13 0 -23 -10t-10 -23v-143q0 -13 10 -22.5t23 -9.5zM154 32z" />
    <glyph glyph-name="forumbee" unicode="forumbee" 
d="M6 138q34 93 104 163.5t162 106.5q-25 5 -49 5q-92 0 -157.5 -65.5t-65.5 -157.5q0 -26 6 -52zM399 328q-113 -33 -196.5 -117.5t-116.5 -198.5q-24 19 -45 49q22 74 66.5 137t107 108t136.5 67q27 -19 48 -45zM414 75q18 -48 34 -110q-55 14 -107 34q-40 -25 -85 -32
q67 125 188 191q-6 -45 -30 -83zM444 220q-85 -35 -150 -101t-100 -152q-31 4 -57 15q34 104 111 182.5t180 112.5q12 -27 16 -57zM444 220z" />
    <glyph glyph-name="leanpub" unicode="leanpub" horiz-adv-x="576" 
d="M387 337q-58 -2 -99 -43q-42 43 -103 43q-48 0 -92 -19l-31 -258q67 28 123 28q58 0 103 -28q47 29 103 28h11zM569 0l-42 349q-62 35 -133 35q-64 0 -106 -29q-42 29 -106 29q-71 0 -133 -35l-42 -349h1q34 0 69 16q55 25 108 25q62 0 103 -41q41 41 103 41
q53 0 108 -25q34 -16 70 -16zM526 45q-29 12 -45.5 18t-41 10.5t-48.5 4.5q-56 0 -103 -29q-47 29 -103 29q-35 0 -63.5 -8t-71.5 -25l34 280q47 21 101 21q62 0 103 -38q41 38 103 38q54 0 101 -21zM526 45z" />
    <glyph glyph-name="sellsy" unicode="sellsy" horiz-adv-x="640" 
d="M540 211q41 -10 67.5 -43.5t26.5 -76.5q0 -51 -36.5 -87t-86.5 -36h-382q-50 0 -86.5 36t-36.5 87q0 24 9 45.5t25 38.5t37 27q-3 11 -3 23q0 23 11 42t30.5 30.5t42.5 11.5q31 0 55 -21q14 56 59.5 92t103.5 36q69 0 118.5 -49.5t49.5 -118.5q0 -20 -4 -37zM200 46v111
q0 7 -4.5 11.5t-10.5 4.5h-31q-7 0 -11.5 -4.5t-4.5 -11.5v-111q0 -6 4.5 -10.5t11.5 -4.5h31q6 0 10.5 4.5t4.5 10.5zM289 46v132q0 6 -4.5 10.5t-10.5 4.5h-31q-6 0 -10.5 -4.5t-4.5 -10.5v-132q0 -6 4.5 -10.5t10.5 -4.5h31q6 0 10.5 4.5t4.5 10.5zM379 46v163
q0 6 -4.5 10.5t-10.5 4.5h-31q-7 0 -11.5 -4.5t-4.5 -10.5v-163q0 -6 4.5 -10.5t11.5 -4.5h31q6 0 10.5 4.5t4.5 10.5zM466 46v225q0 6 -4.5 11t-10.5 5h-29q-6 0 -10.5 -5t-4.5 -11v-225q0 -6 4.5 -10.5t10.5 -4.5h29q6 0 10.5 4.5t4.5 10.5zM466 46z" />
    <glyph glyph-name="shirtsinbulk" unicode="shirtsinbulk" 
d="M100 38l4 10l31 -14l-4 -10zM139 20l5 10l30 -13l-4 -10zM312 34l30 14l4 -10l-30 -14zM179 3l5 10l30 -14l-5 -10zM60 55l5 10l30 -14l-4 -9zM272 17l30 13l5 -10l-31 -13zM232 -1l31 14l5 -10l-31 -14zM351 51l31 14l4 -10l-31 -13zM170 401v-10h-34v10h34zM123 401
v-10h-34v10h34zM76 401v-10h-34v10h34zM217 401v-10h-33v10h33zM312 401v-10h-34v10h34zM359 401v-10h-34v10h34zM264 401v-10h-33v10h33zM406 401v-10h-34v10h34zM53 97v-34h-11v34h11zM123 313v-11h-34v11h34zM53 302v-23h-11v34h34v-11h-23zM222 74q-38 0 -65 26.5
t-27 64.5t27 64.5t65 26.5t64.5 -26.5t26.5 -64.5t-26.5 -64.5t-64.5 -26.5zM174 185q0 -15 12 -21t26.5 -5t26.5 -1.5t12 -10.5q0 -15 -33 -15q-28 0 -36 15l-9 -18q19 -12 47 -12q19 0 35 7t16 24q0 16 -12.5 23t-27 6t-27 0.5t-12.5 8.5q0 15 30 15q27 0 36 -13h1l8 17
q-29 12 -44 12q-19 0 -34 -7.5t-15 -24.5zM53 270v-34h-11v34h11zM395 63v34h11v-34h-11zM53 140v-33h-11v33h11zM0 444h448v-406l-226 -98l-222 98v406zM419 57v270h-390v-270l193 -85zM419 357v58h-390v-58h390zM53 226v-33h-11v33h11zM53 183v-33h-11v33h11zM170 313v-11
h-33v11h33zM395 150v33h11v-33h-11zM395 193v33h11v-33h-11zM217 313v-11h-33v11h33zM395 236v34h11v-34h-11zM395 107v33h11v-33h-11zM264 313v-11h-33v11h33zM312 313v-11h-34v11h34zM395 279v23h-22v11h33v-34h-11zM359 313v-11h-34v11h34zM359 313z" />
    <glyph glyph-name="simplybuilt" unicode="simplybuilt" horiz-adv-x="512" 
d="M481 384q11 0 19 -7.5t8 -18.5v-332q0 -11 -8 -18.5t-19 -7.5h-450q-11 0 -19 7.5t-8 18.5v332q0 11 8 18.5t19 7.5h106q7 0 13 -3.5t9.5 -9.5t3.5 -13v-40h186v40q0 11 7.5 18.5t18.5 7.5h106zM149.5 92q27.5 0 47 19.5t19.5 47t-19.5 47t-46.5 19.5q-18 0 -33.5 -9
t-24.5 -24t-9 -33q0 -28 19.5 -47.5t47 -19.5zM362.5 92q27.5 0 47 19.5t19.5 47t-19.5 47t-47.5 19.5q-18 0 -33.5 -9t-24 -24t-8.5 -33q0 -28 19.5 -47.5t47 -19.5z" />
    <glyph glyph-name="skyatlas" unicode="skyatlas" horiz-adv-x="640" 
d="M640 119q0 30 -15.5 54.5t-41 38.5t-55.5 14q-18 0 -36 -5q1 9 1 21q0 59 -39.5 98.5t-99.5 39.5q-64 0 -103 -44q-7 -9 -7 -14t3 -8.5t8 -3.5q2 0 13.5 9.5t31.5 18.5t44 9q50 0 83.5 -32.5t33.5 -81.5q0 -7 -3 -19t-3 -18t5 -10.5t11 -4.5q5 0 21.5 5.5t25.5 5.5
q26 0 44.5 -14.5t23 -35t0 -41t-23.5 -34.5t-47 -14t-54 13.5t-47 35t-41.5 47.5t-43.5 52.5t-47.5 48t-58 35t-70.5 13.5q-65 0 -109 -42.5t-44 -106.5q0 -63 45 -104t109 -41q40 0 81.5 17t73.5 45q18 16 18 24q0 4 -3 7.5t-8 3.5q-2 0 -6.5 -3t-9.5 -8l-6 -6
q-59 -42 -126 -42q-43 0 -73 22t-37 53t-0.5 62t35 53t70.5 22q33 0 62 -14t51.5 -36t44 -48.5t42.5 -53t43.5 -48.5t52.5 -36t63 -14q50 0 84 33t34 82z" />
    <glyph glyph-name="pinterest-p" unicode="pinterest&#x2d;p" horiz-adv-x="384" 
d="M204 442q73 0 126.5 -46t53.5 -119q0 -49 -15.5 -92.5t-52 -73.5t-86.5 -30q-13 0 -26.5 4t-25 12t-17.5 20l-8.5 -34t-7 -28.5t-6 -21.5t-8 -21.5t-10 -18.5t-14 -23t-18.5 -26q-3 -2 -3.5 -2t-3.5 3q-4 48 -4 57q0 21 5 51t10.5 53t14.5 56.5t12 48.5q-10 19 -10 50
q0 49 37 65q30 13 48 -9q9 -12 9 -30q0 -19 -13 -56.5t-13 -56.5t13.5 -31.5t32.5 -12.5q24 0 43 16t28.5 41t14 49.5t4.5 46.5q0 52 -32.5 81t-85.5 29q-39 0 -71 -17.5t-50.5 -49t-18.5 -71.5q0 -23 11.5 -45t11.5 -23q0 -8 -4.5 -21.5t-10.5 -13.5q-21 0 -42.5 31
t-21.5 79q0 80 61.5 130t142.5 50z" />
    <glyph glyph-name="whatsapp" unicode="whatsapp" 
d="M381 351q67 -67 67 -157q0 -92 -66 -157t-158 -65q-57 0 -106 27l-118 -31l32 115q-30 51 -30 111q0 92 65 157t157 65t157 -65zM224 9q76 0 131 54.5t55 130.5q1 74 -56 130q-54 55 -130 55t-130.5 -54.5t-54.5 -130.5q0 -53 29 -98l4 -7l-19 -68l70 18l7 -4
q43 -26 94 -26zM325 148q10 -5 11 -7q3 -6 -4 -26q-1 -5 -5.5 -10t-10.5 -8t-11.5 -5.5t-9.5 -3.5q-26 -4 -67 14q-9 4 -17.5 9t-16 11t-14.5 12t-13 12t-11 11.5t-9 10.5t-6.5 8.5t-4.5 6.5l-2 3q-23 31 -23 57q0 25 19 47q7 6 15 6h11q9 0 12 -9l17 -41q3 -6 1 -10
q-4 -9 -10 -15.5t-7 -7.5t1 -7q14 -26 30.5 -39t44.5 -27q8 -4 12 1q13 15 18 22q4 6 12 3t38 -18z" />
    <glyph glyph-name="viacoin" unicode="viacoin" horiz-adv-x="384" 
d="M384 416l-48 -112h48v-48h-68l-14 -32h82v-48h-103l-89 -208l-89 208h-103v48h82l-14 32h-68v48h48l-48 112h64l81 -192h94l81 192h64zM192 112l27 64h-54z" />
    <glyph glyph-name="medium" unicode="medium&#x2d;m" horiz-adv-x="640" 
d="M180.5 374q74.5 0 127.5 -53.5t53 -128.5t-53 -128.5t-127.5 -53.5t-127.5 53.5t-53 128.5t53 128.5t127.5 53.5zM468.5 363q24.5 0 45.5 -23t33 -62.5t12 -85.5q0 -71 -26.5 -121t-64 -50t-63.5 50t-26 121q0 46 12 85.5t32.5 62.5t45 23zM608 345q13 0 22.5 -45
t9.5 -108t-9.5 -108t-22.5 -45t-22 45t-9 108t9 108t22 45zM608 345z" />
    <glyph glyph-name="y-combinator" unicode="y&#x2d;combinator" 
d="M448 416h-448v-448h448v448zM236 160v-92h-30v94l-76 144h35l45 -91l12 -27q6 13 13 27l46 91h33z" />
    <glyph glyph-name="optin-monster" unicode="optin&#x2d;monster" horiz-adv-x="576" 
d="M573 27q2 -7 1 -11q1 -23 -24.5 -43.5t-48.5 -21.5q-30 -2 -43 23q-185 -6 -340 0q-14 -24 -43 -23q-23 1 -48.5 21.5t-25.5 43.5q1 6 2 11q-4 7 -3 10.5t9 0.5q4 7 11 14q-4 17 11 9q7 5 16 9q0 11 6.5 11.5t10.5 -5.5q16 3 27 -6v20q-12 0 -27 10t-19 26q-8 34 25 48
q1 4 5.5 9t9.5 7q10 3 14 -10q17 0 21 -8h5t6 0.5t6 0.5q-4 3 -8 5q-7 11 -25 12v2q-40 1 -55 18q-16 18 -12 53.5t25 50.5q6 4 13.5 1t8.5 -11q1 -2 1 -6.5t0.5 -5t1 -4.5t1 -3.5t2 -2.5t3 -2t4.5 -1.5t6 -0.5t8 0q12 12 26 20q-11 1 -44 -4q28 28 57 43q39 19 76 23
q-13 5 -60 16q161 34 245 -37q26 -23 42 -60q8 -1 13.5 -1h9.5t6.5 1.5t4 2t2.5 4.5t1.5 5t1 6t0.5 7q1 7 8.5 10.5t14.5 -1.5q19 -14 24 -48q5 -36 -12 -55q-15 -17 -54 -18v-3q-19 0 -26 -11q-4 -2 -8 -5q3 0 8.5 -1t8.5 -1q3 8 21 8q4 13 14 11q5 -1 9.5 -6t5.5 -10
q21 -9 25 -26q2 -11 0 -22q-4 -17 -19 -26.5t-27 -9.5v-20q11 8 27 6q4 6 10.5 5.5t6.5 -11.5q9 -4 16 -9q8 4 10.5 1t0.5 -10q8 -8 11 -14q8 3 9 -0.5t-3 -10.5zM499 281q22 -9 30 -36q1 10 -2.5 26.5t-11.5 24.5q-3 3 -6.5 4t-5.5 -0.5t-2 -4.5q0 -8 -2 -14zM494 274
q-4 -4 -14 -6q21 -24 13 -63q18 4 26 12q3 4 5 8q-2 40 -30 49zM470 267h-12q12 -31 15 -64q5 0 11 1q5 18 0.5 36t-14.5 27zM48 245q8 27 30 36q-3 7 -3 14q0 5 -4 5.5t-10 -4.5q-7 -8 -11 -24.5t-2 -26.5zM57 217q8 -8 26 -12q-7 39 13 63q-10 2 -14 6q-27 -9 -30 -49
q3 -5 5 -8zM105 203q4 34 20 63q-5 -1 -15 -5l-12 -5v1q-13 -25 -6 -53q8 -1 13 -1zM289.5 365q-31.5 0 -54 -22t-22.5 -53q0 -16 6 -30t16 -24.5t24.5 -16.5t29.5 -6q32 0 54 22.5t22 54.5q0 31 -22 53t-53.5 22zM405 191q-6 1 -40 1q2 -6 3 -12.5t1.5 -12t1 -9t0.5 -8.5
q2 -13 3.5 -16t7.5 0q7 4 12.5 14.5t8 21.5t2.5 21zM351 193h-57v-12t1 -18.5t3 -10.5q8 -4 25.5 -4t25.5 3q3 5 3 19.5t-1 22.5zM278 139q3 6 3 25t-1 29h-18.5t-21.5 -0.5t-18 -0.5q-2 -10 -2.5 -28t4.5 -23q9 -4 27 -4.5t27 2.5zM172 190q-5 -16 1 -32t21 -23q8 -4 10 4
q1 5 2 25t3 28q-17 -1 -37 -2zM136 159q6 -8 -8 -13q75 -79 156 -106q32 9 62.5 26.5t52 35.5t49.5 45q-10 4 -8 11q-4 1 -13 2t-13 1q-10 -33 -30 -39q-11 -4 -17 7q-2 4 -5 17q-3 -7 -24 -9q-29 -2 -44 3q-2 -6 -6 -9t-7.5 -3.5t-13.5 -1.5q-48 -5 -55 11q-1 -24 -25 -11
q-14 7 -20 18q-5 8 -7 17q-16 -1 -24 -2zM115 -14q1 4 1 8q-5 20 -14 35.5t-20 18.5q-18 6 -43 -13t-23 -41q9 -15 27 -25.5t32 -11.5q14 0 25.5 8t14.5 21zM106 52q15 -27 17 -52q53 31 106 47q-43 23 -98 77q-1 -1 -7 -3q-1 -2 3 -5.5t2 -7.5q-3 -6 -15 -9q-3 -3 -8 -6
q-1 -23 0 -41zM444 -12q-69 39 -116 53q-20 -9 -42 -16q-2 -1 -4 0q-17 5 -35 13q-56 -16 -113 -50v-1v1q143 -6 310 0zM454 0q2 27 17 52l-1 -1q1 22 1 42q-4 2 -8 7q-11 2 -15 8q-2 6 6 11q-1 1 -1 2q-4 1 -7 3q-55 -51 -104 -76q55 -17 112 -48zM560 -6q2 22 -23 41
t-43 13q-10 -3 -19.5 -19t-14.5 -35q0 -11 6.5 -20t15.5 -13t19 -4q14 1 32 11.5t27 25.5zM373 373q-27 29 -60 35.5t-66 -12.5q12 28 42 35.5t56 -8.5t28 -50zM75 41q11 1 17 -10.5t1 -20.5q-3 -7 -14.5 -16t-20.5 -11q-13 -4 -23 1t-10 14q0 12 18.5 27t31.5 16zM291 217
q-24 0 -40 17.5t-11 42.5q10 -16 28.5 -11t18.5 22t-17 22q25 10 49 -4t24 -41q0 -20 -15.5 -34t-36.5 -14zM68 -26q0 6 11 15t18 10q6 1 9 -6t1 -12q-6 -12 -17 -17q-7 -2 -14.5 1.5t-7.5 8.5zM501 41q13 -1 31.5 -16t18.5 -27q0 -9 -10 -14t-22 -1q-10 2 -21.5 11
t-15.5 16q-4 9 2 20.5t17 10.5zM479 -1q7 -1 18.5 -10t10.5 -15q0 -5 -7.5 -8.5t-13.5 -1.5q-13 5 -18 17q-2 5 1 12t9 6zM479 -1z" />
    <glyph glyph-name="opencart" unicode="opencart" horiz-adv-x="640" 
d="M423 7q0 19 -13 32.5t-32 13.5t-32.5 -13.5t-13.5 -32.5t13.5 -32t32.5 -13t32 13t13 32zM169 53q13 0 23.5 -6t16.5 -16.5t6 -23.5q0 -19 -13.5 -32t-32.5 -13t-32 13t-13 32t13 32.5t32 13.5zM461 323q39 0 68.5 -1t49.5 -5l35 -7t19 -11.5t7 -14t-6 -18.5t-15 -21
t-25.5 -25.5t-31.5 -28t-39 -33.5q-51 -44 -79 -69q12 22 37.5 50t44.5 46.5t29 38t-1.5 31t-55.5 18t-125 5.5q-58 -1 -106.5 3t-81.5 10t-61.5 17.5t-44 20.5t-30.5 24t-21 23.5t-15.5 24.5t-12.5 21q42 -44 92.5 -64.5t129.5 -27.5t239 -7zM461 323z" />
    <glyph glyph-name="expeditedssl" unicode="expeditedssl" horiz-adv-x="496" 
d="M248 405q88 0 150.5 -62.5t62.5 -150.5t-62.5 -150.5t-150.5 -62.5t-150.5 62.5t-62.5 150.5t62.5 150.5t150.5 62.5zM151 272h-1v-27q0 -9 9 -9h18q9 0 9 9v27q0 23 12.5 39t31 20t36.5 0t31 -20t13 -39v-27q0 -9 9 -9h17q9 0 9 9v27q0 40 -28.5 68.5t-68.5 28.5
t-68.5 -28.5t-28.5 -68.5zM390 68v142q0 7 -5.5 12t-12.5 5h-248q-7 0 -12.5 -5t-5.5 -12v-142q0 -7 5.5 -12.5t12.5 -5.5h248q7 0 12.5 5.5t5.5 12.5zM142 205q0 5 -5 5h-9q-4 0 -4 -5v-133q0 -4 4 -4h9q5 0 5 4v133zM283 157q0 14 -10 24.5t-25 10.5t-25.5 -10.5
t-10.5 -24.5q0 -21 18 -31v-31q0 -9 9 -9h18q9 0 9 9v31q17 10 17 31zM248 440q103 0 175.5 -72.5t72.5 -175.5t-72.5 -175.5t-175.5 -72.5t-175.5 72.5t-72.5 175.5t72.5 175.5t175.5 72.5zM248 -38q95 0 162.5 67.5t67.5 162.5t-67.5 162.5t-162.5 67.5t-162.5 -67.5
t-67.5 -162.5t67.5 -162.5t162.5 -67.5z" />
    <glyph glyph-name="cc-jcb" unicode="cc&#x2d;jcb" horiz-adv-x="576" 
d="M432 204h38q13 2 13 16q0 13 -13 16h-35h-3v-32zM474 183q14 -2 14 -16.5t-14 -17.5h-42v35q40 0 42 -1zM576 368q0 20 -14 34t-34 14h-480q-20 0 -34 -14t-14 -34v-352q0 -20 14 -34t34 -14h480q20 0 34 14t14 34v352zM182 256q0 -11 0.5 -29.5t0.5 -27t-1 -22t-4 -19.5
t-9 -14t-15 -11t-22.5 -6t-31.5 -3q-38 1 -68 9v28q30 -15 57 -15q10 0 17 2.5t11 8t6 11t2.5 17t0.5 20t-0.5 24.5t-0.5 27h57zM360 251v-28q-18 9 -36.5 12.5t-34.5 1t-26 -14t-10 -30.5q0 -25 17 -36.5t41.5 -9.5t48.5 15v-28q-23 -6 -49.5 -7.5t-53.5 2.5t-44 20.5
t-17 43.5q0 26 16.5 42.5t42 21t53 3.5t52.5 -8zM544 162q0 -16 -12 -25t-30 -9h-123v128h120v0q17 -1 27 -9.5t10 -22.5q0 -11 -8 -19.5t-22 -10.5q17 -2 27.5 -10.5t10.5 -21.5z" />
    <glyph glyph-name="cc-diners-club" unicode="cc&#x2d;diners&#x2d;club" horiz-adv-x="576" 
d="M240 368q73 0 124.5 -51.5t51.5 -124t-51.5 -124.5t-124.5 -52t-124.5 52t-51.5 124.5t51.5 124t124.5 51.5zM200 88v208q-32 -12 -52 -40.5t-20 -63.5t20 -63t52 -41zM280 88q31 13 51 41t20 63t-20 63.5t-51 40.5v-208zM528 416q20 0 34 -14t14 -34v-352q0 -20 -14 -34
t-34 -14h-480q-20 0 -34 14t-14 34v352q0 20 14 34t34 14h480zM330 0q79 0 139.5 56.5t60.5 133.5q0 84 -59.5 139t-140.5 55h-91q-53 0 -97 -24t-70 -69t-26 -101q0 -78 57 -134t136 -56h91z" />
    <glyph glyph-name="creative-commons" unicode="creative&#x2d;commons" horiz-adv-x="496" 
d="M246 233q-20 36 -66 36q-28 0 -50.5 -18.5t-22.5 -58.5q0 -23 8 -40t21 -24t24 -10t21 -3q44 0 65 39l-30 15q-9 -21 -31 -21q-33 0 -33 44t33 44q18 0 28 -20zM389 233q-20 36 -66 36q-16 0 -31.5 -6.5t-28 -25t-12.5 -45.5q0 -24 8 -40.5t20.5 -23.5t23.5 -10t22 -3
q43 0 65 39l-31 15q-9 -21 -31 -21q-33 0 -33 44t33 44q19 0 28 -20zM248 440q69 0 126.5 -33t89.5 -90t32 -125q0 -107 -74 -177.5t-174 -70.5q-102 0 -175 72.5t-73 175.5q0 101 71 174.5t177 73.5zM248 -11q81 0 142 57.5t61 145.5q0 85 -59 144t-144 59
q-86 0 -144.5 -61t-58.5 -142q0 -83 59.5 -143t143.5 -60zM248 -11z" />
    <glyph glyph-name="gg" unicode="gg" horiz-adv-x="512" 
d="M179 218l-25 -26l77 -76l-52 -52l-128 128l128 128l19 -19l26 25l-45 45l-179 -179l179 -179l103 102zM333 371l179 -179l-179 -179l-45 45l26 25l19 -19l128 128l-128 128l-52 -52l77 -76l-25 -26l-103 103z" />
    <glyph glyph-name="gg-circle" unicode="gg&#x2d;circle" horiz-adv-x="512" 
d="M257 440q103 0 175.5 -72.5t72.5 -175.5t-72.5 -175.5t-175.5 -72.5t-175.5 72.5t-72.5 175.5t72.5 175.5t175.5 72.5zM208 65l75 75l-78 78l-24 -25l53 -53l-27 -26l-77 77l77 77l11 -11l25 24l-35 36l-126 -126zM307 67l125 126l-126 126l-75 -75l78 -78l24 25l-53 53
l26 26l78 -77l-78 -77l-11 11l-24 -24zM306 67z" />
    <glyph glyph-name="odnoklassniki" unicode="odnoklassniki" horiz-adv-x="320" 
d="M275 114q27 18 35 29.5t0 29.5q-7 13 -20.5 16.5t-34.5 -10.5q-1 -1 -4 -3t-12.5 -7t-20 -9t-26 -7t-32.5 -3q-26 0 -49.5 7t-34.5 15l-11 7q-21 14 -34.5 10.5t-19.5 -16.5q-9 -18 -1 -29.5t35 -29.5q32 -21 90 -27l-20 -20l-76 -77q-14 -13 -7.5 -30t22 -22t30.5 7
l76 76l77 -77q13 -13 30 -6.5t22 22t-7 30.5l-76 76l-21 21q57 6 90 27zM30 318q0 -53 38 -91t92 -38t92 38t38 91q0 54 -38 92t-92 38t-92 -38t-38 -92zM96 318q0 27 19 45.5t45 18.5t45 -18.5t19 -45.5q0 -26 -19 -44.5t-45 -18.5t-45 18.5t-19 44.5z" />
    <glyph glyph-name="square-odnoklassniki" unicode="odnoklassniki&#x2d;square" 
d="M184 271q0 -11 5.5 -20t14.5 -14.5t20 -5.5t20 5.5t14.5 14.5t5.5 20q0 16 -12 28t-28 12q-8 0 -15.5 -3t-12.5 -8.5t-8.5 -13t-3.5 -15.5zM448 368q0 20 -14 34t-34 14h-352q-20 0 -34 -14t-14 -34v-352q0 -20 14 -34t34 -14h352q20 0 34 14t14 34v352zM143 271
q0 34 23.5 57.5t57.5 23.5q22 0 40.5 -11t29.5 -29.5t11 -40.5q0 -34 -23.5 -57.5t-57.5 -23.5t-57.5 23.5t-23.5 57.5zM317 180q6 -11 1 -18.5t-22 -18.5q-21 -13 -56 -17l13 -12l47 -48q13 -14 -1 -28t-27 -1l-48 48l-48 -48q-13 -13 -27 1.5t-1 27.5q4 3 13 12.5t18 18.5
l17 17l13 12q-37 4 -57 17q-17 11 -22 18.5t1 18.5q4 8 12 10t22 -6q22 -18 59 -18q10 0 20 2t17 4.5t12 5t8 4.5l2 2q14 8 22 6t12 -10z" />
    <glyph glyph-name="get-pocket" unicode="get&#x2d;pocket" 
d="M408 384q17 0 28.5 -12t11.5 -29v-135q0 -93 -65.5 -158.5t-158.5 -65.5t-158.5 65.5t-65.5 158.5v135q0 17 12 29t29 12h367zM246 116q24 23 58 55q41 39 48.5 48t7.5 20q0 12 -9 21t-21 9q-10 0 -18 -6t-42 -39q-27 -26 -46 -44q-19 19 -47 46q-32 31 -40 37t-18 6
q-13 0 -22 -9t-9 -21q0 -11 7.5 -19.5t49.5 -48.5q34 -32 58 -55q9 -9 21 -9t22 9zM246 116z" />
    <glyph glyph-name="wikipedia-w" unicode="wikipedia&#x2d;w" horiz-adv-x="640" 
d="M640 397l-128 1v-14q12 0 27 -6.5t20 -21.5l-122 -282q-2 5 -18.5 41t-32.5 72t-18 43l59 123q20 30 58 32v13h-25.5h-50.5h-47v-4.5v-5t-1 -4.5q27 0 36.5 -7t2.5 -22q-19 -46 -48 -101q-7 15 -15 33t-16.5 36.5t-16.5 35.5q-6 12 3.5 18.5t25.5 7.5v13h-142v-14
q45 0 56 -19q8 -15 37.5 -82.5t34.5 -77.5q-6 -13 -22.5 -43.5t-31 -58.5t-21.5 -41q-13 28 -66 151.5t-60 136.5q-3 8 0.5 14.5t11 10.5t16 6.5t16.5 3.5v14h-162v-8v-7q18 1 42 -23t34 -46q23 -56 71.5 -165t71.5 -164l7.5 -0.5t7.5 0.5q18 37 55 108t44 85l82 -193h14
q14 33 155 358q17 40 56 41v12zM640 397z" />
    <glyph glyph-name="safari" unicode="safari" horiz-adv-x="512" 
d="M275 173l-109 -71l71 109zM256 440q103 0 175.5 -72.5t72.5 -175.5t-72.5 -175.5t-175.5 -72.5t-175.5 72.5t-72.5 175.5t72.5 175.5t175.5 72.5zM412 265q-8 -3 -4.5 -10.5t10.5 -4.5l15 7q3 1 4 4t0 6t-4 4.5t-6 -0.5zM314 354q-1 -3 0.5 -6t4.5 -4q7 -4 10 4l6 15
q3 7 -4 10t-10 -4zM256 388q-8 0 -8 -8v-16q0 -8 8 -8t8 8v16q0 8 -8 8zM181 373q-7 -3 -4 -10l6 -15q2 -4 6.5 -5t7 3t1.5 8l-7 15q-1 3 -4 4t-6 0zM117.5 330.5q-5.5 -5.5 -0.5 -11.5l12 -11q5 -6 11 0t0 11l-11 12q-6 5 -11.5 -0.5zM60 192q0 -8 8 -8h16q8 0 8 8t-8 8
h-16q-8 0 -8 -8zM100 119q8 3 4.5 10.5t-10.5 4.5l-15 -7q-3 -1 -4 -4t0 -6t4 -4.5t6 0.5zM104 255q4 7 -4 10l-15 6q-7 3 -10 -4t4 -10l15 -7q3 -1 6 0.5t4 4.5zM198 30q1 4 -1.5 8t-7.5 3t-6 -5l-6 -15q-3 -7 4 -10t10 4zM264 4v16q0 8 -8 8t-8 -8v-16q0 -8 8 -8t8 8z
M331 11q7 3 4 10l-6 15q-3 8 -10.5 4.5t-4.5 -10.5l7 -15q1 -3 4 -4t6 0zM394.5 53.5q5.5 5.5 0.5 11.5l-12 11q-5 6 -11 0t0 -11l11 -12q6 -5 11.5 0.5zM286 162l116 176l-176 -116l-116 -176zM437 117q3 7 -4 10l-15 7q-3 1 -6 -0.5t-4 -4.5q-4 -7 4 -10l15 -6q7 -3 10 4z
M444 184q8 0 8 8t-8 8h-16q-8 0 -8 -8t8 -8h16z" />
    <glyph glyph-name="chrome" unicode="chrome" horiz-adv-x="512" 
d="M0 192q0 -64 29 -119t79.5 -90.5t111.5 -44.5l77 133q-21 -7 -41 -7q-24 0 -45.5 8.5t-38.5 23t-28 34.5l-110 191q-34 -61 -34 -129zM365 126l-109 -190q106 1 181 75.5t75 180.5q0 50 -19 96h-152q43 -38 43 -96q0 -36 -19 -66zM478 320q-34 58 -93 93t-129 35
q-60 0 -113 -26.5t-89 -71.5l76 -133q6 29 24 52.5t44.5 37t57.5 13.5h222zM168 192q0 -36 26 -62t62 -26t62 26t26 62t-26 62t-62 26t-62 -26t-26 -62z" />
    <glyph glyph-name="firefox" unicode="firefox" horiz-adv-x="512" 
d="M504 207v-14q0 -103 -73 -175.5t-175 -72.5q-92 0 -161 58.5t-84 147.5q0 2 -0.5 5t-0.5 5q-8 67 16 124q8 20 22.5 38.5t27.5 24.5q-23 -44 -26 -84q17 57 62 91q37 27 83 30.5t65 -15.5q-42 -14 -72.5 -63t-21.5 -107q3 -21 12 -40q-8 18 -7 42.5t12 41.5
q12 17 27.5 23.5t27.5 4.5q-4 0 -10 -9.5t-9 -15.5q-6 -15 -6 -31q1 -35 26 -59q36 -33 84 -24.5t75 49.5q18 26 18 69t-22 79q-12 18 -27 32q-36 34 -84 48t-96 5h-1q-2 0 -5 -1h-1l-6 -2q-29 -6 -50 -19v0v0v0l1.5 1.5t1.5 0.5q31 29 83 39q22 5 45 5h11q19 0 38 -4h1h2
l2 -1h3q29 -7 56 -20q4 -2 7 -4q13 -6 24 -15q7 -5 13 -9q10 -8 18 -17q13 -13 24 -27l1 -1.5t2 -2.5l1 -1l1 -2q1 -1 1 -1.5t0.5 -0.5t1 -1l0.5 -1q1 -1 1 -2l2 -2q0 -1 1 -2l1 -2l0.5 -1t1 -1t0.5 -1t0.5 -1t1 -1l0.5 -1q0 -1 0.5 -2t1.5 -2l0.5 -1l0.5 -1q1 -1 1 -2
q1 -1 1 -1.5t0.5 -1t0.5 -1t1 -1.5v-1q1 -1 2 -3q3 -6 5 -12q0 -1 0.5 -2t1.5 -2v-1l0.5 -1t0.5 -1.5t0.5 -1t1 -2l0.5 -1.5v-1q1 -2 1 -4l0.5 -0.5l0.5 -0.5q0 -1 1 -3v-1t0.5 -2t0.5 -1.5v-0.5l1 -4l1 -1q5 -20 7 -41v-5q0 -1 1 -4z" />
    <glyph glyph-name="opera" unicode="opera" horiz-adv-x="496" 
d="M314 415q54 0 99 -30q-70 63 -164 63h-1q-103 0 -175.5 -72.5t-72.5 -175.5q0 -100 68.5 -171.5t167.5 -76.5h12q95 0 165 63q-46 -30 -99 -30q-87 0 -148 75q-38 48 -44.5 111t14.5 116.5t69 90.5t109 37zM416 18q80 73 80 181.5t-79 182.5q-31 19 -66.5 17.5
t-66.5 -22.5q43 -16 70 -65t27 -112t-27.5 -112t-69.5 -65q30 -21 65.5 -22.5t66.5 17.5z" />
    <glyph glyph-name="internet-explorer" unicode="internet&#x2d;explorer" horiz-adv-x="512" 
d="M483 288q38 -68 27 -141h-329q0 -36 23.5 -61.5t55 -33.5t65.5 4t53 44h121q-24 -68 -83.5 -107t-133.5 -39q-70 0 -102 15q-34 -17 -65 -25.5t-57.5 -7t-42 20.5t-15.5 54q0 32 13 72.5t31 72.5q57 103 136 173q-53 -22 -122 -101q19 85 87.5 138.5t149.5 48.5
q97 43 153 30.5t56 -69.5q0 -39 -21 -88zM65 101q-18 -37 -24.5 -65.5t-2 -45t16 -26t29 -10.5t38 5t43.5 19q-73 42 -100 123zM181 210h207q-1 41 -32 68t-72 27t-71.5 -27t-31.5 -68zM365 398q67 -26 112 -100q15 38 15 68q0 16 -7 28t-19.5 19t-27.5 7q-27 0 -73 -22z
" />
    <glyph glyph-name="contao" unicode="contao" horiz-adv-x="512" 
d="M45.5 143q-7.5 37 -10.5 50.5t-6.5 44.5t-2 48.5t8.5 41.5t20 44q16 25 37 44h-58q-14 0 -24 -10t-10 -24v-380q0 -14 10 -24t24 -10h80q-15 16 -26 35t-19.5 46.5t-12 42t-11 51.5zM478 416q14 0 24 -10t10 -24v-380q0 -14 -10 -24t-24 -10h-52q62 61 57 164l-137 -30
q-3 -62 -57 -73q-36 -8 -59 11q-14 12 -24.5 37.5t-24.5 94.5q-10 47 -13.5 76.5t-2 41t7.5 22.5q12 27 48 35q54 11 82 -44l138 29q-21 51 -53 84h90z" />
    <glyph glyph-name="500px" unicode="&#x35;&#x30;&#x30;px" 
d="M103 104q16 -38 46 -62.5t64 -31.5t70 -0.5t64.5 26t47 54t18.5 76.5q0 53 -29.5 93.5t-72 57.5t-93 7.5t-87.5 -49.5h-1v133h224q8 0 8 15t-8 15h-242q-10 0 -10 -10v-187q0 -8 14 -12q14 -3 20 6l1 1q6 9 21 24q38 38 93 38t94 -38q38 -39 38 -93.5t-38 -92.5
q-32 -32 -77 -38t-83 18q0 18 -0.5 38.5t-0.5 31v23.5t0.5 19.5t1.5 13.5t3.5 12t5.5 9.5t7 9.5q19 22 47 22.5t49 -18.5t21 -48q0 -26 -12 -41t-30 -19.5t-47 -4.5q-8 3 -12.5 -11t3.5 -17q50 -15 89.5 14.5t39.5 78.5q0 40 -29 68.5t-69 28.5t-68.5 -27.5t-29.5 -64.5v-94
q-10 10 -16 20.5t-7 16t-4 10t-5.5 4t-10.5 -1.5q-11 -4 -12 -8.5t4 -14.5zM167 364q1 6 16.5 12t42 8.5t56 -0.5t63.5 -18t60 -40q4 -4 1 -9t-8 -9.5t-7 -4.5q-1 0 -12 9t-29.5 19.5t-42.5 19t-57.5 7.5t-68.5 -14q-6 -3 -10.5 6t-3.5 14zM393 33q6 6 16 -4t5 -16
q-49 -49 -113.5 -62t-120 6t-97.5 66.5t-51 110.5q-1 5 6.5 8.5t15 2t7.5 -7.5q12 -59 50.5 -100t86.5 -55t101.5 -1.5t93.5 52.5zM214 141q0 3 20 23l-18 18q-4 4 2 10.5t10 6.5q2 0 22 -19l18 18q4 5 12 -3t4 -13l-18 -18l17 -17q5 -6 -0.5 -12.5t-10.5 -6.5q-2 0 -22 20
l-10 -10q-9 -10 -12 -10q-5 0 -9 5q-5 5 -5 8z" />
    <glyph glyph-name="amazon" unicode="amazon" 
d="M257 285v14.5v13.5t-0.5 11t-2 11l-4 8t-6 6.5t-9.5 3t-13 1.5h-2.5t-5.5 -1t-8.5 -2.5t-10 -5.5t-10 -9t-9.5 -13t-8 -18l-74 7q0 40 36.5 72t98.5 32q31 0 54 -9t35 -23t17.5 -26.5t5.5 -23.5v-147q0 -13 8 -26t16 -20l8 -7l-56 -56q-39 36 -46 47q-13 -21 -36 -33.5
t-48 -13.5t-47.5 7t-37 29.5t-14.5 53.5q0 29 13 51t31.5 34t44 19.5t44 10t36.5 2.5zM257 198v41q-84 -3 -84 -58q0 -29 28 -38q29 -10 46 16q10 15 10 39zM393 35q8 10 1 13l-6 -1q-39 -18 -76 -27.5t-65.5 -13t-60.5 2t-51 10.5t-46.5 18t-38.5 19.5t-35 20.5
q-2 2 -4.5 1.5t-3 -3t2.5 -6.5q16 -19 41.5 -39.5t72.5 -41t95 -20.5q47 0 89 15.5t60 29t25 22.5zM433 33q5 12 7 25.5t0 17.5q-8 10 -46 6q-8 -1 -17.5 -4.5t-15.5 -7t-5 -6.5q1 -1 14 0q42 4 48 -3q4 -6 -1.5 -25t-11.5 -30q-2 -5 0.5 -6.5t6.5 2.5q12 10 21 31zM433 33z
" />
    <glyph glyph-name="houzz" unicode="houzz" 
d="M276 117v-149h156v258l-305 86v104h-110v-448h154v149h105zM276 117z" />
    <glyph glyph-name="vimeo-v" unicode="vimeo&#x2d;v" 
d="M448 294q4 88 -65 90q-93 3 -126 -105q15 6 29.5 7.5t25 -8t8.5 -30.5q-2 -23 -30 -68q-35 -54 -51 -41q-18 15 -42 161l-1 7q-6 38 -22 56t-42 15q-9 -1 -20 -6t-26 -17t-25.5 -21t-30.5 -27.5t-30 -26.5l21 -27q30 21 35 21q17 0 29.5 -32.5t35.5 -118.5q9 -35 15 -54
q27 -72 66 -72q63 0 154 118q89 114 92 179zM448 294z" />
    <glyph glyph-name="black-tie" unicode="black&#x2d;tie" 
d="M0 416h448v-448h-448v448zM316 91l-64 184l64 86h-184l64 -86l-64 -184l92 -89z" />
    <glyph glyph-name="fonticons" unicode="fonticons" 
d="M0 416h448v-448h-448v448zM187 275q9 0 13 -4.5t3 -18.5l51 6q0 31 -17.5 42t-47.5 11q-26 0 -42.5 -7t-25.5 -22.5t-9 -40.5v-21h-28v-37h22q6 0 6 -3v-111q0 -7 -7 -8l-21 -2v-26h131v25l-44 4q-4 1 -3 4v4v113h56l11 37h-68q0 2 1 4v24q0 8 0.5 12t2 8t5.5 5.5t11 1.5
zM261 33h103v25l-16 3q-3 0 -3 1v2v4v152h-80l-7 -30l25 -6q6 -2 6 -8v-108q0 -6 -7 -7l-21 -3v-25zM342 289l22 24l-4 10h-27l-16 28h-9l-16 -28h-27l-4 -10l22 -24l-9 -33l7 -8l32 17l31 -17l7 8zM342 289z" />
    <glyph glyph-name="reddit-alien" unicode="reddit&#x2d;alien" horiz-adv-x="512" 
d="M440 244q20 0 34 -12t18 -28t-3 -33t-25 -26q3 -11 3 -25q0 -63 -61.5 -107.5t-149.5 -44.5q-57 0 -105.5 20.5t-76.5 55t-28 76.5q0 13 3 24q-25 13 -29.5 37t10.5 43.5t42 19.5q22 0 38 -16q57 40 136 43l31 138q2 9 11 7l97 -22q12 22 35 22q17 0 28.5 -11.5t11.5 -28
t-11.5 -28t-28.5 -11.5q-16 0 -27.5 11.5t-11.5 27.5l-88 20l-28 -125q80 -3 137 -42q16 15 38 15zM129 139q0 -11 5.5 -20t14.5 -14t20 -5q16 0 27.5 11.5t11.5 27.5q0 11 -5 20t-14 14.5t-20 5.5q-16 0 -28 -11.5t-12 -28.5zM344 46q7 6 0 13t-14 0q-21 -21 -74.5 -21
t-74.5 21q-6 7 -13 0t0 -13q27 -28 87.5 -28t88.5 28zM343 100q16 0 28 11.5t12 27.5q0 17 -12 28.5t-28 11.5t-27.5 -12t-11.5 -28t11.5 -27.5t27.5 -11.5z" />
    <glyph glyph-name="edge" unicode="edge" horiz-adv-x="512" 
d="M120 411q1 -1 0 -1q-65 -47 -92 -104q51 27 108 27q50 0 92.5 -19t67 -52t24.5 -72q0 -24 -16 -42v-1l-1 -1q-5 -5 -5 -10q0 -3 2 -6.5t8.5 -8t16 -8.5t26.5 -6.5t38 -2.5q51 1 87 37.5t36 86.5q0 37 -17 75t-48 71t-81.5 53.5t-110.5 20.5q-72 1 -135 -37zM136 92
q0 51 29.5 98t68.5 61l4 1q-46 33 -102 32q-55 0 -95.5 -28t-40.5 -66q0 -93 59 -165q60 -72 150 -89q-35 26 -57 69q-18 43 -16 87zM470 48v1q6 9 1 14q-4 4 -11 0l-2 -1q-43 -21 -90 -21q-55 -1 -101.5 29t-67.5 81q-16 -30 -15 -58q-4 -43 19 -80q24 -38 61 -53
q25 -12 54 -12q61 7 109 50q25 22 42 50h1z" />
    <glyph glyph-name="codiepie" unicode="codiepie" horiz-adv-x="472" 
d="M422 245h-37v-97h26v44h11q16 0 22 13.5t-0.5 26.5t-21.5 13zM472 95l-192 98l186 109q-35 65 -91 101.5t-127 36.5q-103 0 -175.5 -72.5t-72.5 -175.5t72.5 -175.5t175.5 -72.5q75 0 133.5 40.5t90.5 110.5zM434 83q-12 -21 -27 -38t-33 -30.5t-38 -23t-42.5 -14.5
t-45.5 -5q-91 0 -155 64.5t-64 155.5t64 155.5t155 64.5q55 0 101.5 -26.5t77.5 -73.5l-59 -35q-45 63 -117 63q-62 0 -105.5 -43.5t-43.5 -105.5t43.5 -105.5t105.5 -43.5q79 0 122 72z" />
    <glyph glyph-name="modx" unicode="modx" 
d="M356 206l-96 -154l133 -84v214zM440 373l-83 -134l-154 96l23 38h214zM351 230l-250 -58l-46 30v214zM97 154l250 58l-125 -201h-214z" />
    <glyph glyph-name="fort-awesome" unicode="fort&#x2d;awesome" horiz-adv-x="512" 
d="M489 160q5 0 5 -4v-220h-183v96q0 26 -17 40.5t-38 14.5t-38 -14.5t-17 -40.5v-96h-183v220q0 4 5 4h27q5 0 5 -4v-32h36v178q0 4 5 4h27q5 0 5 -4v-32h36v32q0 4 5 4h27q5 0 5 -4v-32h37v32q0 4 11 4v112q-9 4 -9 14t8 14t16 0t8 -14t-10 -14v-5q13 3 24 3q6 0 17 -2
t16 -2t13.5 2t10.5 2q4 0 4 -4v-60q0 -8 -27 -8q-6 0 -16 2t-16 2q-11 0 -25 -4v-38q11 0 11 -4v-32h37v32q0 4 4 4h28q4 0 4 -4v-32h37v32q0 4 5 4h27q5 0 5 -4v-178h36v32q0 4 5 4h27zM201 165v64q0 4 -4 4h-28q-4 0 -4 -4v-64q0 -5 4 -5h28q4 0 4 5zM348 165v64q0 4 -5 4
h-27q-5 0 -5 -4v-64q0 -5 5 -5h27q5 0 5 5z" />
    <glyph glyph-name="usb" unicode="usb" horiz-adv-x="640" 
d="M642 192q0 5 -5 7l-89 54q-5 3 -9.5 0t-4.5 -8v-35h-310q9 13 22 43t24 46.5t24 16.5h30q6 -15 19.5 -25t30.5 -10q22 0 38 15.5t16 38t-16 38t-38 15.5q-17 0 -30.5 -10t-19.5 -26h-11q-20 1 -29 -0.5t-21.5 -9t-23 -24.5t-24.5 -48q-7 -15 -11.5 -25t-10.5 -17t-8 -11
t-9 -5.5t-9 -2t-12.5 0t-14.5 0.5q-6 23 -25 38t-44 15q-29 0 -50 -21t-21 -50t21 -50t50 -21q25 0 44 15t25 38h101q10 0 19 -10.5t15.5 -26.5t15.5 -34.5t18 -34t24 -26t32 -10.5h27v-27q0 -9 9 -9h89q9 0 9 9v89q0 9 -9 9h-89q-9 0 -9 -9v-27h-27q-13 0 -24 17t-24 47
t-21 43h238v-36q0 -5 5 -7q2 -1 4 -1t5 1l89 53q5 3 5 8zM641 192z" />
    <glyph glyph-name="product-hunt" unicode="product&#x2d;hunt" horiz-adv-x="512" 
d="M326 229.5q0 15.5 -11 26t-26 10.5h-70v-74h70q15 0 26 11t11 26.5zM504 192q0 103 -72.5 175.5t-175.5 72.5t-175.5 -72.5t-72.5 -175.5t72.5 -175.5t175.5 -72.5t175.5 72.5t72.5 175.5zM376 229q0 -23 -11.5 -43t-31.5 -32t-44 -12h-70v-74h-50v248h120
q36 0 61.5 -25.5t25.5 -61.5zM376 229z" />
    <glyph glyph-name="mixcloud" unicode="mixcloud" horiz-adv-x="640" 
d="M213 101v182h-66l-36 -173h-9l-36 173h-66v-182h33v152l-6 22h11l38 -174h61l38 174h11l-6 -22v-152h33zM544 164h10l86 -62v38l-73 52l73 52v38l-86 -62h-10l-86 62v-38l73 -52l-73 -52v-38zM430 176v33h-182v-33h182z" />
    <glyph glyph-name="scribd" unicode="scribd" horiz-adv-x="384" 
d="M42 195q22 -26 57.5 -28.5t57.5 20.5q19 19 19.5 46t-18.5 46q-23 21 -56 14q-29 -9 -29 15q0 35 35.5 56t76.5 21q67 1 123 -36l-27 -39l38 -24l50 72q-1 1 -5 3q-16 13 -28 21.5t-36 21t-53 19t-62 5.5q-73 0 -120 -40t-47 -113q0 -51 24 -80zM360 189q13 -15 19 -39.5
t5 -51t-12.5 -53.5t-31.5 -45q-52 -44 -134 -44q-109 -1 -191 72l-15 14l61 71l35 -27l-33 -39q64 -48 144 -48q95 0 121 65q2 6 2 12q0 24 -29 16q-34 -8 -56 14q-20 18 -19 45q0 29 21 49t50 18q38 1 63 -29zM360 189z" />
    <glyph glyph-name="bluetooth" unicode="bluetooth" 
d="M293 277l-44 43l1 -86zM249 57l1 86l42 -43zM416 188.5q0 75.5 -13 127t-38.5 80t-58.5 40.5t-77 12q-45 0 -79 -12t-61.5 -40t-42 -80.5t-14.5 -126.5q0 -61 10 -105.5t27 -72.5t43 -45t54.5 -23.5t64.5 -6.5q45 0 77 11t57.5 38t38 77.5t12.5 126zM257 189l84 -89
l-127 -128l-2 170l-74 -73l-27 26l93 93l-93 93l27 27l74 -73v176l125 -134zM257 189z" />
    <glyph glyph-name="bluetooth-b" unicode="bluetooth&#x2d;b" horiz-adv-x="320" 
d="M196 188l98 -103l-148 -149l-3 198l-86 -86l-31 32l108 108l-108 108l31 32l86 -86v206l146 -157zM237 291l-50 50v-100zM187 135v-100l50 50z" />
    <glyph glyph-name="gitlab" unicode="gitlab" horiz-adv-x="512" 
d="M504 243q15 -41 2 -82q-10 -41 -46 -67l-107 -80l-52 -40l-32 -24q-8 -5 -13 -5t-13 5l-32 24l-53 40l-106 79v1h-1q-34 26 -46 67.5t4 81.5v2l70 182q2 5 7 9q4 2 8 2.5t8.5 -1t7 -5t4.5 -7.5l47 -144h190l47 144q2 4 4.5 7.5t7 5t8.5 1t8 -2.5q5 -4 7 -9l70 -182z" />
    <glyph glyph-name="wpbeginner" unicode="wpbeginner" horiz-adv-x="512" 
d="M463 126q23 38 25.5 80t-14 79t-47 66.5t-75.5 47t-96 17.5t-96 -17.5t-75.5 -47t-47 -66.5t-14 -79t25.5 -80q-20 -24 -22 -52t11 -51.5t40.5 -39t62.5 -15.5q30 0 57.5 13t42.5 37h15h15q15 -24 42.5 -37t57.5 -13q35 0 62.5 15.5t40.5 39t11 51.5t-22 52zM123 209v58
h42v-58h-42zM340 123q-41 -20 -95 -11t-92 43v25q41 -32 91.5 -41t95.5 7v-23zM190 209v58h166v-58h-166z" />
    <glyph glyph-name="wpforms" unicode="wpforms" 
d="M448 373q0 18 -12.5 30.5t-30.5 12.5h-362q-18 0 -30.5 -12.5t-12.5 -30.5v-362q0 -18 12.5 -30.5t30.5 -12.5h362q9 0 17 3.5t13.5 9t9 13.5t3.5 17v362zM411 11q0 -6 -6 -6h-362q-6 0 -6 6v362q0 6 6 6h10l110 -75l61 50l61 -50l111 75h9q6 0 6 -6v-362zM150 262h-73
v-37h73v37zM150 188h-73v-38h73v38zM161 335l-64 44h118zM371 262h-196v-37h196v37zM371 188h-196v-38h196v38zM287 335l-54 44h118zM371 113h-99v-37h99v37z" />
    <glyph glyph-name="envira" unicode="envira" 
d="M0 416q12 -43 25 -97t20 -82.5t19 -61t29.5 -55.5t43.5 -44q26 -20 52.5 -31.5t52 -13.5t42.5 -1.5t40.5 5t27.5 4.5l70 -71h26l-81 82q0 5 3.5 29t6.5 48.5t-0.5 59t-14 65t-37 61.5t-66.5 53t-106.5 36t-152.5 14zM80 370q24 -11 44 -26.5t32.5 -28t27 -34.5
t20.5 -32.5t20 -36.5q54 -103 91 -130q7 -6 20 -14l12 -10q-2 0 -38 15q-73 31 -144 168q-18 33 -25.5 47t-25.5 36t-40 37l-17 15q-5 7 23 -6zM80 370z" />
    <glyph glyph-name="accessible-icon" unicode="accessible&#x2d;icon" 
d="M424 192q1 14 -8.5 24t-23.5 9l-106 -6l58 67q11 12 8.5 28t-14.5 24l-139 81q-20 11 -36 -3l-68 -61q-14 -13 -9.5 -30t19.5 -21.5t31 6.5l51 46l43 -25l-76 -86q-46 -8 -81 -40l39 -39q29 26 68 26q31 0 55.5 -17.5t35.5 -42.5t7 -55t-24 -53l39 -39q42 45 42 107
q0 36 -16 68l41 2l-10 -122q-1 -19 13.5 -28t30 -2.5t17.5 25.5zM359 346q-21 0 -36 15t-15 36t15 36t36 15t36 -15t15 -36t-15 -36t-36 -15zM180 -8q30 0 56 17l39 -40q-29 -23 -64 -30t-67.5 2t-59.5 28.5t-43.5 52t-16.5 70.5q0 53 33 95l40 -39q-16 -24 -17 -52t11 -51
t35.5 -38t53.5 -15zM180 -8z" />
    <glyph glyph-name="glide" unicode="glide" 
d="M253 299q0 18 -13 18q-6 0 -14 -4q-13 -7 -22 -21.5t-12.5 -30t-3.5 -31.5q0 -18 7 -31.5t23 -13.5q13 0 14 4q8 40 17 84q4 16 4 26zM448 368q0 20 -14 34t-34 14h-352q-20 0 -34 -14t-14 -34v-352q0 -20 14 -34t34 -14h352q20 0 34 14t14 34v352zM384 181q0 -4 -4 -3
q-32 5 -37 5q-25 0 -58 -17q-1 -1 -2 -1.5t-1.5 -1.5t-1 -2.5t-1 -5t-1.5 -7.5t-2.5 -10.5t-2.5 -13.5q-10 -36 -35.5 -64t-59.5 -28q-24 0 -38.5 15t-14.5 40q0 9 3.5 20.5t11.5 20.5t18 9q7 0 21.5 -6t14.5 -11l-3 -2t-7 -5t-8 -7t-7 -10.5t-3 -13.5q0 -14 14 -13
q21 1 34 38q6 15 9 34q0 2 -0.5 2h-6.5q-41 0 -64 22.5t-23 62.5q0 45 29.5 84.5t78.5 39.5q68 0 68 -63q0 -13 -2.5 -28t-6.5 -32t-6 -27l1 -1q2 1 7 4t7 4t6.5 3.5t7 3.5t7 2.5l7.5 2.5t7.5 1.5t8.5 0.5t10 -3q2 0 8 -9t11.5 -18.5t5.5 -11.5zM384 181z" />
    <glyph glyph-name="glide-g" unicode="glide&#x2d;g" 
d="M407 237q6 -2 23.5 -29.5t17.5 -34.5q0 -5 -7 -5q-50 8 -59 8q-40 0 -93 -27l-3 -1.5t-1.5 -2t-1 -2.5t-1.5 -4t-1.5 -6t-1.5 -8t-2.5 -11t-3.5 -14.5t-4 -18.5q-15 -56 -56 -100.5t-96 -44.5q-39 0 -62 24.5t-23 63.5q0 11 3.5 24.5t10 25.5t16.5 20.5t22 8.5t35.5 -9.5
t23.5 -17.5q0 -1 -4.5 -4t-11.5 -8t-13.5 -11.5t-11 -16.5t-4.5 -21q0 -20 19 -22q28 -1 50 41q16 30 22 75q0 4 -1 4h-10q-66 0 -102.5 35.5t-36.5 101.5q0 45 18.5 89t59.5 76.5t95 32.5t81.5 -24t27.5 -77q0 -28 -11 -79t-13 -61l1 -1q3 2 11.5 6.5t11.5 6.5t10.5 6
t11.5 5.5t11 4t12 3.5t12 2t14 1q6 0 15 -4zM232 321q5 27 5 43q0 6 -0.5 10.5t-2 9t-6 6.5t-11.5 2q-11 0 -22 -6q-31 -17 -46.5 -55.5t-15.5 -78.5q0 -29 11.5 -51t37.5 -22h5h6t4.5 0.5t4 2.5t2.5 5q13 63 28 134z" />
    <glyph glyph-name="viadeo" unicode="viadeo" 
d="M276 298q-3 42 -21.5 86t-49.5 64q46 -77 71 -151v1zM309 176q22 4 42 17q13 -31 14.5 -64.5t-11 -70.5t-39.5 -66q-51 -56 -130 -56t-130 56q-40 42 -48 98t11 103t63.5 79.5t103.5 32.5q33 0 62 -10q-11 -21 -13 -44q-23 10 -49 10q-58 0 -97 -42t-39 -100
q0 -52 31.5 -90.5t80.5 -47.5q35 14 59.5 46.5t36 75t16 81t4.5 77.5q0 24 -1 36q19 -55 19 -112q0 -137 -109 -205l-4 -1q39 0 71 18.5t49.5 50.5t17.5 71q0 30 -11 57zM418 436q19 -27 24 -63.5t-3.5 -68.5t-29.5 -54t-49 -22t-55 25q75 42 100 85q6 13 7 20
q-15 -33 -48 -58t-70 -33q-12 19 -12 39q0 30 20 50q13 12 37 19t45 19.5t34 41.5zM418 436z" />
    <glyph glyph-name="square-viadeo" unicode="square&#x2d;viadeo" 
d="M400 416q20 0 34 -14t14 -34v-352q0 -20 -14 -34t-34 -14h-352q-20 0 -34 14t-14 34v352q0 20 14 34t34 14h352zM281 67q25 27 30 63t-7 62q-13 -7 -27 -10q7 -16 7 -36q0 -37 -24.5 -62.5t-61.5 -24.5h2q68 43 68 128q0 36 -11 70v1q-2 26 -14 53.5t-30 40.5
q28 -49 44 -95v-22q0 -25 -3 -48.5t-10 -50.5t-22.5 -47t-37.5 -29q-30 6 -49.5 30t-19.5 56q0 18 6.5 34t17.5 28.5t27 19.5t34 7q16 0 30 -6q2 14 9 27q-19 7 -39 7q-37 0 -65 -20.5t-40 -50t-6.5 -64.5t29.5 -61q32 -35 81.5 -35t81.5 35zM309 214q24 0 38.5 23t14 54
t-16.5 54q-8 -19 -21 -26.5t-28 -12t-23 -11.5q-13 -13 -13 -32q0 -13 8 -24q23 5 43.5 20.5t29.5 35.5q0 -4 -4 -12q-16 -27 -62 -53q16 -16 34 -16zM309 214z" />
    <glyph glyph-name="snapchat" unicode="snapchat&#x2d;ghost" horiz-adv-x="512" 
d="M497 81q6 -16 -8 -31v-1q-6 -6 -13 -10q-15 -8 -31 -12q-3 -1 -5 -3q-2 -1 -4 -5.5t-3 -6.5q-4 -7 -10 -12q-10 -6 -33 -7t-37 -6q-6 -2 -19 -10q-40 -24 -78 -24t-78 24q-13 8 -19 10q-14 5 -37 6t-33 8q-5 3 -9 9q-2 3 -4 8t-4 6q-2 2 -6 3q-16 4 -30 12q-7 4 -12 10
q-15 15 -9 32q2 4 4 7.5t5.5 6t5.5 3.5t7.5 4t6.5 4q33 18 51 44q6 8 9 16q2 4 1 7q-2 2 -4 3q-4 3 -10 7q-9 6 -11 7q-14 10 -20 21q-9 18 -2 36q10 26 40 26q6 0 12 -1q1 -1 3 -1q0 19 1 35q4 46 33 79q14 16 33 27q34 19 76 19t76 -19q19 -11 33 -27q29 -33 33 -79
q1 -16 1 -35q1 0 3 1q6 1 12 1q30 0 40 -26q7 -18 -2 -36q-6 -11 -20 -21q-2 -2 -11 -7q-6 -4 -11 -7q-2 -1 -3 -3q-1 -3 0 -7q4 -8 10 -16q18 -27 52 -45l4 -2t3 -1l4 -2q13 -8 17 -19zM463 63q14 8 1 14q-21 10 -37.5 23.5t-25.5 25t-15 23t-7.5 17t-1.5 8.5q-2 9 4 14
q2 2 7 5.5l10 7t11 7t8 4.5q17 12 12 25q-4 9 -15 9q-3 0 -6 -1q-5 -1 -11.5 -3t-11.5 -4t-8 -3h-2q-5 0 -5 6q3 39 1 62q-3 38 -26 64q-32 37 -89 37t-89 -37q-23 -26 -26 -64q-2 -21 1 -63q0 -5 -5 -5h-2q-3 0 -13.5 4.5t-17.5 5.5q-3 1 -6 1q-11 0 -15 -9q-5 -13 12 -25
q3 -1 11 -6.5t15.5 -10.5t9.5 -7q6 -5 4 -14q0 -3 -1.5 -8.5t-7.5 -17t-15 -23t-25.5 -25t-37.5 -23.5q-13 -6 1 -14q9 -5 18 -7.5t16 -4.5t11 -5q5 -3 6.5 -12t4.5 -11t24.5 -3t38.5 -7q9 -3 22.5 -12t29.5 -15t36 -6t36 6t29.5 15t22.5 12q13 4 27.5 5.5t23.5 2t12 2.5
t4.5 11t6 12t19.5 7t26 10z" />
    <glyph glyph-name="square-snapchat" unicode="snapchat&#x2d;square" 
d="M384 416q27 0 45.5 -18.5t18.5 -45.5v-320q0 -27 -18.5 -45.5t-45.5 -18.5h-320q-27 0 -45.5 18.5t-18.5 45.5v320q0 27 18.5 45.5t45.5 18.5h320zM380 97q9 10 5 21q-2 7 -11 12q-1 1 -3 1q0 1 -1.5 1.5t-2.5 1.5q-23 12 -36 30q-3 5 -6 11q-1 3 0 4l2 2q3 2 7 5
q6 4 8 5q9 6 13 14q6 11 2 24q-7 17 -27 17q-4 0 -8 -1h-2q0 12 -1 23q-3 31 -22 53q-9 11 -22 18q-23 13 -51 13t-51 -13q-13 -7 -22 -18q-19 -22 -22 -53q-1 -11 -1 -23h-2q-4 1 -8 1q-20 0 -27 -17q-4 -13 2 -24q4 -8 13 -14q1 -1 8 -5q4 -3 7 -5l2 -2q1 -2 0 -4
q-3 -6 -6 -11q-13 -18 -35 -30q-17 -9 -19 -16q-5 -12 5 -22q4 -4 9 -6q9 -6 20 -8l4 -2q1 -1 2.5 -4.5t2.5 -5.5q3 -4 6 -6q7 -5 22.5 -5.5t24.5 -3.5q4 -1 13 -7q26 -16 52 -16t52 16q9 6 13 7q9 3 24.5 3.5t22.5 5.5q4 3 6 7q1 2 2 5q2 3 3 4l4 2q11 2 20 8q5 2 9 7z
M363 115q9 -4 0 -9q-8 -4 -18 -7t-13 -5t-4 -8t-3 -7q-2 -2 -16.5 -2.5t-25.5 -4.5q-1 0 -21 -11t-38 -11t-38 11t-21 11q-9 3 -18.5 4t-15.5 1t-8 2q-2 1 -2.5 4t-1.5 6.5t-3 4.5q-3 2 -7.5 3.5t-11 3t-11.5 5.5q-10 5 -1 9q22 11 36.5 27.5t18 24.5t3.5 13q1 6 -2 9
q-2 2 -7 5t-10.5 7t-6.5 5q-12 8 -9 16q3 6 10 6h4q5 -1 12 -4t9 -3l1 -1q4 0 3 4q-1 28 0 42q2 26 17 43q22 25 60 25t60 -25q15 -17 17 -42q1 -16 0 -42q-1 -4 3 -4h1q2 0 9 3t12 4h4q7 0 10 -6q3 -8 -9 -16q-1 -1 -6.5 -5t-10.5 -7t-7 -5q-3 -3 -2 -9q0 -2 1 -5.5
t5 -11.5t10 -15.5t17 -16.5t25 -16z" />
    <glyph glyph-name="pied-piper" unicode="pied&#x2d;piper" horiz-adv-x="480" 
d="M456 425q7 2 10 -5t-3 -11q-111 -74 -126 -160q-8 -45 -20 -75t-24.5 -44t-29.5 -25t-33 -18t-37.5 -24t-40.5 -41q41 -23 88 -23q73 0 125 52t52 125q0 67 -45 117q7 15 17 28q59 -61 59 -145q0 -86 -61 -147t-147 -61t-147 61t-61 147t61 147t147 61q54 0 101 -27
q66 55 115 68zM125 42q92 199 192 293q-37 18 -77 18q-48 0 -89 -23.5t-64.5 -64.5t-23.5 -89q0 -82 62 -134z" />
    <glyph glyph-name="first-order" unicode="first&#x2d;order" 
d="M13 219zM224 351q12 0 22 -1l-4 -68l22 64q21 -5 40 -17l-29 -61l45 51q17 -13 30 -31l-50 -45l61 30q10 -18 16 -41l-64 -22l68 4q1 -9 1 -22t-1 -22l-68 4l64 -22q-5 -21 -16 -40l-61 29l50 -45q-12 -17 -30 -31l-45 51l29 -61q-17 -11 -40 -17l-22 65l4 -69
q-11 -1 -22 -1t-22 1l4 68l-22 -64q-21 5 -40 17l30 61l-45 -51q-17 12 -31 31l51 45l-61 -30q-12 20 -17 41l64 22l-68 -4q-1 13 -1 22q0 11 1 22l68 -4l-64 23q5 20 17 40l61 -30l-51 45q13 17 31 31l45 -51l-30 62q19 11 40 16l22 -64l-3 68q10 1 21 1zM443 320l-219 128
l-219 -128v-256l219 -128l219 128v256zM426 310v-235l-202 -118l-202 118v235l202 117zM224 411l-188 -110v-218l188 -110l188 110v218zM224 360q69 0 118 -49t49 -119q0 -46 -22.5 -84.5t-61 -61t-83.5 -22.5q-69 0 -118 49.5t-49 118.5q0 70 49 119t118 49z" />
    <glyph glyph-name="yoast" unicode="yoast" 
d="M91 372q-25 0 -46 -12t-33 -32.5t-12 -44.5v-206q0 -36 27 -62.5t64 -26.5h12v19q-41 0 -62.5 20.5t-21.5 49.5v206q0 29 21.5 49.5t50.5 20.5h179l7 19h-186zM320 428l-102 -279l-50 157h-62q19 -49 45 -114q28 -71 33 -84.5t5 -24.5l-1 -1q0 -24 -15.5 -47t-48.5 -28
v-51q48 2 78 33q23 23 39.5 60t74.5 192q13 35 21 56t22.5 58.5t27.5 72.5h-67zM448 286q0 61 -61 81l-7 -18q49 -17 49 -63v-279h-183q-2 -5 -12 -19h214v298z" />
    <glyph glyph-name="themeisle" unicode="themeisle" horiz-adv-x="512" 
d="M208 360q0 -4 1 -8t3.5 -7t6 -5t7.5 -2q8 0 12.5 6.5t4.5 15t-4.5 15t-12.5 6.5q-4 0 -7.5 -2t-6 -5t-3.5 -6.5t-1 -7.5zM512 200q0 57 -26 79q-15 14 -28 14q-10 0 -17 -8q-12 68 -57 108q5 5 5 7q0 7 -16 12q13 14 13 16t-1 4q-17 16 -40 16q-25 0 -42 -18q-8 1 -18 1
q-26 0 -51 -9t-46 -24.5t-38 -36.5l-21 -34l-4 -4l-4 -4q-6 -7 -12 -15q-6 15 -23 15q-23 0 -41 -18t-27 -44.5t-13.5 -51.5t-4.5 -46q0 -30 7 -46q14 -33 68 -88q-31 -19 -67 -11q20 -27 52 -36q-15 -5 -30 -6q26 -23 60 -23q31 0 57 20q0 -14 8 -23.5t21 -9.5q16 0 25 14
q9 -14 25 -14t24 14q9 -14 25 -14t25 14q9 -14 25 -14q12 0 20.5 9t8.5 22v32h1q26 8 65 30.5t56 40.5q17 19 26.5 58.5t9.5 71.5zM188 358.5q0 9.5 4 17.5t11.5 13.5t16.5 5.5q7 0 13.5 -3t10.5 -8t6.5 -12t2.5 -13q0 -15 -9.5 -26.5t-23.5 -11.5q-9 0 -16.5 5.5t-11.5 14
t-4 18zM238 254q0 -48 27.5 -61t79.5 -3q8 2 13 2q21 0 21 -22q0 -8 -4 -22q-28 -20 -60 -20q-30 0 -52.5 17.5t-32.5 44.5t-6.5 60t22.5 62q-8 -33 -8 -58zM197 -1v-32q0 -9 -6 -15.5t-14.5 -6.5t-14.5 6.5t-6 15.5v32q0 6 2.5 10.5t7.5 7.5t10 3q9 0 15 -6t6 -15zM246 -1
v-32q0 -9 -6 -15.5t-14.5 -6.5t-14.5 6.5t-6 15.5v32q0 9 6 15t14.5 6t14.5 -6t6 -15zM295 -1v-32q0 -9 -5.5 -15.5t-14 -6.5t-14.5 6.5t-6 15.5v32q0 9 6 15t14.5 6t14 -6t5.5 -15zM345 -1v-32q0 -9 -6 -15.5t-14 -6.5q-6 0 -10.5 3t-7 8t-2.5 11v32q0 6 2.5 10.5t7 7.5
t10.5 3q8 0 14 -6t6 -15zM422 162q-2 -43 -21 -82t-51 -66q-8 16 -25 16q-16 0 -25 -15q-9 15 -25 15t-25 -15q-8 15 -24 15t-25 -15q-9 15 -25 15q-17 0 -26 -17q-34 29 -52.5 72t-18.5 89q0 62 30 112q-6 -25 -6 -50q0 -72 45 -124.5t115 -52.5q50 0 92.5 28.5t66.5 74.5z
M432 262q0 -64 -45 -105q3 19 -1 29t-15.5 12.5t-22 1.5t-25.5 -3.5t-21 -2.5q-82 0 -41 137q34 36 79 36q41 0 66.5 -31.5t25.5 -73.5zM432 262z" />
    <glyph glyph-name="google-plus" unicode="google&#x2d;plus" horiz-adv-x="512" 
d="M256 440q103 0 175.5 -72.5t72.5 -175.5t-72.5 -175.5t-175.5 -72.5t-175.5 72.5t-72.5 175.5t72.5 175.5t175.5 72.5zM185 68q53 0 86 34t33 87q0 11 -2 21h-117v-43h70q-3 -24 -23.5 -38.5t-46.5 -14.5q-32 0 -54.5 23t-22.5 55t22.5 55t54.5 23q30 0 50 -19l33 33
q-34 32 -83 32q-33 0 -61.5 -16.5t-45.5 -45.5t-17 -62t17 -62t45.5 -45.5t61.5 -16.5zM416 174h35v36h-35v35h-36v-35h-35v-36h35v-35h36v35zM416 174z" />
    <glyph glyph-name="font-awesome" unicode="font&#x2d;awesome&#x2d;logo&#x2d;full" 
d="M448 400l-24 -9t-21 -7.5t-16 -5.5t-16 -5t-13 -2.5t-14.5 -2t-14.5 -0.5q-31 0 -75 16t-75 16q-30 0 -67 -13.5t-48 -15.5v13q0 14 -9 23t-23 9t-23 -9t-9 -23v-384q0 -14 9 -23t23 -9t23 9t9 23v307q11 2 48 15.5t67 13.5q31 0 75 -16t75 -16q25 0 55 9v-208
q-30 -9 -55 -9q-31 0 -75 16t-75 16q-21 0 -51 -8v-64q30 8 51 8q31 0 75 -16t75 -16q8 0 14.5 0.5t14.5 2t13 2.5t16 5t16 5.5t21 7.5l24 9v336z" />
    <glyph glyph-name="linode" unicode="linode" 
d="M366 261l71 -39l-58 -44l-7 -74l-25 17l2 36l-27 -18l-46 -34v-77l-33 29l-1 24l-15 -11l-78 -55q1 -1 12 -79l-66 70l-17 78l21 13l-30 28l-21 101l32 15l-42 33l-27 135l125 39l92 -44l-129 -49l21 -143l75 38l40 -26l-108 -62l15 -104l97 65q0 1 -2 59l39 25l30 -20
l1 37zM366 261z" />
    <glyph glyph-name="quora" unicode="quora" 
d="M440 61q1 -9 -1.5 -22.5t-10.5 -30.5t-28 -28.5t-48 -11.5q-59 0 -96 62q-58 -16 -116 4t-95.5 70t-37.5 115q0 85 60 141t138 56q79 0 138.5 -55.5t59.5 -141.5q0 -95 -74 -153q23 -36 49 -36q8 0 14.5 3t10 8t6 10t2.5 10h29zM297 119q17 37 17 100q0 80 -26.5 119
t-82.5 39t-81.5 -39t-25.5 -119q0 -79 25.5 -118t81.5 -39q19 0 33 5q-6 10 -10 17.5t-11 16.5t-13.5 14.5t-15.5 9t-20 3.5t-19 -4l-13 24q27 23 70 23q33 0 53.5 -13.5t37.5 -38.5z" />
    <glyph glyph-name="free-code-camp" unicode="free&#x2d;code&#x2d;camp" horiz-adv-x="576" 
d="M97 352q-65 -63 -65 -154q1 -101 68 -165q13 -12 13 -21q0 -3 -4 -8l-8 -4q-15 0 -44 36q-52 65 -54 162q0 49 15 86t47 74q23 26 36 26q5 0 8 -3q4 -4 4 -7q0 -6 -16 -22zM239 28l1 -1q0 1 -1 1zM333 27v1v-1zM336 186q8 -2 13.5 4t10.5 15t6 11q24 -31 29.5 -62
t-1.5 -51t-22.5 -39.5t-23.5 -25.5t-15 -10q10 7 23 33t-1 43l-4 -0.5t-9.5 -1t-12.5 0t-13 3.5t-10.5 9t-6 16.5t0.5 26.5q4 24 2 39.5t-6 23.5l-3 8q-8 -17 -16.5 -30t-16.5 -25t-11 -17q-16 -27 -23 -49t-7 -35.5t4.5 -24t8.5 -14.5t8 -6q-7 4 -15.5 10.5t-22.5 24
t-20.5 36t-1.5 47t26 57.5q16 23 28 44t18.5 36.5t10.5 29t5 22.5t1.5 15.5t-0.5 9.5l-1 3q24 -19 40.5 -39.5t22.5 -36.5t9 -32t0.5 -27.5t-4 -21.5t-3 -14t2.5 -6zM511 358q32 -37 47 -74t15 -86q-2 -98 -54 -162q-29 -36 -44 -36q-5 0 -8 4q-4 5 -4 8q0 9 13 21
q67 64 68 165q0 91 -65 154q-16 16 -16 22q0 3 4 7q3 3 8 3q13 0 36 -26z" />
    <glyph glyph-name="telegram" unicode="telegram&#x2d;plane" horiz-adv-x="496" 
d="M248 440q103 0 175.5 -72.5t72.5 -175.5t-72.5 -175.5t-175.5 -72.5t-175.5 72.5t-72.5 175.5t72.5 175.5t175.5 72.5zM363 271v10q-1 4 -4 7q-4 3 -10 3q-11 0 -92 -34q-36 -15 -145 -62q-17 -7 -18 -14q-1 -6 10 -11q1 0 17 -5q27 -9 38 -9q12 -1 27 9q101 69 105 70
q3 0 5 -1q2 -2 1 -4q-1 -3 -17 -18.5t-33.5 -31.5t-17.5 -17l-7 -7l-6.5 -6.5t-3.5 -5.5t-1.5 -6.5t3.5 -6.5t9 -8q10 -6 27 -17.5t29 -19.5q2 -1 9 -6t10.5 -7t9 -4t10.5 -1q12 1 17 25q23 121 28 178z" />
    <glyph glyph-name="bandcamp" unicode="bandcamp" horiz-adv-x="512" 
d="M256 440q103 0 175.5 -72.5t72.5 -175.5t-72.5 -175.5t-175.5 -72.5t-175.5 72.5t-72.5 175.5t72.5 175.5t175.5 72.5zM304 114l85 156h-181l-85 -156h181zM304 114z" />
    <glyph glyph-name="grav" unicode="grav" horiz-adv-x="512" 
d="M301 236l-10 11q-9 8 -17 0l-10 -10q-7 -8 0 -17l11 -10q8 -9 16 0l10 10q8 8 0 16zM271 256q-5 -5 -11 0q-5 5 0 10q6 6 11 0q5 -5 0 -10zM245 250q5 6 10 0q6 -5 0 -10q-5 -5 -10 0q-6 5 0 10zM317 264q15 -11 35.5 -5t29.5 24q2 3 3 6.5t1.5 6t0 6t-1 5t-2.5 5t-3 4.5
t-3.5 4t-3.5 4l-4 4t-4 3q-33 31 -60 1q-14 -20 -9 -38t21 -30zM365 308q13 -14 -1 -19q-9 -2 -14 3q-4 4 -2 10.5t7 8t10 -2.5zM504 192q0 103 -72.5 175.5t-175.5 72.5t-175.5 -72.5t-72.5 -175.5t72.5 -175.5t175.5 -72.5t175.5 72.5t72.5 175.5zM438 149q-4 -25 -45 1
q-39 25 -56 58q-18 -37 -64 -65q-14 -42 -60.5 -97t-65.5 -45q-23 12 24 65q0 -4 3 -9.5t5 -9.5l2 -3q-2 8 -2.5 17t1.5 18t5 17.5t7 17t7.5 14.5t7.5 13t5 8q14 5 15 23q1 33 -28 61q11 -13 11 -41v-7t-0.5 -12t-2.5 -12.5t-5 -3.5q-7 0 -46 -9q5 0 9 -1t6 -2l1 -1
q-13 -20 -36 -31q-16 -7 -22 3.5t4 21.5l8 8q-2 3 -2 8q-5 19 20 44.5t50 34.5q35 51 56 61q6 6 13 10q-12 21 -16.5 50.5t-0.5 36.5v-1q6 12 17 12t15 -9q3 -8 3 -22q-13 1 -25 -14q5 2 11 3.5t10 1.5h4l8 -9q-17 -31 -9 -61q2 -8 6.5 -14.5t10 -10.5t11.5 -6.5t12 -2.5
q-12 6 -20.5 17t-11 28t9.5 36q7 14 22 21t32 5q15 -2 27 -11t18 -23t5 -29q-4 -29 -29 -43q3 -10 -1 -23q10 -12 10 -24q-12 1 -24 -7q19 5 31.5 -2.5t23.5 -27.5q1 -2 13.5 -9t11.5 -17zM438 149z" />
    <glyph glyph-name="etsy" unicode="etsy" horiz-adv-x="384" 
d="M384 100h-22q-4 -8 -10 -23t-8.5 -20t-7.5 -15.5t-8 -14t-8.5 -10t-10 -8.5t-12 -4.5t-15.5 -3.5t-19 -1h-89q-45 0 -45 39v139l88 -2q7 -1 11.5 -2t8.5 -4.5t6 -5.5t4 -9t3 -11t3.5 -14.5t3.5 -15.5h26q-2 73 -2 79t3 81h-25q-2 -6 -4 -15t-3 -13t-2.5 -10.5t-2.5 -8.5
t-2.5 -6t-3 -5t-4 -3t-5.5 -2.5l-6 -1t-8 -0.5l-88 -2v163v4.5t1 3t3 2t6 0.5h137q6 0 11 -1.5t9.5 -5t7.5 -7t6 -10t5 -11t4.5 -13.5t4 -13.5t4 -14.5l3.5 -14h23q5 88 8 126q-104 -12 -363 -4v-25q5 -1 13 -2.5t12 -2.5t9.5 -2t8 -2t6 -2t5 -3l3 -4t2.5 -4.5t1.5 -6
t0.5 -7.5q5 -114 0 -322q0 -5 -0.5 -8.5t-2 -6.5t-3 -4.5t-5 -3.5t-6 -3t-8.5 -2.5t-10 -2t-12.5 -2t-13.5 -2.5v-26q197 6 368 0q6 72 16 132zM384 100z" />
    <glyph glyph-name="imdb" unicode="imdb" 
d="M90 124v138h-36v-138h36zM156 198l-4 34q-1 4 -1.5 8.5t-1 8l-1 7t-0.5 6.5h-47v-138h32v91l13 -91h21l13 93v-93h31v138h-46zM224 124h43q12 0 19 2q6 1 10 5q5 3 6 9q2 7 2 25v48q0 20 -1 27q-1 6 -6 12q-4 5 -14 7q-9 3 -33 3h-26v-138zM259 238h5h3q2 -3 3 -5v-12
v-53q0 -14 -1 -17q-2 -2 -10 -2v89zM316 124h32l3 9q4 -5 9 -8q6 -2 13 -2q9 0 14 5q6 3 8 10q1 3 1 18v38v8v5.5v3.5q0 4 -3 7q-3 4 -8 7q-5 2 -12 2t-13 -3q-4 -1 -9 -6v44h-35v-138zM362 145q-3 -3 -6 -3t-4 3q-1 2 -1 12v36q0 9 1 12q1 2 4 2q5 0 5 -3q2 -2 2 -11v-35
q0 -10 -1 -13zM418 416v0.5v0.5h-388q-12 -2 -20.5 -10.5t-9.5 -20.5v-388q1 -12 9 -20.5t20 -9.5q0 1 1 0h388l1 1q12 0 20 9t8 22v384q0 12 -8.5 21.5t-20.5 10.5zM30 407h388q9 -1 15 -7.5t6 -15.5v-384q0 -8 -6 -15t-15 -8h-388q-8 1 -14 7t-7 14v388q1 8 7 14t14 7z
" />
    <glyph glyph-name="ravelry" unicode="ravelry" horiz-adv-x="512" 
d="M498 214q0 -1 1 -2v-37l-1 -1l-2 -16q-4 -21 -7 -32q-6 -25 -22 -51q-13 -22 -31 -41l-12 -12q-12 -11 -16 -14q-12 -9 -29 -20q-23 -15 -49 -24q-25 -9 -47 -11q-1 0 -8 -1h-32q-1 0 -1 1l-19 1q-20 4 -40 10q-30 10 -56 26q-23 13 -42 30q-15 13 -26 29q-15 18 -24 39
q-12 26 -17 53q-4 20 -5 41q0 17 2 35t8 35q7 23 20 44q14 24 34 44q9 10 30 29q7 6 18 14q18 14 38 24q19 11 40 17q16 5 34 7l7 1h32l1 -1q20 -2 21 -2q21 -4 33 -8q30 -8 57 -24q26 -15 47 -36q10 -11 19 -22q21 -26 31 -58q6 -18 10 -36q0 -2 3 -31zM337 215v67
q-13 0 -23 -2t-17.5 -6t-13 -11t-8.5 -17v32h-73v-191h73v94q0 18 7.5 27.5t26.5 9.5zM337 215z" />
    <glyph glyph-name="sellcast" unicode="sellcast" 
d="M353 416q26 0 48 -12.5t34.5 -34.5t12.5 -48v-258q0 -26 -12.5 -48t-34.5 -34.5t-48 -12.5h-258q-39 0 -67 28t-28 67v258q0 26 12.5 48t34.5 34.5t48 12.5h258zM303 99.5q21 36.5 10 77t-47 61.5q-4 3 -6.5 4l-2.5 1q0 1 -0.5 1t-2.5 1t-6 4q-19 11 -29.5 -8t7.5 -30
q9 -5 19 -10q20 -12 26.5 -35.5t-5.5 -44t-35.5 -27t-43.5 5.5q-5 3 -7 4t-2.5 1h-0.5v0.5t-2.5 1.5t-6.5 4q-8 4 -16.5 2t-12.5 -10l-16 -27q-9 -17 5 -28q18 -15 35 11q1 2 2 3q36 -20 76.5 -9.5t61.5 47zM325 308q7 12 0 22.5t-18 10.5t-19 -11l-5 -9q-37 21 -77.5 10
t-61 -47t-10 -76.5t47.5 -61.5q4 -3 6 -4t3 -1v-1l2.5 -1t6.5 -4q19 -11 29.5 8t-7.5 30l-19 10q-21 12 -27 35.5t6 44t35.5 27t43.5 -5.5q5 -3 7 -4l2 -1q1 0 1 -0.5t2 -1.5t7 -4q15 -7 26 4q2 2 19 31zM325 308z" />
    <glyph glyph-name="superpowers" unicode="superpowers" 
d="M448 416l-87 -87q63 -62 57 -148q-4 -70 -51.5 -120.5t-116.5 -59.5q-35 -5 -80 -11t-90 -11.5t-80 -10.5l87 87q-63 61 -58 148q4 70 52 120.5t117 59.5q48 6 135 17.5t115 15.5zM368 184q4 59 -36 103t-100 48q-39 2 -73 -15t-56 -49t-24 -71q-3 -60 37 -103.5
t100 -47.5q59 -3 104 36t48 99z" />
    <glyph glyph-name="wpexplorer" unicode="wpexplorer" horiz-adv-x="512" 
d="M512 192q0 106 -75 181t-181 75t-181 -75t-75 -181t75 -181t181 -75t181 75t75 181zM480 192q0 -93 -65.5 -158.5t-158.5 -65.5t-158.5 65.5t-65.5 158.5t65.5 158.5t158.5 65.5t158.5 -66t65.5 -158zM161 323l-37 -87l87 -37l37 87zM271 154l16 -7l6 15l-68 29l-6 -14
l22 -10l-51 -107h14l49 100l50 -100h15zM259 271l-29 -69l68 -29l30 68zM339 228l-23 -55l55 -23l23 55zM339 228z" />
    <glyph glyph-name="meetup" unicode="meetup" horiz-adv-x="512" 
d="M99 33.5q-2 10.5 -12 8.5t-8 -12.5t12 -8.5t8 12.5zM242 -38q12 9 20 -3t-4 -20q-11 -9 -20 3q-7 12 4 20zM156.5 424.5q-11.5 -2.5 -14.5 9.5q-2 11 9 14q5 1 9 -1.5t5 -7.5q3 -12 -8.5 -14.5zM34.5 221.5q7.5 -5.5 9 -14.5t-3.5 -16.5t-14 -9.5t-16.5 3.5t-9 14.5
t3.5 17q5 7 14 9t16.5 -3.5zM306.5 392.5q-7.5 -4.5 -16.5 -2.5t-13 10q-5 8 -3 17t10 13.5t16.5 2.5t13.5 -10t2.5 -17t-10 -13.5zM115.5 335q-5.5 -4 -12.5 -3t-11 7t-2.5 13t7.5 11q5 3 12 2t10.5 -6.5t2.5 -12.5t-6.5 -11zM488 179q5 1 10 -2.5t6 -8.5q1 -4 -0.5 -7.5
t-4 -6t-6 -3.5t-7 0.5t-6 4t-3.5 6.5q-1 5 2 10t9 7zM527 235q3 -9 -7 -12q-11 -2 -13 8t8 12t12 -8zM447 309.5q6 4.5 13.5 3t12 -8t3 -14.5t-7.5 -12t-14 -3t-12 7.5t-2.5 14.5t7.5 12.5zM441 170q24 21 17.5 53t-37.5 42q4 53 -38 85.5t-93 15.5q-42 32 -93 14t-71 -68
q-39 -6 -56.5 -43t3.5 -72q-24 -22 -26 -53.5t17 -56.5t50 -30q1 -26 15 -47q21 -29 55.5 -35.5t64.5 13.5q0 1 1.5 2l1.5 1q27 -24 62 -13.5t43 46.5q32 -1 57 17q31 21 39 58.5t-12 70.5zM371 95q1 -7 -3.5 -11.5t-12 -5.5t-16.5 0t-16 2.5t-11 3.5q-14 7 -21 21.5
t-4 29.5q2 8 20.5 45.5t18.5 42.5q2 11 -7 11q-6 0 -12 -8q-1 -3 -12.5 -26l-23.5 -47l-13 -26q-6 -11 -16 -14t-17 2t-6 16q1 2 5.5 13.5t9.5 24.5t9.5 25t4.5 15q2 11 -6 15q-9 5 -14 -5q-2 -2 -22.5 -55.5t-22.5 -57.5q-9 -16 -25 -17q-20 -1 -32 13t-5 34q0 2 4 15.5
t8.5 27.5t10 31t10.5 31t8 20q7 12 22 18.5t27 1.5q9 -4 24 -11q6 -3 20 9t27 10q7 -1 19 -13q5 -5 12 -1q8 5 21 5q30 -1 34 -29q1 -14 -20.5 -63t-19.5 -65q1 -12 21 -15t22 -13zM376 3q8 6 17.5 4t15.5 -10q5 -8 3.5 -17.5t-9.5 -15t-17.5 -3.5t-15 9.5t-3.5 17.5t9 15z
" />
    <glyph glyph-name="square-font-awesome-stroke" unicode="font&#x2d;awesome&#x2d;alt" 
d="M202 296q15 0 36.5 -8t37.5 -8q15 0 60 16v-160q-45 -16 -60 -16q-16 0 -37.5 8t-36.5 8q-14 0 -26 -4v32q13 4 26 4q15 0 36.5 -8t37.5 -8q14 0 28 5v96q-2 -1 -4 -1q-12 -4 -24 -4q-16 0 -37.5 8t-36.5 8q-8 0 -14.5 -1t-11 -2.5t-11.5 -4t-10 -3.5q-5 -2 -11 -3v-154
v-2v-2q-3 -12 -16 -12t-16 12v1v1v2v192q0 7 4.5 11.5t11.5 4.5t11.5 -4.5t4.5 -11.5v-6q7 1 17 5t19.5 6.5t21.5 2.5zM384 416q26 0 45 -19t19 -45v-320q0 -26 -19 -45t-45 -19h-320q-26 0 -45 19t-19 45v320q0 26 19 45t45 19h320zM416 32v320q0 13 -9.5 22.5t-22.5 9.5
h-320q-13 0 -22.5 -9.5t-9.5 -22.5v-320q0 -13 9.5 -22.5t22.5 -9.5h320q13 0 22.5 9.5t9.5 22.5z" />
    <glyph glyph-name="accusoft" unicode="accusoft" horiz-adv-x="640" 
d="M322 196l-23 -21t-45 -41.5l-22 -20.5l-93 -34q-7 -3 -7 -9q0 -1 0.5 -13t0.5 -15q-114 -37 -115 -37q-18 -6 -18 -3q0 1 2 5q1 1 60 59t119.5 118t64.5 63.5t7.5 6.5t6.5 4.5t5.5 2.5t4.5 2h1l51 -66v-1zM482 76q-1 2 -26 33.5t-59 75t-68.5 87.5t-59.5 76t-27 35
q-5 6 -5.5 9.5t3.5 5t8 1.5h14q58 1 116 1h15t9.5 -1.5t7.5 -4t6 -7.5q17 -21 208 -248q15 -19 7 -23q-2 -1 -58.5 -24.5t-59.5 -24.5q-7 -5 -14.5 -3.5t-16.5 12.5zM635 74q10 -2 2 -8q-1 -1 -32 -20l-62 -38t-32 -20q-5 -2 -9.5 -3t-12 -0.5t-10.5 1t-12 2.5t-10 2
q-6 1 -156 35t-152 34q-4 2 -4 4q-1 3 11 7q1 1 38 14.5t73.5 26.5t38.5 14q5 2 14 3q7 0 66 -9l57 -74q19 -23 36 -15l118 52q4 -1 11 -2.5t12 -2.5t9.5 -2t5.5 -1z" />
    <glyph glyph-name="adversal" unicode="adversal" horiz-adv-x="512" 
d="M482 416q18 0 24 -6t6 -24v-388q0 -19 -6 -24.5t-24 -5.5h-453q-18 0 -23.5 5.5t-5.5 23.5v390q0 17 6 23t23 6h453zM178 228q14 -10 12 -28q-1 -8 -20.5 -11.5t-49 -7.5t-44.5 -11q-21 -11 -31.5 -30.5t-8.5 -41.5q3 -31 27.5 -47.5t58 -15t61.5 19.5q8 6 12 1
q1 -1 2 -3t2 -3q5 -7 22.5 -9.5t24.5 2.5q5 4 2 10q-6 14 -7.5 31t-1 30t-0.5 28v24.5v22.5t-0.5 19.5t-1.5 18t-3.5 14t-6.5 13t-9.5 9t-13.5 8.5q-64 26 -125 -5q-9 -5 -20 -18t-15 -26.5t10 -19.5q7 -4 23 -6q6 -2 10 -0.5t7 8.5q9 24 36.5 31.5t47.5 -7.5zM465 6
q0 5 -2 7.5t-3.5 2.5h-6h-5.5h-396h-5h-4.5t-3.5 -0.5t-3 -3t-1 -5.5q-1 -6 1 -8.5t4 -3t6.5 0t5.5 0.5h395q1 0 5.5 -0.5t6.5 -0.5t4 2.5t2 8.5zM469 346v1q0 15 -14 14h-9q-20 0 -23 -3.5t-3 -22.5v-71q-28 16 -53 18t-41.5 -7.5t-26.5 -20t-15 -21.5q-25 -50 -16 -100
q6 -33 22 -56t36.5 -32.5t43 -8.5t42.5 12q1 1 3 2q5 4 10 -3q4 -6 9.5 -7t14.5 0t12 1q8 0 8 14v291zM417 114q7 10 6.5 46t-14.5 55q-16 23 -42.5 22t-38.5 -27q-24 -50 -1 -101q9 -19 26.5 -26.5t36 0.5t27.5 31zM123 79q30 -1 49 16t18 42v3q0 3 -0.5 4.5t-2 2.5t-5.5 0
q-69 -14 -73 -15q-21 -5 -20 -26q0 -3 1 -6t2 -5.5t3 -4.5t4 -3.5t4.5 -2.5t4 -2t4.5 -1.5t4.5 -1t3.5 -0.5h3zM123 79z" />
    <glyph glyph-name="affiliatetheme" unicode="affiliatetheme" horiz-adv-x="512" 
d="M159.5 210.5q38.5 53.5 50.5 102.5t-10 65t-64.5 -10t-81 -79t-50.5 -102t10 -65.5t64.5 9.5t81 79.5zM511 268q1 -13 1 -25q0 -114 -79.5 -194.5t-192.5 -80.5q-61 0 -115 26t-92 71q53 14 96 49t68 84q13 -51 49 -74q55 -33 132.5 9t132.5 135zM511 268z" />
    <glyph glyph-name="algolia" unicode="algolia" horiz-adv-x="512" 
d="M256 448h246q10 0 10 -10v-492q0 -6 -6 -9t-11 2l-154 136q-39 -29 -88 -27q-59 1 -101 45t-41 103q2 61 47.5 103t106.5 38q36 -2 66 -20.5t48.5 -48.5t21.5 -66q1 -18 -2 -36q-1 -4 -4.5 -5t-5.5 1l-31 27q-5 5 -6 12q-3 37 -30.5 62.5t-65.5 25.5q-42 0 -70.5 -31
t-25.5 -73q2 -23 14 -43t32 -32t43 -14q53 -4 84 38q6 8 13 2l118 -105v369h-208q-85 0 -145.5 -60t-62.5 -144q-1 -86 59.5 -148t145.5 -63q44 -1 84 16q10 4 18 -3l24 -21q6 -6 -1 -10q-58 -31 -124 -31q-106 1 -181 77.5t-73 182.5q2 105 76.5 178.5t179.5 73.5z" />
    <glyph glyph-name="amilia" unicode="amilia" 
d="M240 416q97 0 144.5 -36.5t47.5 -99.5v-297q0 -7 -5 -9h-67q-53 0 -59 2q-7 1 -7 9v25q-31 -17 -75 -29.5t-78 -12.5q-31 0 -55 9t-36.5 22t-20.5 28.5t-10.5 26.5t-2.5 18v9v14t0.5 16t1.5 17.5t3.5 17t5.5 16.5t8 13t12 9q22 9 98.5 24t144.5 24v38q0 21 -1 31
t-6.5 21.5t-17.5 16t-34 4.5q-39 0 -82 -14.5t-70 -32.5q-4 -4 -10.5 -2.5t-9.5 8.5q-4 8 -10 39q-3 14 7 20q76 55 184 55zM290 68v107q-31 -3 -65.5 -13t-54.5 -21q-3 -1 -6 -3.5t-4.5 -5.5l-3 -6t-2.5 -7t-1.5 -7t-0.5 -7v-6.5v-6v-4.5q0 -5 2 -11.5t7.5 -14.5t18.5 -13
t31 -5q40 0 79 24zM290 68z" />
    <glyph glyph-name="angrycreative" unicode="angrycreative" horiz-adv-x="640" 
d="M640 210l-93 -6l-32 -83l-13 80l-31 -2l24 -118l32 2l47 115l-12 -113l64 4l3 26l-34 -2l2 20l35 2l3 29l-35 -3l2 18l35 3zM427 77l13 119l28 2l-13 -120zM162 60l126 8l8 16l40 2l4 -15l58 3l10 92l24 2l3 28l-75 -5l-3 -28l22 2l-9 -86l-32 111l-24 -2l-55 -117l3 21
l-37 -3l2 20l37 2l2 28l-36 -2l2 18l36 2l3 28l-65 -4l-3 -27q-5 27 -42 24l-39 -2l-3 -31l-1.5 2.5t-2.5 4.5t-3.5 5t-5 5.5t-6.5 5t-8.5 4t-10.5 2t-13 0.5q-29 -2 -47.5 -22t-20.5 -44q-2 -27 14.5 -43t42.5 -15q36 2 57 36l-3 -29l28 1l4 38zM118 130l-3 -30l-27 -1
q-13 -18 -29 -19q-10 -1 -17 3.5t-9.5 12t-2.5 15.5q1 8 5.5 15.5t12.5 12.5t17 5q17 1 26 -16zM174 138q-1 -7 -5.5 -10.5t-9.5 -4.5t-14 -1l3 28q15 1 21 -1t5 -11zM195 67l-22 33q21 9 28 27zM330 112l-23 -2l15 40zM160 187l57 3l6 67l38 -64l25 2l4 40q14 -42 55 -39
q9 0 16 2t12.5 5t9.5 6t8 7t6 6.5t4.5 6.5t3.5 5l-3 -32l28 2l4 39l19 -37l37 2l-26 39q34 14 32 50l16 -43l-5 -45l29 2l5 45l43 78l-31 -2l-23 -46l-13 43l-32 -2l4 -12q-10 12 -36 10l-39 -3l-3 -32l-1.5 2t-3 5t-4.5 6.5t-7 6.5t-9.5 5.5t-13 4t-15.5 0.5
q-18 -1 -33 -11.5t-19.5 -17t-10.5 -18.5l4 41l-29 -2l-6 -66l-38 63l-27 -2l-10 -104l-31 102l-24 -2l-57 -122l32 2l8 18l40 3zM437 269l3 29q17 1 23 -2q4 -3 3 -11t-8 -12q-6 -3 -21 -4zM328 234q-9 9 -8 23q2 15 13 25q11 8 22 9q6 0 13 -3q4 -2 11 -8l31 2l-1 -12
l-63 -4l-3 -24l34 2q-7 -9 -15 -14q-6 -3 -13 -4q-13 -1 -21 8zM126 226l16 39l8 -38z" />
    <glyph glyph-name="app-store" unicode="app&#x2d;store" horiz-adv-x="512" 
d="M256 327l-9 16q-4 7 -12.5 9.5t-15.5 -2t-9.5 -12.5t2.5 -16l20 -36l-66 -115h-52q-9 0 -15 -6t-6 -14.5t6 -14.5t15 -6h185q4 6 3.5 13.5t-3.5 13.5t-9 10t-14 4h-63l87 151q5 8 2.5 16t-9.5 12.5t-15.5 2t-12.5 -9.5zM177 109q-16 19 -40 12l-15 -26q-4 -7 -2 -15
t9.5 -12.5t15.5 -2t13 9.5zM346 171q-48 83 -60 104q-11 -9 -14.5 -27.5t7.5 -41.5q8 -14 33 -57t42 -74q4 -7 12.5 -9.5t15.5 2t9.5 12.5t-1.5 16l-20 34h29q9 0 15 6t6 14.5t-6 14.5t-15 6h-53zM256 440q103 0 175.5 -72.5t72.5 -175.5t-72.5 -175.5t-175.5 -72.5
t-175.5 72.5t-72.5 175.5t72.5 175.5t175.5 72.5zM472 192q0 59 -29 108.5t-79 78.5t-108 29q-59 0 -108.5 -29t-78.5 -79t-29 -108q0 -90 63.5 -153t152.5 -63q59 0 108.5 29t78.5 79t29 108z" />
    <glyph glyph-name="app-store-ios" unicode="app&#x2d;store&#x2d;ios" 
d="M400 416q20 0 34 -14t14 -34v-352q0 -20 -14 -34t-34 -14h-352q-20 0 -34 14t-14 34v352q0 20 14 34t34 14h352zM127 64l19 33q-15 19 -39 11l-15 -24q-4 -8 -1.5 -16t9.5 -12t15 -2t12 10zM266 117q7 13 -0.5 26.5t-22.5 13.5h-62l86 149q4 7 2 15t-9.5 12t-15.5 2
t-12 -9l-9 -15l-9 15q-4 7 -12 9t-15 -2t-9 -12t2 -15l20 -35l-65 -114h-51q-8 0 -14 -5.5t-6 -14t6 -14.5t14 -6h182zM364 117q8 0 14 6t6 14.5t-6 14t-14 5.5h-52q-17 30 -59 102q-11 -8 -14.5 -26t7.5 -41q9 -16 34.5 -60t39.5 -68q4 -8 12 -10t15 2t9.5 12t-1.5 16
l-20 33h29zM364 117z" />
    <glyph glyph-name="apper" unicode="apper" horiz-adv-x="640" 
d="M42 209q-22 0 -32 -8.5t-10 -27.5q0 -20 9 -28.5t32 -8.5q17 0 24.5 4t11.5 16h1l-2 -19h39v76q0 16 -4 24q-10 19 -54 19q-37 0 -46 -12q-6 -6 -6 -24h38q1 4 1.5 6.5t2.5 4t4.5 2t6.5 0.5q18 0 18 -16v-23q-4 9 -10.5 12t-23.5 3zM59 161q-12 0 -16 2.5t-4 10.5
q0 12 17 12q12 0 16 -2.5t4 -9.5q0 -5 -1.5 -8t-5 -4t-10.5 -1zM137 256v-169h39v70h1q4 -12 11.5 -16.5t22.5 -4.5q24 0 33 10q12 13 12 53q0 37 -12 48q-11 9 -32 9q-16 0 -23.5 -4t-13.5 -17h-1l1 21h-38zM218 195q0 -18 -4 -24t-16 -6q-14 0 -18 6.5t-4 27.5q0 12 2 18
t6 8.5t13 2.5t13.5 -3t6 -9.5t1.5 -20.5zM276 256v-169h39v70h1q3 -12 10.5 -16.5t23.5 -4.5q24 0 33 10q12 13 12 53q0 37 -13 48q-10 9 -31 9q-16 0 -23.5 -4t-14.5 -17l1 21h-38zM357 195q0 -18 -4 -24t-17 -6t-17 6.5t-4 27.5q0 12 2 18t6 8.5t13 2.5q13 0 17 -6t4 -27z
M410 199q0 -40 12 -51q12 -12 50 -12q35 0 45 13q7 9 7 25v2h-38q0 -4 -1 -6.5t-3 -4t-5.5 -2.5t-8.5 -1q-12 0 -16 5t-4 17v5h76v11q0 32 -12 44t-44 12q-33 0 -45 -11q-13 -11 -13 -46zM487 210h-38v4q1 9 4 12t14 3q8 0 12 -1t6 -4t2 -10v-4zM543 256h-1v-119h39v68
q0 10 1 13q3 9 13 9q6 0 8 -4t2 -16v-4h35v10q0 24 -7 33.5t-24 9.5q-20 0 -29 -20h-1l2 20h-38zM543 256z" />
    <glyph glyph-name="asymmetrik" unicode="asymmetrik" horiz-adv-x="576" 
d="M518 139q-21 -22 -49 -40l73 -110h-102l-46 71q-25 -10 -54 -18l33 -53h-136l23 37q-36 -4 -69 -3l-22 -34h-101l34 51q-69 28 -68 83q0 41 41 83q60 61 162 93q-29 -10 -62 -31q-49 -25 -79 -58q-43 -46 -37 -87.5t56 -63.5l190 286l151 -227q19 15 35 31q73 78 44 146
t-143 85q-107 17 -221 -14q-84 -14 -171 -59q90 51 200.5 74t206.5 9q81 -13 125.5 -49t43.5 -86q-1 -57 -58 -116zM330 58q27 8 54 20l-79 123l-102 -160q33 -1 69 5l33 53zM330 58z" />
    <glyph glyph-name="audible" unicode="audible" horiz-adv-x="640" 
d="M640 248l-320 -200l-320 200v-54l320 -200l320 200v54zM446 176q-54 71 -138.5 81.5t-152.5 -45.5q-5 -4 -7 -6h-1q29 42 74.5 67t98.5 25t98.5 -25t74.5 -67zM225 157q35 49 95 49t95 -49l-46 -29q-34 48 -86 48q-31 0 -58 -19zM104 287q-14 -11 -35 -33
q41 63 107.5 99.5t143.5 36.5t143.5 -36.5t107.5 -99.5l-49 -30l-1 1q-49 68 -122 100.5t-152 22.5t-143 -61zM571 254z" />
    <glyph glyph-name="avianex" unicode="avianex" horiz-adv-x="512" 
d="M453 416q29 0 46 -20.5t12 -49.5l-57 -308q-5 -29 -29.5 -49.5t-53.5 -20.5h-312q-29 0 -46 20.5t-12 49.5l57 308q5 29 29.5 49.5t53.5 20.5h312zM395 69l6 8l-95 119l-4 7q5 4 10.5 8t9.5 7t7.5 5.5t5.5 4l2 1.5q6 5 5 14t-8 17t-16 10.5t-14 -2.5q-15 -14 -34 -32
l-5 4l-103 113l-9 -5l-19 -29l69 -100l20 -29q-20 -22 -32 -35l-58 31l-16 -16l52 -48l41 -61l18 13l-22 64q17 11 42 27l115 -110zM395 69z" />
    <glyph glyph-name="aws" unicode="aws" horiz-adv-x="640" 
d="M180 245v69q3 30 -17 53q-25 20 -56 17q-21 0 -41 -6.5t-25 -11.5q-2 -4 -2 -13.5t5 -10.5q5 0 11 2q25 10 46 10q14 2 25 -3.5t16 -16t3 -23.5v-16q-26 6 -47 6q-18 1 -34.5 -6t-26.5 -21t-9 -33q-2 -31 18.5 -44t39.5 -12q38 -1 62 29q6 -12 11.5 -18.5t6.5 -6.5h3
q3 0 5 2l13 9q4 2 4 6q0 2 -1.5 5.5t-4 7.5t-4 11t-1.5 15zM94 213q-14 -1 -22.5 8t-7.5 22q-1 18 13 25.5t29 6.5q19 0 39 -5q0 -19 -2 -27q-3 -11 -15 -20.5t-34 -9.5zM265 190h18q11 -2 13 10l33 137l33 -137q2 -12 13 -11h18q11 -1 13 11q52 168 53 170q0 4 -1.5 6
t-2.5 2h-2h-19q-11 1 -13 -10l-37 -143l-33 143q-2 11 -13 10h-17q-11 1 -13 -10l-33 -141l-36 141q-2 11 -12 10h-23q-4 0 -3 -5q0 -4 1 -8l50 -165q3 -11 13 -10zM538 184q52 -1 70 34q15 31 -5 56q-2 3 -5 5.5t-5.5 4.5t-6 4t-6 3t-8 2.5t-8.5 2.5t-11 3.5t-13 3.5
q-30 8 -30 27q0 16 13.5 21t25.5 4q12 0 22.5 -2.5t17.5 -5t9 -3.5q5 0 5 7v10q0 4 -2 7q-6 8 -24 12t-32 4q-31 0 -50.5 -17t-18.5 -39q0 -13 6 -24t14.5 -16.5t14 -8t9.5 -3.5q6 -3 15.5 -5.5t12.5 -3.5t8 -3t7 -3t4.5 -2.5t5.5 -3.5q7 -7 5.5 -18.5t-10.5 -16.5
q-22 -12 -57 -5q-10 2 -29 10q-9 3 -9 -6v-11q0 -8 8 -12q24 -12 57 -12zM579 79q8 6 3.5 13t-14.5 3q-115 -48 -241 -49q-170 0 -317 84q-6 3 -9 -1t2 -8q65 -59 147 -90.5t170 -30.5q67 0 137.5 20.5t121.5 58.5zM608 112.5q9 -11.5 -19 -80.5q-2 -4 1.5 -5.5t7.5 1.5
q25 21 36 59.5t4 47.5q-5 5 -24 8t-45 -1.5t-45 -16.5q-4 -4 -3.5 -7.5t5.5 -2.5q73 9 82 -2.5z" />
    <glyph glyph-name="bimobject" unicode="bimobject" 
d="M416 416q13 0 22.5 -9.5t9.5 -22.5v-384q0 -13 -9.5 -22.5t-22.5 -9.5h-384q-13 0 -22.5 9.5t-9.5 22.5v384q0 13 9.5 22.5t22.5 9.5h384zM352 159v35q0 11 -1 19.5t-3.5 18t-7 15.5t-12.5 12t-19 9.5t-26 5.5t-35 2h-17q-64 0 -70 -39h-1v75h-64v-232h64v35h1
q13 -39 70 -39h17q64 0 84 20t20 63zM288 188q0 18 -7 25.5t-31 7.5h-46q-23 0 -33.5 -7.5t-10.5 -27.5v-20q0 -20 10.5 -27.5t33.5 -7.5h46q24 0 31 7.5t7 26.5v23zM288 188z" />
    <glyph glyph-name="bitcoin" unicode="bitcoin" horiz-adv-x="512" 
d="M504 192q0 103 -72.5 175.5t-175.5 72.5t-175.5 -72.5t-72.5 -175.5t72.5 -175.5t175.5 -72.5t175.5 72.5t72.5 175.5zM362 227q-5 -33 -34 -40q40 -21 25 -66q-11 -29 -36.5 -37t-59.5 1l-12 -45l-27 6l11 45q-11 3 -21 5l-12 -44l-27 7l11 45q-2 0 -8.5 2t-10.5 3
l-35 9l13 31q1 -1 3.5 -1.5t6.5 -1.5t7 -1.5l3 -0.5q9 -2 12 6l18 72q1 -1 2 -1h1q-1 0 -3 1l13 51q1 12 -13 16l-4.5 1t-9.5 2l-5 1l7 29l37 -9q6 -2 18 -4l11 45l27 -7l-11 -44q15 -3 22 -5l11 43l27 -6l-11 -45q61 -21 54 -63zM300 140q2 7 0.5 13.5t-7 11t-10.5 8
t-14 6.5t-14 4.5t-14 3.5t-10 2l-15 -60q1 0 7.5 -1.5t10 -2.5t10.5 -2.5t12 -2t11.5 -0.5t11.5 1.5t9.5 3.5t7.5 6t4 9zM309 228q3 5 0.5 10.5t-4 9t-7.5 7t-9.5 5.5t-10 4t-10 3t-9.5 2.5t-7 1.5l-14 -54q1 -1 6 -2t8.5 -2t9 -2t10 -1.5t10 -0.5t9 1.5t7.5 3.5t6.5 5.5
t4.5 8.5z" />
    <glyph glyph-name="bity" unicode="bity" horiz-adv-x="496" 
d="M78 381q-4 -4 -4.5 -9t1.5 -9t6 -7t9.5 -2.5t9.5 5.5q62 58 149 58t150 -61q8 -8 16.5 -5t10 11t-3.5 15q-73 71 -173 71t-171 -67zM177 -38q-96 29 -145 115.5t-24 182.5q2 10 10.5 12t15 -4t4.5 -15q-14 -55 0 -109t53 -94.5t94 -57.5q10 -3 12 -11.5t-4.5 -15
t-15.5 -3.5zM325 -36q-9 -3 -15 3t-4.5 15t11.5 12q79 26 120 99t23 154q-2 10 4.5 16t15 4t10.5 -12q21 -93 -26 -177t-139 -114zM263 43q0 -6 -4.5 -10.5t-10.5 -4.5t-10.5 4.5t-4.5 10.5v72q0 6 4.5 10.5t10.5 4.5t10.5 -4.5t4.5 -10.5v-72zM334 312q0 10 8 14t16 0
t8 -14v-71q0 -48 -34.5 -69.5t-83.5 -20.5q-49 -1 -83.5 20.5t-34.5 69.5v71q0 10 8 14t16.5 0t8.5 -14q-2 -33 -1 -57.5t8 -41t25.5 -25t52.5 -8.5q33 0 51.5 8t26 24t8.5 41t0 59z" />
    <glyph glyph-name="blackberry" unicode="blackberry" horiz-adv-x="512" 
d="M166 331q0 15 -12.5 27.5t-41.5 12.5h-68l-21 -89h71q38 0 55 14.5t17 34.5zM292 371q29 0 41.5 -12.5t12.5 -27.5q0 -20 -16.5 -34.5t-53.5 -14.5h-70l18 89h68zM89 240q28 0 41 -12.5t13 -27.5q0 -49 -73 -49h-70l21 89h68zM269 240q15 0 26 -4t16.5 -10t8.5 -12.5
t3 -13.5q0 -49 -71 -49h-70l19 89h68zM458 294q29 0 41.5 -12.5t12.5 -27.5q0 -49 -70 -49h-70l18 89h68zM430 156q29 0 41.5 -12.5t12.5 -27.5q0 -49 -70 -49h-70l18 89h68zM241 102q28 0 41 -12t12 -28q0 -49 -70 -49h-70l19 89h68zM241 102z" />
    <glyph glyph-name="blogger" unicode="blogger" 
d="M162 252q-5 -6 -3 -14.5t10 -10.5q3 -1 31.5 -1t31.5 2q7 5 7 13q0 10 -8 14q-4 2 -32 2q-23 0 -28 -0.5t-9 -4.5zM224 158q41 0 48.5 -1t11.5 -4q6 -5 5 -13t-8 -12l-9 -1l-48 -1q-52 0 -56 2q-8 3 -9.5 11.5t5.5 13.5q3 3 11.5 4t48.5 1zM447 27q1 9 1 171
q0 137 -1 153t-6 27q-15 30 -48 37q-4 1 -87 1t-166.5 -0.5t-86.5 -0.5q-19 -5 -32.5 -18t-18.5 -32q-2 -7 -2 -173q0 -167 2 -174q3 -12 10 -22q6 -9 17 -16q10 -7 22 -10q7 -2 172 -2t173 2q14 3 25 11.5t17.5 20t8.5 25.5zM362 213q1 -4 0.5 -45.5t-2.5 -48.5
q-6 -23 -22 -39q-21 -22 -50 -26q-9 -1 -68 -0.5t-66 1.5q-21 4 -39.5 20t-25.5 38q-4 14 -4 85q1 58 2 64q11 46 54 62q17 7 67 7q34 -1 39 -2q22 -7 41 -25q25 -26 25 -57q0 -14 8 -18q4 -3 17.5 -3.5t15.5 -1.5q6 -3 8 -11zM362 213z" />
    <glyph glyph-name="blogger-b" unicode="blogger&#x2d;b" 
d="M447 225q1 -5 0.5 -72t-3.5 -79q-10 -37 -35 -62q-35 -36 -82 -42q-14 -2 -109.5 -2t-106.5 2q-34 7 -63.5 32.5t-40.5 62.5q-5 15 -6 37.5t-1 98.5q1 94 3 104q6 23 18 43t29.5 34.5t38.5 23.5q18 7 37.5 8.5t71.5 1.5q56 -1 63 -3q37 -11 66 -41q40 -41 41 -91
q0 -22 12 -29q7 -5 29 -5.5t25 -2.5q10 -5 13 -19zM124 289q-9 -9 -5 -23t16 -18q6 -1 51 -1t50 3q12 8 12 22q0 15 -13 22q-6 3 -52 3q-26 0 -35.5 -0.5t-14 -2t-9.5 -5.5zM316 89q11 6 12.5 18.5t-7.5 20.5v1q-6 5 -18.5 6t-78.5 1t-79 -1t-19 -5q-10 -10 -8 -23
q2 -14 15 -19q7 -3 91 -2l77 1zM316 89z" />
    <glyph glyph-name="buromobelexperte" unicode="buromobelexperte" 
d="M0 416h128v-128h-128v128zM120 296v112h-112v-112h112zM160 416h128v-128h-128v128zM280 296v112h-112v-112h112zM320 416h128v-128h-128v128zM440 296v112h-112v-112h112zM0 256h128v-128h-128v128zM120 136v112h-112v-112h112zM160 256h128v-128h-128v128zM280 136v112
h-112v-112h112zM320 256h128v-128h-128v128zM440 136v112h-112v-112h112zM0 96h128v-128h-128v128zM120 -24v112h-112v-112h112zM160 96h128v-128h-128v128zM280 -24v112h-112v-112h112zM320 96h128v-128h-128v128z" />
    <glyph glyph-name="centercode" unicode="centercode" horiz-adv-x="512" 
d="M329 179.5q3 26.5 -13.5 47t-43 23.5t-47 -13.5t-23.5 -43t13.5 -47.5t43 -23.5t47 14t23.5 43zM243 -56q108 -5 186 70.5t75 184.5q-2 52 -23.5 98.5t-57.5 77.5t-80.5 49t-95.5 16t-98 -24q-56 -27 -93.5 -77.5t-45.5 -114.5q-9 -70 19 -133t85.5 -103t128.5 -44z
M423 124q-77 -63 -148.5 -92.5t-122.5 -17.5q-26 117 -17.5 210t51.5 134q28 -10 57.5 -23.5t67 -36.5t64 -48t41.5 -58.5t7 -67.5z" />
    <glyph glyph-name="cloudscale" unicode="cloudscale" 
d="M318 294q3 3 6.5 2t4.5 -4.5t-1 -7.5l-76 -88q2 -14 -8 -23q-8 -9 -19.5 -9t-20 8.5t-8.5 20t8 20.5q10 9 23 8l26 20q-27 25 -63 25q-39 0 -66.5 -28t-26.5 -70q-1 9 -1 20q0 54 38 93t91 39q45 0 84 -34zM234 183q10 10 0 20t-20 0t0 -20t20 0zM224 416
q93 0 158.5 -65.5t65.5 -158.5t-65.5 -158.5t-158.5 -65.5t-158.5 65.5t-65.5 158.5t65.5 158.5t158.5 65.5zM224 32q66 0 113 47t47 113t-47 113t-113 47t-113 -47t-47 -113t47 -113t113 -47z" />
    <glyph glyph-name="cloudsmith" unicode="cloudsmith" horiz-adv-x="512" 
d="M512 220l-227 228h-57l-228 -228v-56l228 -228h56l228 228v56zM256 58q-36 -1 -68 17t-50.5 49t-18.5 67.5t18.5 68t50.5 49t68 16.5q36 1 68 -16.5t50.5 -49t18.5 -68t-18.5 -67.5t-50.5 -49t-68 -17z" />
    <glyph glyph-name="cloudversify" unicode="cloudversify" horiz-adv-x="616" 
d="M149 144h-49q-5 0 -8.5 3.5t-3.5 8.5v40q0 5 3.5 8.5t7.5 3.5h47v-7q0 -16 19 -16h20q6 0 10.5 2.5t7 7t2.5 9.5v21q0 19 -15 19q18 15 45 24q11 44 34 70.5t65 39.5q20 8 47.5 6t54 -9.5t50 -29t34.5 -52.5q54 -17 79 -61.5t13 -93.5q-10 -43 -45.5 -71.5t-85.5 -28.5
q-36 -37 -92.5 -38t-93.5 33q-59 -3 -99.5 28t-46.5 83zM376 136q6 -37 34.5 -51t57.5 -8t51 26.5t28 49.5q9 38 -9 72l-10 20q0 -12 -4.5 -26t-15.5 -28.5t-28 -22.5q31 35 27 67t-31.5 55.5t-63.5 28.5q-62 8 -114 -44q82 -8 102 -75q-14 23 -41 36t-51 12.5t-42 -7.5
q-27 -14 -43 -39.5t-14 -54.5q1 -9 3.5 -17t5 -14t7.5 -12.5t7.5 -9.5t9.5 -8.5t9 -7t9 -6.5l7 -5q-5 22 1 50.5t28 42.5q-13 -22 -9 -47.5t23 -43.5t50 -25.5t71 5.5q-68 30 -55 87zM128 240q7 0 11.5 5t4.5 11v40q0 6 -4.5 11t-11.5 5h-40q-6 0 -11 -5t-5 -11v-40
q0 -6 5 -11t11 -5h40zM10 280h28q10 0 10 10v28q0 4 -3 7t-7 3h-28q-10 0 -10 -10v-28q0 -10 10 -10zM168 305q0 -9 9 -9h22q9 0 9 9v22q0 9 -9 9h-22q-9 0 -9 -9v-22zM56 213q0 4 -3.5 7.5t-8.5 3.5h-25q-3 0 -5.5 -1.5t-4 -4t-1.5 -5.5v-25q0 -5 3.5 -8.5t7.5 -3.5h26
q4 0 7.5 3.5t3.5 8.5v25z" />
    <glyph glyph-name="cpanel" unicode="cpanel" horiz-adv-x="640" 
d="M210 228q6 -23 -9.5 -44.5t-41.5 -21.5h-32l6 24q3 11 14 11h11q9 0 14.5 7t3.5 16q-3 14 -18 14h-20l-26 -95q-3 -11 -14 -11h-25l35 130q3 11 14 11h37q12 0 23 -5t18.5 -14.5t9.5 -21.5zM54 200q-12 0 -17 -9.5t0 -19t17 -9.5h11q2 0 4 -1t2.5 -3t0.5 -4l-8 -26h-12
q-25 0 -41 20t-9 45q5 20 19 30.5t32 10.5h40l-6 -23q-3 -11 -15 -11h-18zM301 235q15 0 23.5 -11.5t5.5 -25.5l-14 -52q-5 -18 -24 -18h-57q-20 0 -27.5 16t1 32t27.5 16h48l-4 -13q-3 -11 -14 -11h-21q-4 0 -4 -4t4 -4h35q4 0 5 6l9 31q1 6 -2 6h-58q-7 0 -11.5 5.5
t-2.5 12.5l3 14h78zM633 269q3 0 5 -2.5t2 -5.5l-27 -99q-4 -15 -16.5 -24.5t-28.5 -9.5l36 133q2 8 10 8h19zM397 234q26 0 41.5 -20t8.5 -45l-9 -33q-2 -8 -10 -8h-19q-3 0 -5 2.5t-1 5.5l10 40q3 9 -3 16.5t-15 7.5h-20l-17 -64q-2 -8 -10 -8h-19q-2 0 -4 1t-2.5 3
t-0.5 4l26 98h49zM495 160h73l-5 -21q-4 -11 -14 -11h-67q-15 0 -23.5 11.5t-4.5 25.5l10 40q3 8 8.5 15t13.5 10.5t17 3.5h47q15 0 23.5 -11t5.5 -25l-4 -12q-4 -18 -23 -18h-53l3 13q3 11 14 11h22q3 0 4 3l1 2q1 5 -4 5h-33q-7 0 -8 -6l-8 -30q-2 -6 5 -6zM495 160z" />
    <glyph glyph-name="css3-alt" unicode="css&#x33;&#x2d;alt" horiz-adv-x="384" 
d="M0 416h384l-35 -396l-157 -52l-157 52zM313 336h-242l6 -47h123l-7 -3l-112 -47l4 -46v0h166l-4 -62l-54 -15l-53 13l-3 38h-49l6 -74l99 -29l98 29l13 146h-111l115 50z" />
    <glyph glyph-name="cuttlefish" unicode="cuttlefish" horiz-adv-x="440" 
d="M344 142q22 -82 87 -117q-35 -38 -82.5 -59.5t-100.5 -21.5q-103 0 -175.5 72.5t-72.5 175.5t72.5 175.5t175.5 72.5q53 0 100.5 -21.5t82.5 -59.5q-65 -35 -87 -117q-13 23 -40 38.5t-56 15.5q-42 0 -73 -31t-31 -73t31 -73t73 -31q19 0 38 7t34 19.5t24 27.5z" />
    <glyph glyph-name="d-and-d" unicode="d&#x2d;and&#x2d;d" horiz-adv-x="576" 
d="M82 349q2 -35 22 -55q-6 26 7 54q11 -36 43 -52v1v1q-3 20 3 42v4q-5 26 11 44q11 11 26.5 11.5t26.5 -11.5q10 -10 12 -26q2 -23 -10 -44q-2 -2 0 -4q9 -10 37 -37l3 -3l3 -3q12 16 21 35q15 37 8 67q-14 59 -70 72q-21 5 -42 1q-23 -4 -44 -23q-1 7 3 18
q-34 -24 -43 -65q-3 8 -4 21q-14 -18 -13 -48zM552 226l2 -1v-1q-18 4 -45 -1q-15 -4 -26 -9q-2 -1 -8 -5q-16 6 -18 7q-37 8 -62 -20q-27 -30 -47 -75l-1 -2v-1q-2 1 -15 12t-21 14v1q34 46 75 71q26 15 52 18q3 0 5 1h-13q-28 -3 -59 -20q-22 -13 -36 -30l-1 -2l-1 1
q16 45 57 74l1 -1q-3 -4 -3 -5l-5 -10q-2 -5 2 -5l10 4q3 3 8 7t8 6.5t7.5 5.5t8 5t8 3.5t8.5 2.5h1h1h3q-1 0 -2 -1q-13 -9 -15 -12t-0.5 -5.5t4.5 -1.5q5 1 8 2q16 6 29 7q20 1 40 -8q23 -9 40 -26zM317 50q2 -1 1 -4q-44 -86 -116 -99q-43 -7 -78 9q-30 13 -47 36l-2 2
t-2.5 3t-1.5 3q-1 -10 1 -22v0l-10 10q-17 21 -24 52q-12 49 8 102q-11 -6 -24 -17q15 43 56 85q4 -3 3 -8q-6 -31 -5 -44q27 28 64 44q-10 -16 -11 -38q23 22 46 14q-32 -33 -39 -64q-8 -36 9 -63t49 -27q16 0 34 11q26 18 44 48l2 3q6 -5 43 -36zM489 97q32 -11 43 -39
q7 -17 2.5 -35.5t-19.5 -30.5q-24 -20 -57 -17q-1 0 -2 -1q24 -17 51 -10q0 -1 -2.5 -3.5l-3.5 -3.5q-17 -15 -43 -20q-30 -5 -54 10t-31 47l-1 7q-9 -7 -10 -22.5t10 -30.5q-1 0 -2 0.5t-2 0.5q-16 7 -25 20.5t-8 31.5q2 16 0 31t-13 25q-8 6 -16 12.5t-18 15t-16 13.5
q-14 11 -17 25q-1 4 -2 14q0 9 -8 15q-2 2 -6.5 5.5t-6.5 5.5q-16 13 -8 30q4 -18 23 -21h4t5 -0.5t4 -0.5q12 -2 15 -14q1 -9 2 -10q2 -8 10 -9h5.5t8.5 -1q11 -1 20 -8l59 -49q9 -8 19 -8q13 -1 20.5 9t4.5 23v2q6 -5 7 -6q10 -10 13 -26.5t-4 -29.5q-1 0 -9 -10
q2 -1 3 -1q23 -2 39 9q12 8 13.5 21.5t-7.5 24.5q-6 6 -19 12q12 2 29 -3zM99 269q5 -9 -3 -15q-5 -4 -24.5 -14.5t-28.5 -19.5h3q15 3 23 2q18 -2 20 -17q1 -6 0 -13q0 -2 -0.5 -4.5t-1.5 -5.5t-1 -5q30 27 62 36q-19 4 -23 4q10 11 27 17t27.5 5.5t15.5 -1.5
q-27 -2 -46 -14q12 -3 24 -7q-23 -12 -32 -34q11 6 26 5q16 -1 23.5 -12.5t1.5 -27.5q-4 -8 -11 -13l1 -1q9 2 19 3q-4 -10 -16 -18q12 -1 28 8t17 18q-4 -2 -9.5 -1t-5.5 8q0 2 2 18l-1 -1t-2 -1q-5 -4 -8 0t-1 9q0 1 6 19q-8 3 -24 3q6 3 22 5t36 0q10 -2 -1 -22
q21 -2 23 -3q19 -3 17 -27q13 6 21.5 24.5t5.5 33.5q-7 -11 -16 -14q0 10 -10 14q-1 1 -1 2q2 15 -6 30q-7 14 -25 31l-6 6q-12 11 -17.5 16.5t-12 13t-9.5 14t-5 14.5l-1 12q-1 -3 -2 -4q-6 -14 -4 -30q1 -7 5 -11q17 -16 29 -27q18 -18 24 -34q-1 1 -4 5q-6 8 -25 26
q-26 25 -34 33q-17 18 -20 46q-3 -3 -4 -6q-3 -12 -4 -17q-4 -20 1 -37q0 -3 3 -5q16 -10 23 -25q0 -1 1 -3t1 -3q-9 10 -10 11q-6 6 -23 16t-24 14q-16 12 -23 27q-5 -21 5 -39q-17 5 -40 4q16 -10 22 -21zM228 242q16 -7 24 -24q-6 -1 -11 2t-8.5 8.5t-4.5 13.5z" />
    <glyph glyph-name="deploydog" unicode="deploydog" horiz-adv-x="512" 
d="M382 312v-104q-15 16 -38 18.5t-37 -5.5q-20 -9 -31.5 -28.5t-11.5 -42.5q0 -25 12 -44t32 -28q15 -8 37.5 -5t36.5 20v-21h52v240h-52zM318 150q0 13 9.5 23t23.5 10t23.5 -10t9.5 -23q0 -9 -4 -16.5t-12 -12t-17.5 -4.5t-17 4.5t-11.5 12t-4 16.5zM188 312v-104
q-15 16 -37.5 18.5t-36.5 -5.5q-21 -9 -32.5 -28.5t-11.5 -42.5q0 -25 12.5 -44t32.5 -28q14 -8 37 -5t36 20v-21h52v240h-52zM124 150q0 13 9.5 23t23.5 10q9 0 17 -5t12 -12.5t4 -15.5q0 -9 -4 -16.5t-11.5 -12t-17.5 -4.5q-14 0 -23.5 9.5t-9.5 23.5zM448 352h-384
q-9 0 -16 -4.5t-11.5 -11.5t-4.5 -16v-256q0 -13 9.5 -22.5t22.5 -9.5h384q13 0 22.5 9.5t9.5 22.5v256q0 13 -9.5 22.5t-22.5 9.5zM448 384q26 0 45 -19t19 -45v-256q0 -26 -19 -45t-45 -19h-384q-26 0 -45 19t-19 45v256q0 26 19 45t45 19h384z" />
    <glyph glyph-name="deskpro" unicode="deskpro" horiz-adv-x="480" 
d="M206 -64q40 0 51 1q34 5 60 26.5t35 43.5q10 24 10 75h-79q6 -7 15 -17q14 -16 14 -20v-3.5t-1 -7t-2 -9.5t-4 -11.5t-7 -12t-10.5 -11t-13.5 -9.5q-14 -6 -37 -7zM406 104h-119l18 31h175q-27 -31 -74 -31zM363 328q0 18 -5 36t-17.5 38.5t-39.5 33t-65 12.5h-84
q16 -17 16 -44q0 -6 -5 -8.5t-10 0t-5 8.5q0 16 -7 26t-17 13.5t-16.5 4t-9.5 0.5h-1h-82q-15 -1 -15 -17v-213q-1 -31 11.5 -54.5t31.5 -35.5t35.5 -18t28.5 -6h91q-23 22 -26 57q-1 6 4 9t10 1t6 -8q0 -3 1 -7.5t4.5 -14.5t9.5 -17.5t17 -13.5t26 -6h7l32 55h74v169z
M230 272q11 20 29 21.5t30 -14t5 -37.5z" />
    <glyph glyph-name="digital-ocean" unicode="digital&#x2d;ocean" horiz-adv-x="512" 
d="M87 -34v74h74v-74h-74zM25 101h62v-61h-62v61zM492 271q21 -64 8.5 -123t-45.5 -104.5t-86 -72.5t-113 -27v96v0q51 0 91 30t54 76.5t-3 101.5q-11 30 -33.5 52.5t-52.5 33.5q-55 17 -101.5 3t-76.5 -54.5t-30 -90.5h-96q0 60 27 113t72.5 86t104.5 45.5t123 -8.5
q37 -12 68.5 -34.5t54 -54t34.5 -68.5zM256 40v0h-95v95h95v-95zM256 40z" />
    <glyph glyph-name="discord" unicode="discord" horiz-adv-x="640" 
d="M525 378q104 -153 86 -334v-2q-67 -49 -147 -74q-2 0 -2 1q-17 23 -30 49q-1 0 -0.5 1t1.5 1q23 9 45 22q1 1 1 2v1q-5 4 -10 7q0 1 -1 1q-147 -68 -296 0q-1 0 -2 -1q-4 -3 -9 -7q-1 0 -1 -1t1 -2q22 -13 46 -22q1 0 1 -1v-1q-13 -26 -30 -49q-1 -1 -2 -1
q-80 25 -147 74q0 1 -1 2q-16 179 87 334l1 1q58 26 120 37q1 0 2 -1q8 -15 15 -31q67 11 134 0q7 16 15 31q1 1 2 1q62 -11 120 -37zM222 110q23 0 38 17.5t15 42.5q1 24 -14.5 41.5t-38 17.5t-37.5 -17.5t-15 -41.5q0 -10 2.5 -19t7.5 -16.5t11.5 -13t14.5 -8.5t16 -3z
M418 110q22 0 37.5 17.5t15.5 42.5q0 24 -15.5 41.5t-37.5 17.5t-37.5 -17.5t-15.5 -42t15.5 -42t37.5 -17.5z" />
    <glyph glyph-name="discourse" unicode="discourse" 
d="M226 416q92 0 157 -66t65 -158q0 -60 -29.5 -111.5t-81 -82t-111.5 -30.5h-226v228q0 91 67 155.5t159 64.5zM224 64q53 0 90.5 37.5t37.5 90.5t-37.5 90.5t-90.5 37.5t-90.5 -37.5t-37.5 -90.5q0 -33 15 -61l-23 -75l82 20q25 -12 54 -12z" />
    <glyph glyph-name="dochub" unicode="dochub" horiz-adv-x="416" 
d="M398 288l-142 140v-140h142zM304 256h96v-126q0 -194 -211 -194h-189v512h189q18 0 35 -3v-84q-15 2 -33 2h-95v-337h95q113 0 113 100v130z" />
    <glyph glyph-name="docker" unicode="docker" horiz-adv-x="640" 
d="M350 212v59h-66v-59h66zM350 416v-61h-66v61h66zM428 271v-59h-66v59h66zM272 343v-60h-66v60h66zM350 343v-60h-66v60h66zM627 243l13 -9q-8 -15 -8 -17q-25 -46 -92 -45q-41 -99 -125.5 -151.5t-202.5 -52.5q-110 0 -166 66q-27 33 -38.5 78t-5.5 84h435q28 0 48 11
q-14 24 -12 53t16 51l9 14l14 -10q37 -27 42 -63q19 3 40.5 1t32.5 -10zM116 271v-59h-66v59h66zM194 271v-59h-66v59h66zM272 271v-59h-66v59h66zM194 343v-60h-66v60h66z" />
    <glyph glyph-name="draft2digital" unicode="draft&#x32;digital" horiz-adv-x="480" 
d="M480 50l-144 -82v64h-336q89 93 161 175q3 3 9 10q21 24 32.5 38t21.5 37.5t7 41.5q-4 23 -28 34.5t-55 -0.5q-7 -3 -16.5 -11t-10.5 -14q11 -1 20 -6.5t15 -13t9.5 -17t3.5 -20.5q0 -23 -16.5 -40t-40.5 -17q-27 0 -44 21t-13 46t18 48q33 52 105 67q27 4 47.5 5
t40.5 -5t32 -10.5t23.5 -12.5t15.5 -11.5t7 -6.5q15 -16 24 -39t7 -54t-19 -60q-34 -62 -111 -150h91v65zM370 77v-54l47 27zM134 286.5q0 9.5 -6.5 16t-16 6.5t-16 -6.5t-6.5 -16t6.5 -16t16 -6.5t16 6.5t6.5 16zM82 67h115q90 99 128 167q16 33 15 58.5t-11 40.5l-9 14
q-35 37 -83 39q15 -12 25 -36q20 -52 -29 -113q-54 -66 -151 -170zM82 67z" />
    <glyph glyph-name="square-dribbble" unicode="dribbble&#x2d;square" 
d="M90 220q60 -1 127 16q-25 44 -51 80q-29 -14 -49 -39.5t-27 -56.5zM315 294q-22 -31 -72 -49q-23 43 -51 80q33 7 65 -1t58 -30zM140 84q8 15 22 31t37 31t49 24q21 -55 29 -104q-32 -14 -69.5 -9.5t-67.5 27.5zM239 192q-24 -7 -47 -21.5t-40.5 -32.5t-29.5 -38
q-35 40 -35 92v1.5v2.5q68 -2 141 19q7 -14 11 -23zM274 176q45 7 85 -6q-9 -58 -59 -91q-7 45 -26 97zM254 224q52 22 76 54q30 -37 31 -85q-47 11 -95 5q-6 14 -12 26zM448 368q0 20 -14 34t-34 14h-352q-20 0 -34 -14t-14 -34v-352q0 -20 14 -34t34 -14h352q20 0 34 14
t14 34v352zM384 192q0 -66 -47 -113t-113 -47t-113 47t-47 113t47 113t113 47t113 -47t47 -113z" />
    <glyph glyph-name="dyalog" unicode="dyalog" horiz-adv-x="416" 
d="M0 416h171q114 0 183 -70q62 -63 62 -154q0 -42 -16 -82t-46 -72t-77.5 -51t-105.5 -19h-171v64h171q86 0 133.5 48.5t47.5 111.5q0 64 -50 112t-131 48h-107v-55h-64v119z" />
    <glyph glyph-name="earlybirds" unicode="earlybirds" horiz-adv-x="480" 
d="M313 400q0 -6 3 -8.5t8.5 -1.5t12.5 2.5t15 2.5t17 -1q4 3 -4.5 8t-14.5 7q-12 5 -24 3t-13 -12zM112 394q-6 4 13 13q6 3 8 3q13 5 26 3t14 -12q1 -8 -2.5 -10.5t-9.5 -1.5t-14 3t-16.5 3t-18.5 -1zM319.5 288q6.5 0 11 -4.5t4.5 -11.5t-4.5 -11.5t-11 -4.5t-11.5 4.5
t-5 11.5t5 11.5t11.5 4.5zM159.5 288q6.5 0 11.5 -4.5t5 -11.5t-5 -11.5t-11.5 -4.5t-11 4.5t-4.5 11.5t4.5 11.5t11 4.5zM478 125q2 4 2 7.5t-1.5 7.5t-3.5 7.5t-6 7t-7.5 6.5t-9.5 7.5t-10.5 7.5t-11.5 7.5t-12 8.5q-1 19 -5 36q3 7 4.5 14.5t2.5 17.5t2 16q22 -3 23 23
q0 12 -2 15q-1 2 -9 2l-4 1q-2 13 -14.5 20.5t-26.5 10t-36 3.5q-42 46 -96 51q5 4 6.5 10.5t0.5 10.5t-2 4.5t-4.5 -0.5t-8 -3.5t-7.5 -6.5q-1 5 -4 9.5t-6.5 7t-7 4t-5.5 2t-3 0.5q-1 -1 -3 -6.5t-1.5 -15.5t7.5 -18q-45 -9 -81 -49q-21 0 -31.5 -1t-26 -4.5t-23.5 -10.5
t-10 -18q-1 0 -4 -0.5t-5.5 -1t-3.5 -1.5q-2 -3 -2 -15q0 -27 23 -23q2 -7 3 -17t1.5 -15.5t3.5 -13.5t8 -15q-1 -9 -2 -19q-5 -4 -15 -11q-24 -15 -33.5 -22.5t-16.5 -18.5t-2 -22q11 -28 68 1q17 -93 115 -118q-15 0 -31 1t-23.5 1.5t-8.5 0.5q-8 0 -12 -5t-4 -11t4 -11
t12 -5l8 0.5t22.5 1.5t31.5 1l-2 -12q-1 -12 10 -15.5t17 6.5q0 -14 14 -14t14 14l1 5q0 -11 7.5 -14.5t14 0.5t6.5 13q3 -14 16.5 -11t11.5 17l-1 12q72 2 117 12q45 11 47 11q14 2 2 11l-5 3q-2 -1 -10 -3q7 7 8.5 15t1 13.5t-2 6.5t-7 0t-12.5 -4.5t-11 -9.5q-3 5 -8 8
t-9 3.5l-4 0.5q-2 -1 -3.5 -7t1.5 -15.5t11 -15.5q-64 -10 -97 -8h-22q-2 0 -2 1q106 20 126 124q53 -28 64 -1zM207 288q1 -15 -3.5 -38t-10.5 -30q-9 -10 -44.5 -10.5t-42.5 3.5q-8 4 -16 25.5t-10 42.5t3 33q7 13 46 14q21 1 38.5 0.5t29 -10t10.5 -30.5zM259 230
q-7 -2 -12.5 -8t-6.5 -6t-8 4.5t-16 4.5q2 5 4 12t3 11.5t4 9t6 4.5q2 1 6 1t5 -1q4 -1 6.5 -5.5t5.5 -14.5t3 -12zM395 314q9 -16 -1.5 -55.5t-22.5 -45.5q-6 -5 -42 -4t-45 11q-2 4 -5 12.5t-4.5 18.5t-2.5 20t-1 17q0 21 11 30.5t28.5 10t38.5 -0.5q40 -1 46 -14z" />
    <glyph glyph-name="erlang" unicode="erlang" horiz-adv-x="640" 
d="M87 394q-65 -79 -65 -192q0 -129 78 -212h-100v404h87zM325 385q35 0 57.5 -23t23.5 -60h-170q3 36 28.5 59.5t60.5 23.5zM556 394zM556 394h84v-405h-81q32 34 58 81l-96 48q-65 -105 -152 -106q-71 1 -105 54t-34 142h373v24q3 95 -47 162zM556 394z" />
    <glyph glyph-name="facebook-f" unicode="facebook&#x2d;f" horiz-adv-x="320" 
d="M279 160h-75v-224h-100v224h-81v93h81v70q0 60 33 92.5t88 32.5q8 0 15.5 -0.5t14.5 -1t13.5 -1t11.5 -1t9 -1.5t6 -1h2v-79h-40q-28 0 -40.5 -14.5t-12.5 -35.5v-60h89zM279 160z" />
    <glyph glyph-name="facebook-messenger" unicode="facebook&#x2d;messenger" horiz-adv-x="512" 
d="M257 440q105 0 176 -68.5t71 -172.5q0 -84 -48 -145.5t-121.5 -84t-149.5 -1.5q-2 1 -3 1h-2h-3t-3.5 -0.5t-4 -1.5t-5 -2.5t-7.5 -3.5t-9 -4t-11.5 -5t-14.5 -6q-10 -5 -19 1t-9 16v14t-0.5 11.5t-0.5 9v7t-0.5 5t-1 4t-1.5 3t-1.5 2.5t-2.5 2q-78 70 -78 178
q0 51 19.5 96t52.5 76.5t79 50t98 18.5zM406 255q3 5 0.5 10.5t-7.5 7t-10 -2.5l-79 -59q-9 -7 -18 0l-58 44q-13 9 -29 6t-25 -16l-73 -116q-5 -8 2.5 -15t14.5 -1l79 60q9 7 18 0l58 -44q13 -9 29 -6t25 16zM406 255z" />
    <glyph glyph-name="firstdraft" unicode="firstdraft" horiz-adv-x="384" 
d="M384 256v26h-90v-128h-128v-128h-166v-26h192v128h128v128h64zM358 218h26v-154h-128v-128h-192v26h166v128h128v128zM384 26v-26h-64v-64h-26v90h90zM0 448h384v-128h-128v-128h-128v-128h-128v384z" />
    <glyph glyph-name="fonticons-fi" unicode="fonticons&#x2d;fi" horiz-adv-x="384" 
d="M114 224q-2 0 0 3q1 2 1 3v32q0 11 0.5 16.5t3 11t8 8t14.5 2.5q13 0 18 -6.5t5 -25.5l69 8q0 42 -23.5 57.5t-65.5 15.5q-53 0 -79.5 -23t-26.5 -73v-29h-38v-51h30q8 0 8 -3v-156q0 -10 -9 -11l-29 -3v-35h179v34l-59 6q-6 1 -5 5v5v158h77l15 51h-93zM384 -35v34
l-22 4q-3 1 -4 1.5t0 2.5v6v208h-110l-9 -40l33 -9q10 -3 10 -11v-148q0 -5 -2.5 -7t-8.5 -3l-28 -4v-34h141zM354 312l30 33l-5 14h-38l-21 38h-13l-21 -38h-38l-5 -10l30 -37l-12 -45l10 -10l43 22l42 -22l10 10zM354 312z" />
    <glyph glyph-name="fort-awesome-alt" unicode="fort&#x2d;awesome&#x2d;alt" horiz-adv-x="512" 
d="M208 211q4 0 4 -4v-52q0 -3 -4 -3h-22q-4 0 -4 3v52q0 4 4 4h22zM326 211q4 0 4 -4v-52q0 -3 -4 -3h-22q-4 0 -4 3v52q0 4 4 4h22zM458 336q46 -65 46 -144v-6v-2v-4l-0.5 -1l-0.5 -1v-1v-1v-1v-4v-2t-0.5 -2t-0.5 -2v-1v-1q-1 -3 -1 -4v-1v-1l-1 -6v-1q0 -2 -1 -4v-1.5
v-1.5q-1 0 -1 -2v-1l-0.5 -1t-0.5 -1.5v-1.5t-0.5 -1.5t-0.5 -1.5v-1.5t-0.5 -1.5l-0.5 -1q0 -1 -1 -3q0 -2 -1 -3v-1v-1q-1 -2 -1 -3q-1 -2 -2 -5q-1 -2 -1 -3l-0.5 -1t-0.5 -1.5t-0.5 -1.5l-0.5 -1l-1 -3q0 -1 -0.5 -1.5l-0.5 -0.5q-1 -2 -1 -3l-1 -3q-1 -1 -2 -3v-0.5
t-0.5 -1t-1 -1.5t-0.5 -2l-1 -1q0 -1 -0.5 -2t-1 -1.5l-0.5 -0.5q-4 -8 -7 -12v-1q-1 -1 -1.5 -2t-0.5 -2l-0.5 -0.5l-0.5 -0.5q-2 -3 -2 -3.5t-0.5 -1l-0.5 -0.5l-1 -1t-1 -2q-1 -1 -1 -1.5t-1 -1.5l-1 -1q0 -1 -1 -1q-59 -86 -160 -103h-1h-1.5h-1.5t-1.5 -0.5t-1.5 -0.5
h-1.5h-1.5h-1q-2 0 -3 -1h-2h-1.5h-1.5h-1h-3t-2 -0.5t-1.5 -0.5h-1.5h-1h-4h-1h-1h-3h-3h-6h-2h-2h-2h-1h-1.5t-1.5 0.5t-1.5 0.5h-1.5h-1.5h-1.5h-1.5h-1.5h-2l-2 1h-3h-2t-1 1h-3h-1.5h-1.5q-100 17 -160 100v1l-3 3q0 1 -0.5 1.5t-1 1.5t-1.5 1v0.5t-1 1.5
q-1 2 -1.5 2.5t-0.5 1.5q-1 1 -1.5 2l-0.5 1q-1 1 -1 1.5v0.5q-3 4 -7 12v0q-1 1 -1.5 2t-0.5 2l-1 1q0 1 -0.5 2t-0.5 1.5t-0.5 1t-0.5 1t-0.5 1.5t-1.5 1v3q-1 0 -1.5 1t-0.5 1.5v1t-1 1.5l-1 3l-0.5 1l-0.5 1q-1 2 -1 3q0 2 -1 3q0 1 -0.5 2.5t-1.5 2.5v3q-1 0 -1 1v1
q-1 2 -1 3t-0.5 1.5t-0.5 1v1.5t-0.5 1.5t-0.5 1.5v1q-1 1 -1 3q0 1 -0.5 2t-0.5 1.5v1.5v1.5t-0.5 1t-0.5 1.5v1.5t-1 2.5v1l-1 6v1v1q-1 3 -1 4v1v1v2v2q-1 1 -1 2v4v1v1v4v1v1v2v2t-1 2v3v3q0 79 46 144q3 4 7 9q8 10 16 18q4 4 8 9q6 5 9 8q7 5 14 11q3 2 5 3
q42 30 93 41q24 5 49.5 5t50.5 -5q51 -10 94 -41l2 -1.5l2 -1.5q8 -6 14 -11q18 -16 33 -35q3 -3 7 -9zM448 76v72q0 4 -4 4h-22q-4 0 -4 -4v-26h-29v144q0 4 -4 4h-22q-4 0 -4 -4v-26h-29v26q0 4 -4 4h-22q-4 0 -4 -4v-26h-29v26q0 4 -10 4v30q12 3 21 3q4 0 12.5 -1.5
t12.5 -1.5q23 0 23 6v49q0 3 -4 3q-2 0 -8.5 -1.5t-10.5 -1.5t-13 1.5t-14 1.5q-8 0 -19 -2v4q8 3 8 11q0 13 -13 13t-13 -13q0 -8 8 -11v-90q-10 0 -10 -4v-26h-29v26q0 4 -4 4h-22q-4 0 -4 -4v-26h-29v26q0 4 -4 4h-22q-4 0 -4 -4v-144h-30v26q0 4 -3 4h-22q-4 0 -4 -4
v-71q14 -24 34 -43q31 -31 71 -48q21 -9 43 -14v76q0 28 22 39.5t44 0t22 -39.5v-76q22 5 43 14q40 17 71 48q20 19 34 42zM448 77z" />
    <glyph glyph-name="freebsd" unicode="freebsd" 
d="M304 352q-9 -9 -2 -27.5t24.5 -36t36 -24.5t27.5 2q15 15 41.5 69.5t11.5 69.5t-69.5 -11.5t-69.5 -41.5zM110 380q-48 -30 -76 -79q-49 85 -28 106q20 20 104 -27zM407 274q6 10 11 19q27 -49 27 -106q0 -89 -63 -152.5t-152.5 -63.5t-152.5 63.5t-63 152.5t63 152.5
t153 63.5q52 0 99 -25q-9 -5 -19 -11q-20 3 -24.5 -11t9.5 -38q17 -33 55.5 -59t53.5 -11q8 8 3 26zM407 274z" />
    <glyph glyph-name="gitkraken" unicode="gitkraken" horiz-adv-x="592" 
d="M566 330q18 -49 18 -101q0 -117 -80.5 -200.5t-195.5 -87.5v146q-12 -1 -24 0v-146q-115 4 -195.5 87.5t-80.5 200.5q0 52 18 101q5 11 16 6q10 -4 6 -14q-17 -45 -17 -93q0 -101 66 -175.5t164 -87.5v124q-11 2 -23 6v-104q-53 13 -95 47t-66.5 83.5t-24.5 106.5
q0 67 34.5 124t91.5 89q11 6 16 -5q5 -10 -5 -15q-52 -29 -83 -80.5t-31 -112.5q0 -70 39 -125.5t101 -80.5v92q-11 4 -18 13t-7 21q0 20 18 30q-3 27 -10.5 43t-15 20t-13.5 8.5t-6 12.5v15q0 30 50 96.5t79 68.5h8q29 -2 79 -68.5t50 -96.5v-15q0 -6 -4 -10t-9.5 -7.5
t-11.5 -9.5t-11.5 -20.5t-8.5 -36.5q18 -10 18 -30q0 -12 -7 -21t-18 -13v-92q62 25 101 81t39 125q0 61 -31 112.5t-83 80.5q-10 5 -5 15q5 11 16 5q57 -32 91.5 -89t34.5 -124q0 -86 -52.5 -152t-133.5 -85v104q-12 -4 -23 -6v-124q64 8 116.5 45t83 94t30.5 124
q0 48 -17 93q-4 10 6 14q11 5 16 -6zM366 172q-10 0 -17 -6.5t-7 -16.5q0 -7 3.5 -12.5t8.5 -8.5t12 -3q10 0 17 7t7 17t-7 16.5t-17 6.5zM226 125q10 0 17 7t7 17t-7 17t-17 7q-5 0 -9.5 -2t-7.5 -5.5t-5 -7.5t-2 -9q0 -10 7 -17t17 -7z" />
    <glyph glyph-name="gofore" unicode="gofore" horiz-adv-x="400" 
d="M324 128q19 0 33 -8t21 -21t10 -24.5t4 -24.5q-68 -82 -171 -82q-93 0 -157 66t-64 158q0 93 64.5 158.5t156.5 65.5q91 0 156 -66l-63 -63q-38 39 -93 39t-94 -39t-39 -95t39 -95t94 -39q52 0 90 36v34h13zM312 241q37 0 62.5 -26.5t25.5 -74.5v-30q-24 42 -76 42h-118
v89h106zM312 241z" />
    <glyph glyph-name="goodreads" unicode="goodreads" 
d="M300 257q-5 36 -24.5 57t-53.5 21q-29 0 -51 -22.5t-25 -64.5q-2 -32 9.5 -58.5t37.5 -39.5q13 -7 34 -6t37 12q22 16 31 43.5t5 57.5zM448 360q0 23 -16.5 39.5t-39.5 16.5h-336q-23 0 -39.5 -16.5t-16.5 -39.5v-336q0 -23 16.5 -39.5t39.5 -16.5h336q23 0 39.5 16.5
t16.5 39.5v336zM330 135q0 -42 -16 -70t-51 -37q-33 -10 -72.5 -0.5t-56.5 38.5q-7 12 -8 29h27q2 0 2 -1q6 -32 41 -42q26 -7 53 -1q33 7 45 39q7 19 7 44v17v17h-1l-1 -2q-23 -44 -69 -46q-52 -2 -82 28t-31 88q0 24 6 45q10 36 36 57t64 21q19 0 35.5 -7.5t26 -17.5
t14.5 -21q1 -1 2 -1v40h29v-217zM330 135z" />
    <glyph glyph-name="goodreads-g" unicode="goodreads&#x2d;g" horiz-adv-x="384" 
d="M43 45q2 -26 13 -45q17 -29 51.5 -46t71 -17.5t73.5 6.5q102 25 103 162q-1 53 -1 332h-44v-61q-1 -1 -2 2q-13 27 -43.5 48.5t-72.5 21.5q-59 0 -98.5 -32t-55.5 -87q-9 -32 -9 -69q2 -89 48 -134.5t124 -42.5q34 2 61.5 19.5t44.5 49.5q0 1 1 2.5t1 2.5h1q1 -4 1 -25
t-1 -28q0 -39 -11 -67q-18 -49 -68 -60q-42 -9 -81 2q-53 15 -63 64q0 2 -3 2h-39h-2zM189 412q26 0 47.5 -9t36 -25t23.5 -37.5t12 -48.5q7 -46 -6.5 -88.5t-47.5 -65.5q-24 -17 -56.5 -18.5t-52.5 9.5q-40 19 -57 59.5t-14 89.5q4 65 38 99.5t77 34.5zM189 412z" />
    <glyph glyph-name="google-drive" unicode="google&#x2d;drive" horiz-adv-x="512" 
d="M339 133h161l-163 283h-162zM202 110h310l-81 -142h-310zM154 381l83 -142l-156 -271l-81 142z" />
    <glyph glyph-name="google-play" unicode="google&#x2d;play" horiz-adv-x="512" 
d="M325 214l60 60l-280 161zM47 448l257 -256l-257 -256q-22 11 -22 35v442q0 24 22 35zM472 222q14 -10 14.5 -30t-13.5 -30l-60 -34l-65 64l65 65zM105 -51l220 221l60 -60z" />
    <glyph glyph-name="gripfire" unicode="gripfire" horiz-adv-x="384" 
d="M112 147q0 -5 1 -10.5t2 -9t4 -9t4 -8t5 -9t5 -7.5t6.5 -8.5t5.5 -8.5q2 -2 5 -6l15 -21t12 -18.5t9.5 -21.5t2.5 -19q0 -25 -17 -47q0 2 2.5 9.5t2.5 12.5q0 31 -78 87q-22 18 -34 30.5t-22.5 33.5t-10.5 44q0 32 15 63t37 55.5t43.5 48.5t36.5 50.5t15 51.5q0 5 -1 10
q4 -2 13 -13.5t18 -33.5t9 -43q0 -27 -16.5 -55.5t-36.5 -49t-36.5 -47.5t-16.5 -51zM318 186q2 -13 2 -25q0 -67 -67 -137l-3 -2q-4 0 -20 22.5t-16 30.5q5 6 12 16.5t18.5 36.5t11.5 44q0 17 -9 33q-1 -14 -15 -36t-28 -36.5t-15 -14.5q-2 0 -6 6t-8 16.5t-4 19.5
q0 8 3 16l9.5 13.5t19.5 29.5t18.5 37t8.5 36q0 10 -3 17l-4 7q19 -7 53 -47t42 -83z" />
    <glyph glyph-name="grunt" unicode="grunt" horiz-adv-x="384" 
d="M61 259q1 9 7 12q-7 2 -13 4q46 11 83 -32q7 -9 16 -11t14 0l6 2q0 -5 -3 -9.5t-8 -7t-11 -2.5q1 -7 -2.5 -15t-7.5 -13l-3 -5v2t1 4t1.5 6t0.5 7t-1 7q-1 4 -3 8q-9 -9 -21 -8t-20.5 5t-13.5 9q-12 13 -13 34q-3 -6 -4 -16q0 1 -1 2.5t-2.5 6.5t-1.5 10zM90 260
q-3 -6 -1.5 -18t7.5 -17q18 -13 38 -2q-12 19 -44 37zM232 215q-6 0 -10.5 2.5t-8 7t-3.5 9.5q19 -10 36 9q37 43 83 32q-6 -2 -13 -5q6 -2 7 -11q0 -5 -1 -9.5t-3 -7.5l-2 -2q0 9 -4 16q-1 -21 -12 -34q-3 -3 -9 -6.5t-14 -6t-16.5 -1t-15.5 7.5q-2 -5 -3 -9
q-1 -5 -0.5 -10.5t1.5 -10.5l2 -4l-2 2t-3.5 5t-4.5 7.5t-3.5 8.5t-0.5 10zM294 260q-32 -18 -45 -37q20 -11 38 2q7 5 8.5 17t-1.5 18zM160 29q6 0 8.5 -2.5t1.5 -6.5q-4 -10 -13 -20q-5 -4 -11.5 -4t-11.5 4q-10 9 -14 18q-2 6 1 8.5t10 2.5h29zM349 131l8 -8t11 -23.5
t2 -39.5q-7 -40 -47 -55q-20 -45 -67 -49q-24 -20 -64 -20t-63 20q-47 4 -68 49q-40 15 -47 55q-4 21 1.5 39t12.5 25l7 7q3 -26 25 -44q3 27 3 62q0 7 -2.5 13t-5 9t-4.5 4q-3 2 -8 5q-13 7 -19.5 11t-14 13t-7.5 20q0 16 16 27q0 1 1 1.5l1 0.5q4 3 4 4q3 7 3.5 21.5
t-1.5 16.5q-17 20 -12 39q3 12 14 17q8 4 20 5q0 2 1 6q1 5 1 8q-1 9 -3 11q-3 6 -10.5 10.5t-12.5 6t-6 1.5l-12 2l8 9q18 18 46 18q12 0 24 -4q27 -8 50 -39q4 2 6 2q-1 18 9.5 32.5t18.5 15.5v-5t0.5 -8.5t2 -8t4.5 -5.5q4 28 39 40q-6 -17 2 -37q9 8 17.5 12t12.5 4
l4 -1q-2 -2 -4 -6.5t-4.5 -14.5t-0.5 -17q5 -1 9 -3q23 31 50 39q12 4 24 4q13 0 24.5 -4.5t16.5 -8t5 -4.5l8 -10l-12 -2q-1 0 -6 -1.5t-12 -6t-11 -10.5q-2 -2 -2 -11q-1 -3 1 -8v-6q12 0 20 -5q11 -5 14 -17q2 -8 -1 -18t-6 -14.5t-5 -6.5t-1.5 -16.5t3.5 -20.5
q1 -2 4 -5q1 0 2 -1q16 -12 16 -28q0 -10 -7.5 -19.5t-14 -13.5t-19.5 -11q-7 -4 -8 -5q-3 -2 -7.5 -9t-4.5 -17q0 -35 4 -62q21 18 24 44zM306 410q-21 -6 -38 -32q2 -1 5 -2q4 -2 7 -4q6 12 21 23q12 9 28 9q5 0 9 -1q5 3 10 5q-12 5 -25 5q-9 0 -17 -3zM327 392
q-11 0 -20 -7t-13 -22q6 -6 10 -12q5 2 12 3q3 5 4 17.5t4 17.5zM46 403q4 0 9 1q16 0 28 -9q15 -11 21 -23q5 3 7 4t5 2q-17 26 -38 32q-8 3 -17 3q-13 0 -25 -5q5 -2 10 -5zM90 363q-4 15 -13 22q-8 7 -20 7l3 -3q3 -6 4 -18t4 -17q5 -1 12 -3q3 6 10 12zM58 188
q18 -10 19 -34q2 -25 -3 -76q15 -6 39 -7q4 7 6 13q17 48 26 62q-6 -43 -23 -89q6 1 12 1h117q6 0 11 -1q-17 46 -23 89q10 -17 26 -62q2 -6 6 -13q24 1 39 7q-5 51 -3 76q1 24 19 34q7 4 8 5l12 6t9 6t7.5 8.5t2.5 9.5q0 11 -9 18l-1 1l-1 0.5t-1 1.5q2 -13 3 -15
q-12 15 -16 44q-3 25 5 43v-14l2 2q12 15 9 26q-1 6 -7 8q-5 3 -15 3q-14 0 -33 -6q-26 -8 -64 -38l-6 -4l4 6q22 33 53 46q-5 7 -22 16q-32 15 -74 15t-74 -15q-17 -9 -22 -16q32 -13 53 -46l4 -6l-6 4q-38 30 -64 38q-19 6 -33 6q-9 0 -15 -3q-6 -2 -7 -8q-3 -11 9 -26
l2 -2v14q8 -18 5 -43q-1 -8 -3 -15.5t-4 -12.5t-4 -9l-3 -6l-2 -1q2 2 3 15l-2 -2l-1 -1q-8 -7 -8 -18q0 -9 7.5 -15.5t22.5 -14.5q6 -4 8 -5zM35 43q8 -14 24 -21.5t34 -7.5q-7 20 4 32l2 1q4 5 7 10q-61 3 -75 45q-5 -2 -4.5 -23.5t8.5 -35.5zM81 0q12 -18 30 -26
q-6 9 -12 23q-9 1 -18 3zM192 -50q62 0 85 64q5 16 -1 24q-6 7 -25 7h-118q-19 0 -25 -7.5t-1 -23.5q23 -64 85 -64zM273 -26q18 8 31 26q-9 -2 -19 -3q-6 -14 -12 -23zM349 43q8 14 8.5 35.5t-4.5 23.5q-14 -42 -74 -45q3 -5 7 -10q1 -1 1 -2q11 -11 4 -31q41 0 58 29z
M192 260q-6 0 -12.5 4.5t-10.5 9.5l-4 4q13 -8 27 -8t27 8q-14 -18 -27 -18zM254 30q6 -1 9 -3.5t1 -7.5q-4 -10 -14 -18q-5 -5 -11.5 -5t-11.5 5q-9 10 -13 19q-1 4 1.5 7t8.5 3h30zM254 30z" />
    <glyph glyph-name="gulp" unicode="gulp" horiz-adv-x="256" 
d="M210 57q-30 -13 -82.5 -13t-83.5 13l15 -25l6 -80q0 -7 18.5 -11.5t44.5 -4.5t44.5 4.5t18.5 11.5l5 80zM14 310q23 -13 114 -12.5t114 12.5l-15 -136q-12 -11 -16 -14q-7 -5 -8 -5q-3 0 -3 2q1 0 5 6q14 16 14 23q0 4 -3 6.5t-9 1.5t-13 -7l-5 -5q1 3 1 6q0 4 -4 4
q-1 0 -3 -1q-2 -3 -5 -12q0 -1 -2 -5l-1 -1q-16 -17 -23 -17q-2 0 -1 6q2 4 9 22q0 2 5 13.5t8 18.5q2 5 4 9l1 2q1 4 -1 6q-2 1 -4 1q-4 0 -6 -5q-25 -64 -26 -68q-4 -3 -7 -4q-7 -3 -7 1t3 12q1 3 3.5 8.5t3.5 7.5q2 5 0 7t-4 2q-3 0 -5 -5q-1 -3 -2 -5q-1 -5 -5 -12
q-5 -10 -11 -14q-4 -2 -7 -2q-4 0 -2 9q2 5 10 20q2 6 -1 8h-1q-5 2 -8 -4q-4 -9 -7 -16q-7 -19 -5 -24t9 -5q14 0 22 15q-3 -14 4 -15.5t16 7.5q0 -1 0.5 -1t0.5 -1q2 -9 14 -4q7 3 14 11h1l-1 -3q-15 -33 -15.5 -34t-0.5 -3t2 -3q2 -2 6 -1q2 2 4 5q0 1 0.5 1.5t0.5 1t1 4
t3 7.5q3 8 9 22q4 9 9 15q4 7 8 10q10 7 12 3q0 -3 -5 -8q-14 -19 -14 -22q0 -6 6.5 -7t10.5 1q7 3 20 15l-11 -94q-1 -3 -12 -7t-32.5 -7.5t-44 -3.5t-43.5 3.5t-32 7.5t-12 7l-8 79q3 -2 8 -2q9 0 21 12q3 2 7 6q-7 -21 -8 -25q0 -5 1 -6q1 -2 3 -2q4 0 6 8q2 6 8 26
q2 8 5 15.5t4 11t1 7.5q0 6 -6 5q-3 -1 -4 -5l-5 -15q-4 -7 -13 -16q-10 -10 -16 -10q-3 0 -5 3q-3 7 1 20q4 14 12 28.5t17 20.5q11 8 17 -3q4 -7 7 -7q6 0 4 9q-1 7 -10 12t-19 1q-9 -4 -17.5 -13.5t-13.5 -20.5t-9 -21zM243 319q0 10 -67 14l10 41l57 61q3 2 -5 9
q-7 6 -10 3l-61 -64l-13 -49q-11 1 -26 1q-24 0 -45 -1.5t-36.5 -3.5t-25 -5t-9.5 -6q0 -10 58 -14t115.5 0t57.5 14zM174 314q0 -4 -14 -4t-14 4q0 1 3 2v-1q0 -2 11 -2t11 2l1 1q2 -1 2 -2zM174 314z" />
    <glyph glyph-name="square-hacker-news" unicode="hacker&#x2d;news&#x2d;square" 
d="M400 416q20 0 34 -14t14 -34v-352q0 -20 -14 -34t-34 -14h-352q-20 0 -34 14t-14 34v352q0 20 14 34t34 14h352zM21 219zM239 165l81 155h-35q-24 -45 -35.5 -68.5t-17 -37.5t-7.5 -20q-3 5 -5.5 12.5t-5 14.5t-8 19t-16 32t-25.5 48h-37l80 -153v-103h31v101z" />
    <glyph glyph-name="hire-a-helper" unicode="hire&#x2d;a&#x2d;helper" horiz-adv-x="512" 
d="M443 448q2 -18 11.5 -33.5t24.5 -25.5t33 -13v-370q-27 -3 -46.5 -23t-21.5 -47h-372q-5 27 -24.5 46t-47.5 23v371q28 3 48.5 23.5t23.5 48.5h371zM406 43q4 0 5 2.5t-0.5 5.5t-4.5 3q-14 5 -22 14q-5 9 -6.5 33.5t-1.5 94.5v101q0 15 7.5 22t21.5 10q6 2 4.5 7t-5.5 5
q-18 0 -28.5 -1t-28.5 -1q-16 0 -24.5 1t-24.5 1q-3 0 -4.5 -4.5t3.5 -6.5l3 -0.5t4.5 -1.5t5 -3t5.5 -4.5t4.5 -6.5t3.5 -10t1 -13q0 -58 -1 -69q0 -1 -0.5 -4t-4 -6t-7.5 -3h-110q-4 0 -7.5 3t-4 6t-0.5 4q-1 11 -1 69q0 7 1 13t3.5 10t4.5 6.5t5.5 4.5t5 3t4.5 1.5l3 0.5
q5 2 3.5 6.5t-4.5 4.5q-16 0 -24.5 -1t-24.5 -1q-18 0 -28.5 1t-28.5 1q-4 0 -5.5 -5t4.5 -7q14 -3 21 -10t7 -22v-101q0 -70 -1 -94.5t-6 -33.5q-8 -9 -22 -14q-3 0 -4.5 -3t-0.5 -5.5t5 -2.5q18 0 27.5 1t27.5 1t28.5 -1t27.5 -1q4 0 4 4.5t-4 5.5q-20 7 -25 13
q-3 5 -4.5 20.5t-1.5 29.5t0.5 35.5t0.5 27.5q0 4 4 8t9 4h112q5 0 9 -4t4 -8q0 -6 0.5 -27.5t0.5 -35.5t-1.5 -29.5t-4.5 -20.5q-4 -6 -25 -13q-4 -1 -4 -5.5t4 -4.5q17 0 27.5 1t28.5 1t27.5 -1t27.5 -1zM406 43z" />
    <glyph glyph-name="hotjar" unicode="hotjar" horiz-adv-x="512" 
d="M362 448h-1h-99q0 -21 -4.5 -38t-10.5 -28t-20 -22t-24 -17.5t-31 -17.5q-17 -9 -26.5 -15t-26.5 -17.5t-27.5 -22t-23 -27t-19.5 -34.5t-12 -42t-5 -51h98q0 21 5 37.5t11 27.5t20 22t23.5 17t30.5 18q1 0 1 1q20 11 31.5 18t31 21t31 29t23.5 35.5t18 47t6 58.5z
M301 145q-24 -13 -38 -21.5t-36 -27.5t-34.5 -39t-22 -51.5t-9.5 -69.5h98q0 27 5.5 45.5t20 33t26.5 22.5t38 22q24 13 38 22t36.5 28t34.5 38.5t21.5 51.5t9.5 69h-98q0 -21 -4.5 -38t-10.5 -28t-20 -22t-24 -17t-31 -18z" />
    <glyph glyph-name="hubspot" unicode="hubspot" horiz-adv-x="512" 
d="M267 236l-163 115q-13 -7 -27 -7q-21 0 -36.5 15t-15.5 36.5t15.5 37t37 15.5t37 -15.5t15.5 -36.5q0 -7 -2 -14q17 -13 44 -33t49.5 -36.5t44.5 -32.5t31 -23q20 11 42 14v61q-28 12 -28 43q0 20 13.5 34t33.5 14q13 0 23.5 -6.5t17 -17.5t6.5 -24q0 -31 -28 -43v-62
q47 -7 78.5 -43.5t31.5 -84.5q0 -27 -10.5 -51t-27.5 -41.5t-41.5 -27.5t-50.5 -10q-44 0 -79 26l-50 -50q2 -5 2 -12q0 -17 -12 -28.5t-29 -11.5t-28 12q-12 11 -12 28t11.5 29t28.5 12q7 0 14 -3l50 50q-26 34 -26 78q0 56 40 94zM356.5 73q28.5 0 49 20t20.5 48.5
t-20.5 49t-49 20.5t-48.5 -20.5t-20 -49t20 -48.5t48.5 -20z" />
    <glyph glyph-name="itunes" unicode="itunes" 
d="M223.5 368q70.5 0 121 -50.5t50.5 -121.5q0 -34 -13.5 -66t-36.5 -55t-55 -36.5t-66 -13.5q-71 0 -121.5 50.5t-50.5 121t50.5 121t121 50.5zM303 128q1 4 1 167q0 10 -9 9q-1 0 -115 -21q-3 0 -7 -3q-3 -2 -3 -6q-1 -2 -0.5 -67.5t-2.5 -66.5q-2 -3 -8 -4
q-30 -5 -38 -13q-11 -10 -6 -25t21 -18q17 -3 31 6q12 6 15 19q1 6 1 119q0 7 7 8q88 16 92 17q8 2 8 -6v-44q1 -34 -1.5 -37t-8.5 -3q-30 -6 -38 -13q-8 -8 -7.5 -19t9.5 -18q11 -9 32 -5q22 4 27 24zM345 416q28 0 52 -13.5t37.5 -37.5t13.5 -52v-242q0 -43 -30 -73
t-73 -30h-242q-43 0 -73 30t-30 73v242q0 43 30 73t73 30h242zM223.5 4q79.5 0 136 56.5t56.5 136t-56.5 136t-136 56.5t-136 -56.5t-56.5 -136t56.5 -136t136 -56.5z" />
    <glyph glyph-name="itunes-note" unicode="itunes&#x2d;note" horiz-adv-x="384" 
d="M382 60v1q2 8 2 146v191q0 19 -18 18q-3 0 -233 -43q-7 0 -13 -6q-6 -4 -7 -13q-1 -3 -0.5 -135.5t-4.5 -134.5q-5 -5 -16 -7q-2 -1 -7 -1q-20 -4 -29.5 -6t-21 -7t-19.5 -12q-22 -21 -12.5 -51t41.5 -36q13 -2 32 1t32 10q24 12 30 39v1q3 11 2 110v129q0 8 3 11.5
t11 4.5q177 34 185 35q17 3 17 -12q0 -38 1 -89q0 -52 -0.5 -61t-4.5 -13q-5 -6 -16 -8q-2 0 -6 -1q-20 -3 -30 -5.5t-21.5 -7t-18.5 -12.5q-17 -15 -16 -37t18 -37q23 -18 65 -10q46 8 55 48z" />
    <glyph glyph-name="jenkins" unicode="jenkins" horiz-adv-x="512" 
d="M487 23q1 -7 -9 -40q-8 -26 -14 -47h-422l-2 6q-2 5 -5.5 14.5t-6 17.5t-3.5 14q-1 9 2.5 14.5t13.5 10t13 6.5q10 7 56 34q27 16 27 18q2 4 0.5 9t-5.5 11t-5 8q-7 15 -8 30q-25 4 -39 25q-11 17 -15 39.5t3 44.5q1 1 3.5 4.5t3.5 5.5q0 3 -1.5 11.5t-1.5 10.5
q-2 63 30 78q3 9 7.5 17.5t9.5 14t14 12t14.5 9.5l16.5 9t16 10q11 6 40 17q37 14 88.5 10t81.5 -27q15 -11 32.5 -29.5t24.5 -32.5q19 -40 20 -102t-14 -110q-6 -21 -11 -32q-1 -2 -5 -9t-6.5 -12t-2 -8t6.5 -9t14.5 -13t9.5 -8t10 -8.5t13 -13t5 -10.5zM206 414
q-28 -8 -54 -25t-35 -38q4 1 9 2.5t9.5 3t9.5 1.5q1 1 6.5 0t6.5 0q4 1 8.5 6.5t8.5 13t7 10.5q3 4 10 9t10 8q1 1 3 1q6 2 6 6q-3 3 -5 2zM101 321q-14 -16 -10 -68q20 12 41 2t21 -32q3 0 5 2t1.5 5t-1 5.5t-2 7t-1.5 6.5q-3 15 2.5 50t-1.5 48q-34 -3 -55 -26zM138 121
q9 -36 26 -62q15 -20 69 -24q6 14 36 7q-16 6 -40 33q-26 28 -26 48q16 -24 24.5 -34t26 -24t38.5 -21q45 -15 99 24q7 4 25 30q44 63 39 157q-2 50 -9 63q-7 14 -23 20t-29 -4q-3 12 7.5 18.5t25.5 2.5q-2 2 -7 9t-7.5 9.5t-7.5 8.5t-8.5 9.5t-8.5 7.5t-10 6
q-28 17 -63 22.5t-66 -6.5q-67 -33 -83 -70q4 -10 4.5 -22t-1.5 -21t-4.5 -22t-3.5 -22q0 -9 4 -24.5t5 -23.5q-6 -9 -27 -7q-7 32 -25 34q-11 1 -20 -4t-14 -13.5t-6 -18.5q-1 -19 12.5 -39.5t31.5 -18.5q5 1 12 6t13 5q2 -4 0.5 -7.5t-4 -6t-5 -5.5t-2.5 -5q-1 -4 2 -15z
M360 -4q-1 -2 -0.5 -7t-0.5 -9q22 -6 51 -7q5 7 4 23q-1 32 -10 37q-6 3 -15.5 -1t-20 -11l-13.5 -9q3 -9 3 -10q10 3 19 -2q-15 -2 -17 -4zM343 16q3 3 7 6t7.5 6t7.5 6q-6 -1 -19.5 -4t-20.5 -4t-19 3q0 -1 -1 -1t-1 -1q16 -12 39 -11zM331 -17q15 -5 17 9q3 13 -8 15
q-5 1 -12 -4q-1 -2 3 -20zM226 9q0 3 1.5 9t1.5 8q-5 1 -14.5 1.5t-16 1.5t-10.5 4q-8 -8 17 -18q13 -5 21 -6zM58 -49h180l-2 7q-7 22 -8 36q-2 0 -8.5 3.5t-9 4.5t-8 3.5t-8.5 4.5t-7.5 4.5t-8 4.5t-7.5 5q-1 0 -7 7.5t-12 14t-7 5.5q-41 -16 -102 -63q8 -17 15 -37z
M298 -55v1v-1zM306 -49h9q-1 1 -3 4zM321 -24v3v4v3q-11 6 -23 6q3 2 10.5 3.5t11.5 3.5v2.5v2.5q-6 0 -22 9q-21 12 -44 16q-7 1 -10.5 -3t-4.5 -10.5t-1.5 -14.5t0.5 -14q0 -7 11 -37q3 -9 5 -10q11 -2 34 10q5 3 11 8l12 10t10 8zM374 -49l1 13q-6 -1 -14 4.5t-11 6.5
q-3 0 -10 -3.5t-12 -1.5l-2 -2t-2 -2.5t-2 -2.5q4 -5 9 -12h17q0 6 6 6t6 -6h14zM383 -49h36q-14 21 -35 11q-1 -6 -1 -11zM466 -12q5 22 4 25q0 3 -3 7t-5.5 6t-7 5.5t-5.5 4.5q-5 4 -15.5 15t-17.5 16q-3 -3 -7 -6.5t-8 -6.5t-6 -6q22 11 28 -27q6 -32 -4 -51
q1 -4 5.5 -8.5t5.5 -7.5q-1 -1 -2 -3h28h1q6 21 9 37zM222 317q-6 -16 3 -18q19 41 54 33q4 6 -0.5 11t-11.5 6q-12 2 -26 -8.5t-19 -23.5zM406 254q0 -11 9.5 -13t20.5 3t13 12q-4 6 -21 41h-1q-1 -10 9 -37q-4 -3 -15 -3.5t-15 -2.5zM310 252q-4 -4 -10 -4.5t-15 1.5
t-12 2q-8 -12 7.5 -16.5t28.5 -0.5q3 1 7 4t5 5q1 3 1 5.5t-0.5 4t-1.5 3.5t-2 3t-3 2.5t-2 2.5q-3 3 -6 7t-4.5 8t-3.5 9t-4 9q-5 -14 15 -45zM337 182q-5 -8 -4 -17t7 -14q16 -2 32.5 2t25.5 9t23 14q0 2 3 10.5t2 13.5l-2.5 2.5t-4.5 4t-4 4.5q-36 39 -47 63v3
q-2 11 -8 7q0 -14 7 -29.5t12.5 -22.5t18.5 -23q1 -1 4.5 -5t5 -5.5t2.5 -5t0.5 -7t-3.5 -7.5q-3 -1 -15.5 -7.5t-23 -9t-19.5 -1.5q-5 1 -7 4.5t-3 9t-2 7.5zM136 191q5 25 -16 36q-18 9 -25 -9q-1 -3 -2 -7l3.5 3.5t4 3t5.5 -0.5q-4 -8 -3 -21.5t7 -18.5v5.5v7v7t0.5 6.5
t1.5 4.5t3 3.5t4 1q4 0 9 -9.5t8 -11.5zM435 162q-4 -2 -15 -8t-20 -9.5t-19 -4.5q-1 -4 0 -19q33 1 54 41zM293 150q6 -17 29.5 -24t51.5 -6q0 15 -1 20q-57 -2 -80 10zM385 103q-20 0 -38.5 -0.5t-34.5 6.5t-22 22q-14 0 -3 -10l3 -3t5.5 -8t8.5 -11t9 -7q15 -6 33.5 -5
t29.5 5q6 2 9 11zM385 103z" />
    <glyph glyph-name="joget" unicode="joget" horiz-adv-x="496" 
d="M378 403q88 -54 111.5 -154t-30.5 -187.5t-154 -111t-187.5 30.5t-111 154t30.5 187q35 56 91.5 87t119.5 31q70 0 130 -37zM430 80q8 12 14 26q-2 0 -37.5 -0.5t-61 -1.5t-59 -5t-51.5 -10q-11 -4 -18.5 -9t-12 -9t-6.5 -9.5t-2.5 -9t0.5 -9.5t2 -8t3.5 -7.5l2.5 -5.5
q7 -18 23 -43q12 -1 21 -1q55 0 103.5 26.5t78.5 75.5zM229 166q51 -1 230 -5q6 41 -3.5 81t-34 74.5t-61.5 57.5q-75 46 -161 25.5t-133 -95.5q-43 -69 -28 -149q4 15 10 29.5t20 34.5t32.5 35t48.5 27t67 14q41 3 38 -13q-2 -9 -14 -17q-2 -1 -11.5 -6t-14.5 -8.5
t-13.5 -9t-16 -12.5t-13.5 -15q-17 -20 -0.5 -33.5t58.5 -14.5zM413 221q10 -3 15 -7t4 -6v-3l-47 -23l-169 -2q34 11 65 32q5 3 15 9.5t15.5 10t13 8t13.5 6t11 1.5t10 -2q5 -3 7 -6t-0.5 -6t-5 -4.5t-8 -4.5t-6.5 -4l-51 -35l6 -1q9 1 25 10q63 33 87 27zM413 221z" />
    <glyph glyph-name="js" unicode="js" 
d="M0 416h448v-448h-448v448zM244 67v143h-42v-143q0 -26 -23 -26q-15 0 -27 21l-34 -20q18 -39 63 -39q29 0 46 16t17 48zM343 3q31 0 50.5 15.5t19.5 43.5q0 25 -13.5 39t-42.5 27l-10 4q-15 7 -20.5 12t-5.5 14q0 5 2.5 9t7 6.5t10.5 2.5q17 0 27 -18l33 21
q-19 34 -60 34q-28 0 -45 -16t-17 -40t13 -38.5t38 -24.5l10 -5q12 -5 17.5 -8t9.5 -8t4 -12q0 -6 -3.5 -10.5t-10 -7.5t-15.5 -3q-25 0 -41 26l-34 -20q21 -43 76 -43zM343 3z" />
    <glyph glyph-name="square-js" unicode="js&#x2d;square" 
d="M400 416q20 0 34 -14t14 -34v-352q0 -20 -14 -34t-34 -14h-352q-20 0 -34 14t-14 34v352q0 20 14 34t34 14h352zM244 67v143h-42v-143q0 -26 -23 -26q-15 0 -27 21l-34 -20q18 -39 63 -39q29 0 46 16t17 48zM343 3q31 0 50.5 15.5t19.5 43.5q0 25 -13.5 39t-42.5 27
l-10 4q-15 7 -20.5 12t-5.5 14q0 5 2.5 9t7 6.5t10.5 2.5q17 0 27 -18l33 21q-19 34 -60 34q-28 0 -45 -16t-17 -40t13 -38.5t38 -24.5l10 -5q12 -5 17.5 -8t9.5 -8t4 -12q0 -6 -3.5 -10.5t-10 -7.5t-15.5 -3q-25 0 -41 26l-34 -20q21 -43 76 -43zM343 3z" />
    <glyph glyph-name="keycdn" unicode="keycdn" horiz-adv-x="512" 
d="M64 39q-23 8 -43.5 -6t-20.5 -40q0 -20 13.5 -34t33.5 -14q25 0 39.5 19.5t7.5 42.5q3 3 21 20.5t17 17.5q25 -21 55.5 -32.5t62.5 -12.5q59 -1 108 31q-1 0 -9.5 9.5t-11.5 12.5q-39 -24 -86 -23q-78 2 -127 68zM419 291l-22 -21q22 -40 21 -82q-2 -74 -65 -124
q20 -21 45 -48q-3 -15 7 -26q9 -9 21.5 -9t21.5 8.5t9 21t-8 21.5q-11 11 -26 9l-12 12.5l-12 12.5q47 53 48 121q2 55 -28 104zM104 395q-9 9 -21.5 9.5t-21 -8.5t-9 -21t7.5 -21q11 -11 26 -9l26 -27q-46 -53 -48 -121q-1 -56 28 -105l22 22q-21 38 -20 82q2 59 41 103
q8 10 22 21l-45 49q2 15 -8 26zM465 440q-13 0 -24 -6.5t-17.5 -17.5t-6.5 -24q0 -8 2 -15l-41 -39q-51 43 -118 45q-59 1 -108 -30l21 -22q39 23 86 22q78 -2 127 -67l63 60q5 -2 16 -2q19 0 33 14t14 34q0 12 -6.5 23.5t-17 18t-23.5 6.5zM257 335q-55 -1 -95.5 -36
t-47.5 -89q-5 -39 10 -74t45 -58t69 -27q58 -8 105 28.5t54 95t-29 105t-95 53.5q-9 2 -16 2zM198 215q0 17 8 30t21 20.5t29 7.5q24 0 41 -16.5t17 -41.5q0 -35 -32 -52l11 -52h-74l11 52q-31 16 -32 52zM256 288z" />
    <glyph glyph-name="kickstarter" unicode="kickstarter" 
d="M400 -32q20 0 34 14t14 34v352q0 20 -14 34t-34 14h-352q-20 0 -34 -14t-14 -34v-352q0 -20 14 -34t34 -14h352zM200 270v-39l44 64q12 18 31 19t31 -12q11 -10 12 -24.5t-7 -24.5l-40 -58l49 -63q8 -10 7.5 -25t-11.5 -26q-13 -12 -29.5 -11.5t-26.5 11.5l-60 76v-42
q0 -15 -5.5 -25.5t-14 -15t-20.5 -4.5q-19 0 -29.5 12.5t-10.5 32.5v155q0 19 10.5 32t29.5 13q17 0 28.5 -11.5t11.5 -33.5zM200 269z" />
    <glyph glyph-name="kickstarter-k" unicode="kickstarter&#x2d;k" horiz-adv-x="384" 
d="M147 334v-71l83 118q22 32 57 34t57 -21q20 -19 22 -45.5t-12 -44.5l-75 -107l91 -115q15 -18 13.5 -45t-20.5 -47q-24 -23 -55 -22t-49 22l-112 138v-76q0 -42 -20 -63t-52 -21q-36 0 -55.5 23.5t-19.5 60.5v283q0 23 8.5 41t25.5 29t40 11q21 0 37 -8.5t26 -27.5
t10 -46z" />
    <glyph glyph-name="laravel" unicode="laravel" horiz-adv-x="512" 
d="M504 332q1 -1 1 -2v-110q0 -4 -4 -7l-93 -53v-105q0 -5 -4 -7l-192 -111q-1 0 -2 -1v0h-4h-1v1h-1l-193 111q-4 2 -4 7v330q0 1 1 2v2h1q0 1 0.5 1.5t1 0.5t0.5 1l97 55q4 2 8 0l96 -55q0 -1 0.5 -1t1 -0.5t0.5 -1.5h1q0 -1 0.5 -1.5l0.5 -0.5v-2v-206l80 46v105v2
l0.5 0.5l0.5 0.5v1h1v1l0.5 0.5l1 1l0.5 0.5l96 55q4 3 8 0l97 -55l1 -1v0q1 -1 1 -1.5t1 -0.5v-1v-1zM112 431l-81 -46l81 -47l80 47zM200 371l-34 -20l-46 -26v-202l33 20l47 26v202zM200 -42v92l-92 52v0l-1 1l-0.5 0.5l-0.5 0.5l-1 1v0q-1 1 -1 1.5v1v1v0.5v215l-47 27
l-34 20v-311zM208 64l117 67l59 34l-80 46l-92 -53l-84 -49zM392 60v91l-45 -26l-131 -75v-92zM392 179v91l-46 27l-34 19v-91l47 -27zM400 284l81 46l-81 46l-80 -46zM408 179l81 46v91l-34 -19l-47 -27v-91zM408 179z" />
    <glyph glyph-name="line" unicode="line" horiz-adv-x="512" 
d="M311 251q0 4 -4 4h-13q-3 0 -3 -4v-48l-38 50q-1 2 -3 2h-13q-3 0 -3 -4v-81q0 -4 3 -4h13q4 0 4 4v48l37 -50q1 -2 3 -2h13q4 0 4 4v81zM217 255q4 0 4 -4v-81q0 -4 -4 -4h-13q-3 0 -3 4v81q0 4 3 4h13zM186 187q3 0 3 -4v-13q0 -4 -3 -4h-53q-1 0 -2 1t-1 3v81q0 4 4 4
h13q3 0 3 -4v-64h36zM380 255q3 0 3 -4v-13q0 -4 -3 -4h-36v-13h36q3 0 3 -4v-13q0 -4 -3 -4h-36v-13h36q3 0 3 -4v-13q0 -4 -3 -4h-53q-3 0 -3 4v81q0 4 3 4h53zM512 355q0 38 -27 65.5t-66 27.5h-326q-38 0 -65.5 -27t-27.5 -66v-326q0 -38 27 -65.5t66 -27.5h326
q38 0 65.5 27t27.5 66v326zM442 214q0 -49 -40 -93q-18 -20 -50.5 -45t-58.5 -41.5t-38 -21.5q-7 -2 -11 -3t-5 3t-0.5 5.5t0.5 4.5q5 22 3 30.5t-17 11.5q-68 9 -112 51.5t-44 97.5q0 63 54.5 107.5t131.5 44.5t132 -44.5t55 -107.5zM442 214z" />
    <glyph glyph-name="lyft" unicode="lyft" horiz-adv-x="512" 
d="M0 367v-208q0 -39 25 -59q24 -16 46 -14.5t34 11.5q-27 18 -27 61v209h-78zM486 193q0 -10 7.5 -17.5t18.5 -7.5v-77q-43 0 -73 30t-30 73v77q0 16 -13 23t-26 0t-13 -23v-23h39v-77h-39v-7q0 -39 -25 -59q-21 -18 -51 -14v179q0 21 8 40t21.5 33t32.5 22t40 8
q37 0 65 -23t36 -58h26v-77h-24v-22zM192 292v1h77v-178q0 -40 -21 -67t-56 -34q-38 -7 -78 5v70q24 -10 45 -8q32 3 35 25l-1 -0.5t-4 -2.5t-6 -3.5t-8.5 -3.5t-11 -2.5t-12.5 0t-15 2.5q-45 12 -45 64v132h77v-113q0 -11 12 -11t12 11v113z" />
    <glyph glyph-name="magento" unicode="magento" 
d="M446 320l-222 128l-222 -128v-256l64 -37l-1 256l159 92l158 -92v-255l64 36v256zM256 27v256l63 -36v-256l-95 -55l-95 55v256l63 36v-256l32 -18zM256 27z" />
    <glyph glyph-name="medapps" unicode="medapps" horiz-adv-x="320" 
d="M118 210l-31 -5q-14 -6 48 -8q16 -42 19 -42q2 0 3 2l9 66q4 -8 7.5 -21.5t6 -21t4.5 -7.5q2 1 4 4t4 11.5t3 12.5q9 1 14 1t12.5 0.5t11 2.5t2.5 4q-39 3 -49 7q0 1 -2 12t-4 20.5t-4.5 20.5t-5.5 17.5t-6 6.5q-4 0 -6.5 -16t-4 -39t-3.5 -31q-3 5 -6.5 14t-6 15t-5.5 7
q-2 0 -4 -2t-3 -6l-2 -8t-2.5 -9.5t-2.5 -7.5zM228 0h-136q-8 0 -12 5t-4 11t4 11t12 5h136q8 0 12 -5t4 -11t-4 -11t-12 -5zM204 -64h-88q-10 0 -14 8t0 16t14 8h88q8 0 12 -5t4 -11t-4 -11t-12 -5zM238 77q-1 -10 -10 -12.5t-16.5 3t-5.5 15.5q7 44 15 58q8 16 23 40.5
t22.5 38t14 33.5t6.5 40q0 51 -37 87t-89.5 36t-90 -36t-37.5 -87q0 -20 6.5 -40t14 -33.5t22.5 -38t23 -40.5q8 -15 15 -59q2 -9 -5.5 -14.5t-16.5 -3t-10 12.5q-7 39 -12 49q-9 17 -24 41q-16 27 -23.5 41t-15 37.5t-7.5 47.5q0 64 47 109.5t113 45.5t113 -45.5t47 -109.5
q0 -24 -7.5 -47.5t-15 -37.5t-23.5 -41q-16 -26 -24 -41q-5 -10 -12 -49zM238 78z" />
    <glyph glyph-name="medrt" unicode="medrt" horiz-adv-x="544" 
d="M114 192q0 60 25 112t69.5 86t98.5 43q-28 7 -58 7q-103 0 -176 -72.5t-73 -175.5t73 -175.5t176 -72.5q30 0 58 7q-83 14 -138 82t-55 159zM411 92q58 41 77 108t-10 126q17 -16 31 -35q46 -66 32.5 -145.5t-79 -126.5t-144.5 -33t-126 80q-13 19 -21 40
q46 -47 114 -51.5t126 37.5zM192 336q55 41 119.5 35t102.5 -55q34 -45 27 -102t-49 -100q14 38 8 80.5t-33 77.5q-32 42 -81 58t-98 3q1 0 2 1zM296 224h40q8 0 8 -8v-48q0 -8 -8 -8h-40q-8 0 -8 -8v-40q0 -8 -8 -8h-48q-8 0 -8 8v40q0 8 -8 8h-40q-8 0 -8 8v48q0 8 8 8h40
q8 0 8 8v40q0 8 8 8h48q8 0 8 -8v-40q0 -8 8 -8z" />
    </font>
</defs>
</svg>
