<?xml version="1.0" standalone="no"?>
<!DOCTYPE svg PUBLIC "-//W3C//DTD SVG 1.1//EN" "http://www.w3.org/Graphics/SVG/1.1/DTD/svg11.dtd" >
<svg xmlns="http://www.w3.org/2000/svg" xmlns:xlink="http://www.w3.org/1999/xlink" version="1.1">
<metadata>
Created by FontForge 20190801 at Thu Jan 17 20:33:55 2013
 By www-data
Copyright (c) 2012 by Hannes von Doehren. All rights reserved.
</metadata>
<defs>
<font id="BrandonTextRegular" horiz-adv-x="600" >
  <font-face 
    font-family="BrandonTextRegular"
    font-weight="390"
    font-stretch="normal"
    units-per-em="1000"
    panose-1="2 11 5 3 2 2 3 6 2 3"
    ascent="700"
    descent="-300"
    x-height="462"
    cap-height="700"
    bbox="-138.381 -271 1176 1031.56"
    underline-thickness="50"
    underline-position="-100"
    unicode-range="U+000D-FB02"
  />
<missing-glyph horiz-adv-x="599" 
d="M50 30v640q0 30 30 30h439q30 0 30 -30v-640q0 -30 -30 -30h-439q-30 0 -30 30zM262 314q0 -12 14 -12h36q15 0 15 13v26q0 16 16.5 32t36 28.5t36 36.5t16.5 53q0 48 -35.5 79.5t-89.5 31.5q-24 0 -46.5 -6.5t-37 -15t-25.5 -17.5t-16 -15l-5 -7q-8 -12 0 -18l22 -22
q8 -6 17 0q1 1 7.5 7t9.5 9t11.5 8.5t15.5 8.5t18 5.5t22 2.5q29 0 45 -15t16 -37q0 -21 -15.5 -39t-34 -30t-34 -32.5t-15.5 -45.5v-29zM245 156q0 -20 14.5 -34t33.5 -14q20 0 34.5 14t14.5 34t-14.5 34t-34.5 14q-19 0 -33.5 -14t-14.5 -34z" />
    <glyph glyph-name="fi" unicode="fi" horiz-adv-x="577" 
d="M119 22v376h-74q-9 0 -15.5 6.5t-6.5 15.5v20q0 10 6.5 16t15.5 6h74v61q0 89 48 138t128 49q50 0 93 -18t66 -37q6 -4 7.5 -12.5t-2.5 -13.5l-19 -28q-10 -15 -29 -1q-58 43 -117 43q-48 0 -74.5 -30.5t-26.5 -89.5v-61h286q9 0 15.5 -7t6.5 -15v-418q0 -9 -6.5 -15.5
t-15.5 -6.5h-30q-8 0 -15 6.5t-7 15.5v376h-234v-376q0 -9 -6.5 -15.5t-15.5 -6.5h-30q-9 0 -15.5 6.5t-6.5 15.5z" />
    <glyph glyph-name="fl" unicode="fl" horiz-adv-x="606" 
d="M119 22v376h-74q-9 0 -15.5 6t-6.5 15v21q0 10 6.5 16t15.5 6h74v53q0 96 52 145.5t132 49.5q43 0 81.5 -14t55.5 -28l18 -15l8 28q7 19 22 19l13 -1q9 0 15.5 -7t6.5 -15v-655q0 -9 -6.5 -15.5t-15.5 -6.5h-29q-8 0 -15 6.5t-7 15.5v549q-6 8 -17 20t-48 32t-76 20
q-50 0 -83 -32.5t-33 -95.5v-53h137q9 0 15.5 -6t6.5 -16v-21q0 -9 -6.5 -15t-15.5 -6h-137v-376q0 -9 -6.5 -15.5t-15.5 -6.5h-30q-9 0 -15.5 6.5t-6.5 15.5z" />
    <glyph glyph-name="f_f" unicode="ff" horiz-adv-x="680" 
d="M119 22v376h-74q-9 0 -15.5 6.5t-6.5 15.5v20q0 10 6.5 16t15.5 6h74v31q0 99 55.5 153t143.5 54q82 0 138 -45q38 55 123 55q78 0 127 -47q15 -12 6 -26l-17 -25q-11 -17 -31 -2q-42 33 -86 33q-41 0 -59.5 -25t-18.5 -84v-72h136q9 0 15.5 -6t6.5 -16v-20
q0 -9 -6.5 -15.5t-15.5 -6.5h-136v-376q0 -9 -7 -15.5t-16 -6.5h-29q-9 0 -15.5 6.5t-6.5 15.5v376h-234v-376q0 -9 -6.5 -15.5t-15.5 -6.5h-29q-9 0 -15.5 6.5t-6.5 15.5zM192 462h234v72q0 32 5 53q-15 18 -48.5 32t-66.5 14q-58 0 -91 -34.5t-33 -105.5v-31z" />
    <glyph glyph-name="f_f_i" unicode="ffi" horiz-adv-x="884" 
d="M602 710q50 0 93 -18t66 -37q6 -4 7.5 -12.5t-2.5 -13.5l-19 -28q-10 -15 -29 -1q-58 43 -117 43q-101 0 -101 -109v-72h286q9 0 15.5 -7t6.5 -15v-418q0 -9 -6.5 -15.5t-15.5 -6.5h-30q-8 0 -15 6.5t-7 15.5v376h-234v-376q0 -9 -7 -15.5t-16 -6.5h-29q-9 0 -15.5 6.5
t-6.5 15.5v376h-234v-376q0 -9 -6.5 -15.5t-15.5 -6.5h-29q-9 0 -15.5 6.5t-6.5 15.5v376h-74q-9 0 -15.5 6.5t-6.5 15.5v20q0 10 6.5 16t15.5 6h74v31q0 99 55.5 153t143.5 54t145 -46q42 56 139 56zM192 462h234v72q0 36 5 57q-17 16 -50 29t-65 13q-58 0 -91 -34.5
t-33 -105.5v-31z" />
    <glyph glyph-name="f_f_l" unicode="ffl" horiz-adv-x="913" 
d="M610 710q43 0 81.5 -14t56.5 -28l17 -15l8 28q7 19 22 19l13 -1q9 0 15.5 -7t6.5 -15v-655q0 -9 -6.5 -15.5t-15.5 -6.5h-29q-8 0 -15 6.5t-7 15.5v549q-6 8 -17 20t-48 32t-76 20q-55 0 -85.5 -30.5t-30.5 -91.5v-59h137q9 0 15.5 -6t6.5 -16v-21q0 -9 -6.5 -15
t-15.5 -6h-137v-376q0 -9 -7 -15.5t-16 -6.5h-29q-9 0 -15.5 6.5t-6.5 15.5v376h-234v-376q0 -9 -6.5 -15.5t-15.5 -6.5h-29q-9 0 -15.5 6.5t-6.5 15.5v376h-74q-9 0 -15.5 6.5t-6.5 15.5v20q0 10 6.5 16t15.5 6h74v31q0 99 55.5 153t143.5 54q81 0 151 -45q45 55 141 55z
M192 462h234v61q0 38 8 67q-17 17 -51 30t-67 13q-58 0 -91 -34.5t-33 -105.5v-31z" />
    <glyph glyph-name="f_f_h" unicode="ffh" horiz-adv-x="1217" 
d="M192 462h234v61q0 38 8 67q-17 17 -51 30t-67 13q-58 0 -91 -34.5t-33 -105.5v-31zM808 0h-29q-8 0 -15 6.5t-7 15.5v549q-6 8 -17 20t-48 32t-76 20q-55 0 -85.5 -30.5t-30.5 -91.5v-59h137q9 0 15.5 -6t6.5 -16v-21q0 -9 -6.5 -15t-15.5 -6h-137v-376q0 -9 -7 -15.5
t-16 -6.5h-29q-9 0 -15.5 6.5t-6.5 15.5v376h-234v-376q0 -9 -6.5 -15.5t-15.5 -6.5h-29q-9 0 -15.5 6.5t-6.5 15.5v376h-74q-9 0 -15.5 6.5t-6.5 15.5v20q0 10 6.5 16t15.5 6h74v31q0 99 55.5 153t143.5 54q81 0 151 -45q45 55 141 55q43 0 81.5 -14t56.5 -28l17 -15l8 28
q7 19 22 19h13q8 0 15 -7t7 -15v-265q6 7 17.5 16.5t50 26t79.5 16.5q167 0 167 -206v-244q0 -9 -7 -15.5t-15 -6.5h-31q-9 0 -15.5 6.5t-6.5 15.5v244q0 139 -97 139q-39 0 -74.5 -16.5t-51.5 -32.5l-16 -17v-317q0 -9 -7 -15.5t-15 -6.5z" />
    <glyph glyph-name="f_k" unicode="fk" horiz-adv-x="855" 
d="M488 700h13q8 0 15 -7t7 -15v-391l192 161q16 14 28 14h56q14 0 16 -12t-5 -16l-213 -177l229 -228q8 -6 5 -17.5t-17 -11.5h-57q-12 0 -23 9l-211 223v-210q0 -9 -7 -15.5t-15 -6.5h-29q-8 0 -15 6.5t-7 15.5v549q-6 8 -17 20t-48 32t-76 20q-50 0 -83 -32.5t-33 -95.5
v-53h137q9 0 15.5 -6t6.5 -16v-21q0 -9 -6.5 -15t-15.5 -6h-137v-376q0 -9 -6.5 -15.5t-15.5 -6.5h-30q-9 0 -15.5 6.5t-6.5 15.5v376h-74q-9 0 -15.5 6t-6.5 15v21q0 10 6.5 16t15.5 6h74v53q0 96 52 145.5t132 49.5q43 0 81.5 -14t55.5 -28l18 -15l8 28q7 19 22 19z" />
    <glyph glyph-name="f_j" unicode="fj" horiz-adv-x="578" 
d="M427 -57v455h-234v-376q0 -9 -6.5 -15.5t-15.5 -6.5h-30q-9 0 -15.5 6.5t-6.5 15.5v376h-74q-9 0 -15.5 6.5t-6.5 15.5v20q0 10 6.5 16t15.5 6h74v61q0 89 48 138t128 49q50 0 93 -18t66 -37q6 -4 7.5 -12.5t-2.5 -13.5l-19 -28q-10 -15 -29 -1q-58 43 -117 43
q-48 0 -74.5 -30.5t-26.5 -89.5v-61h286q9 0 15.5 -7t6.5 -15v-490q0 -170 -131 -198q-16 -3 -21 12l-10 30q-7 19 14 27q39 14 56.5 40t17.5 82z" />
    <glyph glyph-name="f_f_j" unicode="ffj" horiz-adv-x="885" 
d="M192 462h234v72q0 36 5 57q-17 16 -50 29t-65 13q-58 0 -91 -34.5t-33 -105.5v-31zM734 -57v455h-234v-376q0 -9 -7 -15.5t-16 -6.5h-29q-9 0 -15.5 6.5t-6.5 15.5v376h-234v-376q0 -9 -6.5 -15.5t-15.5 -6.5h-29q-9 0 -15.5 6.5t-6.5 15.5v376h-74q-9 0 -15.5 6.5
t-6.5 15.5v20q0 10 6.5 16t15.5 6h74v31q0 99 55.5 153t143.5 54t145 -46q42 56 139 56q50 0 93 -18t66 -37q6 -4 7.5 -12.5t-2.5 -13.5l-19 -28q-10 -15 -29 -1q-58 43 -117 43q-101 0 -101 -109v-72h286q9 0 15.5 -7t6.5 -15v-490q0 -170 -131 -198q-17 -3 -21 12l-10 30
q-7 19 14 27q39 14 56.5 40t17.5 82z" />
    <glyph glyph-name="f_b" unicode="fb" horiz-adv-x="918" 
d="M488 700h13q8 0 15 -7t7 -15v-235q51 29 128 29q101 0 159.5 -68t58.5 -172q0 -100 -59.5 -171.5t-147.5 -71.5q-42 0 -78.5 15t-51.5 30l-16 15l-6 -30q-3 -19 -20 -19h-18q-8 0 -15 6.5t-7 15.5v549q-6 8 -17 20t-48 32t-76 20q-50 0 -83 -32.5t-33 -95.5v-53h137
q9 0 15.5 -6t6.5 -16v-21q0 -9 -6.5 -15t-15.5 -6h-137v-376q0 -9 -6.5 -15.5t-15.5 -6.5h-30q-9 0 -15.5 6.5t-6.5 15.5v376h-74q-9 0 -15.5 6t-6.5 15v21q0 10 6.5 16t15.5 6h74v53q0 96 52 145.5t132 49.5q43 0 81.5 -14t55.5 -28l18 -15l8 28q7 19 22 19zM523 132
q2 -3 5.5 -8t16 -18.5t26.5 -23.5t36.5 -18t45.5 -8q61 0 100.5 52.5t39.5 122.5q0 73 -41 123.5t-113 50.5q-28 0 -57 -7.5t-44 -14.5l-15 -7v-244z" />
    <glyph glyph-name="f_f_k" unicode="ffk" horiz-adv-x="1162" 
d="M192 462h234v61q0 38 8 67q-17 17 -51 30t-67 13q-58 0 -91 -34.5t-33 -105.5v-31zM808 0h-29q-8 0 -15 6.5t-7 15.5v549q-6 8 -17 20t-48 32t-76 20q-55 0 -85.5 -30.5t-30.5 -91.5v-59h137q9 0 15.5 -6t6.5 -16v-21q0 -9 -6.5 -15t-15.5 -6h-137v-376q0 -9 -7 -15.5
t-16 -6.5h-29q-9 0 -15.5 6.5t-6.5 15.5v376h-234v-376q0 -9 -6.5 -15.5t-15.5 -6.5h-29q-9 0 -15.5 6.5t-6.5 15.5v376h-74q-9 0 -15.5 6.5t-6.5 15.5v20q0 10 6.5 16t15.5 6h74v31q0 99 55.5 153t143.5 54q81 0 151 -45q45 55 141 55q43 0 81.5 -14t56.5 -28l17 -15l8 28
q7 19 22 19h13q8 0 15 -7t7 -15v-391l192 161q16 14 28 14h56q14 0 16 -12t-5 -16l-213 -177l229 -228q8 -6 5 -17.5t-17 -11.5h-57q-12 0 -23 9l-211 223v-210q0 -9 -7 -15.5t-15 -6.5z" />
    <glyph glyph-name="f_h" unicode="fh" horiz-adv-x="910" 
d="M488 700h13q8 0 15 -7t7 -15v-265q6 7 17.5 16.5t50 26t79.5 16.5q167 0 167 -206v-244q0 -9 -7 -15.5t-15 -6.5h-31q-9 0 -15.5 6.5t-6.5 15.5v244q0 139 -97 139q-39 0 -74.5 -16.5t-51.5 -32.5l-16 -17v-317q0 -9 -7 -15.5t-15 -6.5h-29q-8 0 -15 6.5t-7 15.5v549
q-6 8 -17 20t-48 32t-76 20q-50 0 -83 -32.5t-33 -95.5v-53h137q9 0 15.5 -6t6.5 -16v-21q0 -9 -6.5 -15t-15.5 -6h-137v-376q0 -9 -6.5 -15.5t-15.5 -6.5h-30q-9 0 -15.5 6.5t-6.5 15.5v376h-74q-9 0 -15.5 6t-6.5 15v21q0 10 6.5 16t15.5 6h74v53q0 96 52 145.5t132 49.5
q43 0 81.5 -14t55.5 -28l18 -15l8 28q7 19 22 19z" />
    <glyph glyph-name="f_f_b" unicode="ffb" horiz-adv-x="1225" 
d="M795 700h13q8 0 15 -7t7 -15v-235q51 29 128 29q101 0 159.5 -68t58.5 -172q0 -100 -59.5 -171.5t-147.5 -71.5q-42 0 -78.5 15t-52.5 30l-15 15l-6 -30q-3 -19 -20 -19h-18q-8 0 -15 6.5t-7 15.5v549q-6 8 -17 20t-48 32t-76 20q-55 0 -85.5 -30.5t-30.5 -91.5v-59h137
q9 0 15.5 -6t6.5 -16v-21q0 -9 -6.5 -15t-15.5 -6h-137v-376q0 -9 -7 -15.5t-16 -6.5h-29q-9 0 -15.5 6.5t-6.5 15.5v376h-234v-376q0 -9 -6.5 -15.5t-15.5 -6.5h-29q-9 0 -15.5 6.5t-6.5 15.5v376h-74q-9 0 -15.5 6.5t-6.5 15.5v20q0 10 6.5 16t15.5 6h74v31q0 99 55.5 153
t143.5 54q81 0 151 -45q45 55 141 55q43 0 81.5 -14t56.5 -28l17 -15l8 28q7 19 22 19zM192 462h234v61q0 38 8 67q-17 17 -51 30t-67 13q-58 0 -91 -34.5t-33 -105.5v-31zM830 132q2 -3 5.5 -8t16 -18.5t26.5 -23.5t36.5 -18t45.5 -8q61 0 100.5 52.5t39.5 122.5
q0 73 -41 123.5t-113 50.5q-28 0 -57 -7.5t-44 -14.5l-15 -7v-244z" />
    <glyph glyph-name=".notdef" horiz-adv-x="599" 
d="M50 30v640q0 30 30 30h439q30 0 30 -30v-640q0 -30 -30 -30h-439q-30 0 -30 30zM262 314q0 -12 14 -12h36q15 0 15 13v26q0 16 16.5 32t36 28.5t36 36.5t16.5 53q0 48 -35.5 79.5t-89.5 31.5q-24 0 -46.5 -6.5t-37 -15t-25.5 -17.5t-16 -15l-5 -7q-8 -12 0 -18l22 -22
q8 -6 17 0q1 1 7.5 7t9.5 9t11.5 8.5t15.5 8.5t18 5.5t22 2.5q29 0 45 -15t16 -37q0 -21 -15.5 -39t-34 -30t-34 -32.5t-15.5 -45.5v-29zM245 156q0 -20 14.5 -34t33.5 -14q20 0 34.5 14t14.5 34t-14.5 34t-34.5 14q-19 0 -33.5 -14t-14.5 -34z" />
    <glyph glyph-name=".null" horiz-adv-x="0" 
 />
    <glyph glyph-name=".null" horiz-adv-x="0" 
 />
    <glyph glyph-name="nonmarkingreturn" horiz-adv-x="333" 
 />
    <glyph glyph-name="CR" unicode="&#xd;" horiz-adv-x="0" 
 />
    <glyph glyph-name="space" unicode=" " horiz-adv-x="240" 
 />
    <glyph glyph-name="exclam" unicode="!" horiz-adv-x="260" 
d="M124 272q-7 0 -12.5 5t-6.5 11l-19 279v114q0 7 6 13t13 6h50q7 0 13 -6t6 -13v-112l-19 -281q-1 -6 -6.5 -11t-12.5 -5h-12zM73 47q0 24 17 40.5t40 16.5q24 0 40.5 -16.5t16.5 -40.5q0 -23 -16.5 -40t-40.5 -17q-23 0 -40 17t-17 40z" />
    <glyph glyph-name="quotedbl" unicode="&#x22;" horiz-adv-x="337" 
d="M234 501q-8 0 -13.5 5.5t-5.5 13.5v161q0 7 5.5 13t13.5 6h34q10 0 15.5 -7.5t2.5 -17.5l-28 -159q-4 -15 -18 -15h-6zM83 501q-7 0 -13 5.5t-6 13.5v161q0 7 6 13t13 6h34q10 0 15.5 -7.5t2.5 -17.5l-28 -159q-4 -15 -18 -15h-6z" />
    <glyph glyph-name="numbersign" unicode="#" horiz-adv-x="557" 
d="M113 22l25 173h-70q-8 0 -13.5 5.5t-5.5 13.5v7q0 19 19 19h77l24 171h-72q-7 0 -13 5.5t-6 13.5v7q0 7 6 13t13 6h78l32 228q1 6 6 11t12 5h7q8 0 13.5 -6.5t4.5 -15.5l-30 -222h151l31 228q1 6 6.5 11t12.5 5h6q9 0 14.5 -6.5t4.5 -15.5l-30 -222h70q8 0 13.5 -5.5
t5.5 -13.5v-7q0 -19 -17 -19h-78l-24 -171h71q8 0 13.5 -5.5t5.5 -13.5v-7q0 -8 -5 -13.5t-12 -5.5h-80l-26 -179q-2 -16 -19 -16h-6q-9 0 -14.5 6.5t-4.5 15.5l26 173h-153l-25 -179q-2 -16 -19 -16h-6q-10 0 -15.5 6.5t-3.5 15.5zM189 240h153l23 171h-151z" />
    <glyph glyph-name="dollar" unicode="$" 
d="M96 71q-19 17 -6 34l18 23q14 20 32 5q62 -61 142 -73v258q-45 18 -72.5 33t-58 39.5t-45 59.5t-14.5 82q0 35 18 72t63 68.5t109 36.5v32q0 8 5.5 13.5t13.5 5.5h7q17 0 17 -19v-32q39 -3 76.5 -15.5t56.5 -23.5l18 -11q7 -3 10 -11t-4 -23l-12 -18q-8 -12 -14.5 -14
t-20.5 4l-8 5q-8 5 -18 10t-23.5 11t-29.5 11t-31 7v-259q50 -21 83 -40t61 -44t41 -56.5t13 -71.5q0 -73 -58 -123.5t-140 -55.5v-104q0 -18 -22 -18q-21 0 -21 18v104q-47 4 -92.5 23.5t-63 32t-30.5 24.5zM282 400v242q-58 -6 -87 -39.5t-29 -69.5q0 -44 29 -75.5
t87 -57.5zM325 59q50 4 84 35.5t34 72.5t-28.5 71.5t-89.5 60.5v-240z" />
    <glyph glyph-name="percent" unicode="%" horiz-adv-x="677" 
d="M181 441q-56 0 -95.5 39.5t-39.5 95.5t39.5 95.5t95.5 39.5t95.5 -39.5t39.5 -95.5t-39.5 -95.5t-95.5 -39.5zM139 27l343 663q6 10 17 10h16q11 0 16.5 -8.5t0.5 -18.5l-345 -663q-5 -10 -17 -10h-14q-11 0 -16.5 8.5t-0.5 18.5zM181 498q31 0 53.5 22.5t22.5 55.5
q0 31 -22.5 53.5t-53.5 22.5q-33 0 -55.5 -22.5t-22.5 -53.5q0 -33 22.5 -55.5t55.5 -22.5zM362 124q0 56 39.5 95.5t95.5 39.5t95.5 -39.5t39.5 -95.5t-39.5 -95.5t-95.5 -39.5t-95.5 39.5t-39.5 95.5zM419 124q0 -33 22.5 -55.5t55.5 -22.5q31 0 53.5 22.5t22.5 55.5
q0 31 -22.5 53.5t-53.5 22.5q-33 0 -55.5 -22.5t-22.5 -53.5z" />
    <glyph glyph-name="ampersand" unicode="&#x26;" horiz-adv-x="665" 
d="M71 174q0 118 139 200v2l-24 26q-70 74 -70 146q0 64 46 113t131 49q78 0 123.5 -44.5t45.5 -109.5q0 -100 -148 -192l165 -165q40 82 40 178q0 15 5 19t18 4h24q7 0 11.5 -2t6 -7.5t1.5 -6v-7.5q0 -120 -59 -225l96 -96q11 -12 12 -19.5t-13 -26.5l-12 -11
q-21 -19 -42 3l-85 88q-89 -100 -218 -100q-91 0 -142 53t-51 131zM269 410q26 16 39.5 25t37 29t35 42.5t11.5 47.5q0 39 -28.5 68t-76.5 29t-76 -30t-28 -75q0 -52 64 -114zM141 173q0 -52 36.5 -86.5t89.5 -34.5q101 0 171 85l-185 194q-112 -68 -112 -158z" />
    <glyph glyph-name="quotesingle" unicode="'" horiz-adv-x="186" 
d="M83 501q-7 0 -13 5.5t-6 13.5v161q0 7 6 13t13 6h34q10 0 15.5 -7.5t2.5 -17.5l-28 -159q-4 -15 -18 -15h-6z" />
    <glyph glyph-name="parenleft" unicode="(" horiz-adv-x="339" 
d="M289 -78q-46 2 -85.5 23t-74.5 64.5t-55.5 121.5t-20.5 184t20.5 184t55.5 121.5t74.5 64.5t85.5 23q17 2 18 -10l2 -27q3 -15 -10 -17q-92 -18 -134 -103t-42 -236t42 -236t134 -103q13 -2 10 -17l-2 -27q-1 -12 -18 -10z" />
    <glyph glyph-name="parenright" unicode=")" horiz-adv-x="339" 
d="M40 -24q92 18 134 103t42 236t-42 236t-134 103q-13 2 -10 17l2 27q1 12 18 10q46 -2 85.5 -23t74.5 -64.5t55.5 -121.5t20.5 -184t-20.5 -184t-55.5 -121.5t-74.5 -64.5t-85.5 -23q-17 -2 -18 10l-2 27q-3 15 10 17z" />
    <glyph glyph-name="asterisk" unicode="*" horiz-adv-x="414" 
d="M200 407q-8 0 -14 6t-6 13l2 85l-69 -50q-6 -5 -14 -3t-12 9l-8 11q-10 15 5 28l78 48l-80 48q-14 12 -5 27q4 5 8 12q12 16 26 6l71 -51l-2 86q0 7 6 12.5t14 5.5h13q8 0 14 -5.5t6 -12.5l-2 -85l69 52q15 8 26 -6l8 -12q9 -16 -5 -27l-80 -50l81 -50q15 -12 6 -27
l-7 -12q-12 -15 -28 -6l-70 51l2 -84q0 -7 -6 -13t-14 -6h-13z" />
    <glyph glyph-name="plus" unicode="+" 
d="M267 157v157h-157q-8 0 -13.5 6t-5.5 13v28q0 7 5.5 13t13.5 6h157v158q0 7 5.5 12.5t13.5 5.5h28q8 0 13.5 -5.5t5.5 -12.5v-158h158q7 0 12.5 -5.5t5.5 -13.5v-28q0 -8 -5.5 -13.5t-12.5 -5.5h-158v-157q0 -7 -5.5 -12.5t-13.5 -5.5h-28q-8 0 -13.5 5.5t-5.5 12.5z" />
    <glyph glyph-name="comma" unicode="," horiz-adv-x="241" 
d="M57 49q0 27 15 44t41 17q35 0 55 -31t20 -79q0 -93 -68 -167q-8 -8 -16 -1l-19 17q-9 9 1 18q56 60 56 119q0 12 -4 23q-13 -9 -33 -9q-22 0 -35 15t-13 34z" />
    <glyph glyph-name="hyphen" unicode="-" horiz-adv-x="383" 
d="M87 220q-8 0 -13.5 5t-5.5 13v19q0 19 19 19h209q19 0 19 -19v-19q0 -8 -5.5 -13t-13.5 -5h-209z" />
    <glyph glyph-name="period" unicode="." horiz-adv-x="243" 
d="M56 56q0 27 19 46t46 19q28 0 47 -19t19 -46t-19.5 -47t-46.5 -20t-46 20t-19 47z" />
    <glyph glyph-name="slash" unicode="/" horiz-adv-x="377" 
d="M61 25l196 662q4 13 18 13h22q11 0 16 -7.5t2 -17.5l-195 -662q-4 -13 -18 -13h-23q-10 0 -15.5 7.5t-2.5 17.5z" />
    <glyph glyph-name="zero" unicode="0" horiz-adv-x="642" 
d="M320 -10q-119 0 -184.5 95.5t-65.5 264.5q0 170 65.5 265t184.5 95q120 0 185.5 -95t65.5 -265t-66 -265t-185 -95zM320 60q85 0 129 74t44 216q0 141 -44 215.5t-129 74.5q-84 0 -128 -74.5t-44 -215.5t44 -215.5t128 -74.5z" />
    <glyph glyph-name="one" unicode="1" horiz-adv-x="337" 
d="M155 572h-1l-73 -57q-13 -10 -23 1l-20 22q-9 11 2 22l137 133q7 7 17 7h18q8 0 13.5 -6t5.5 -13v-661q0 -8 -5.5 -14t-13.5 -6h-37q-8 0 -14 6t-6 14v552z" />
    <glyph glyph-name="two" unicode="2" horiz-adv-x="553" 
d="M162 69v-2h301q8 0 14 -6t6 -14v-27q0 -8 -6 -14t-14 -6h-391q-9 0 -14.5 6t-5.5 14v14q0 16 13 30q20 21 106.5 115t133.5 144q104 114 104 187q0 52 -35.5 91t-109.5 39q-73 0 -146 -78q-13 -13 -28 0l-20 20q-12 14 -1 27q3 4 8.5 11t25 24.5t40.5 30.5t54 24t67 11
q106 0 164.5 -57t58.5 -141q0 -62 -32 -113t-97 -121z" />
    <glyph glyph-name="three" unicode="3" horiz-adv-x="563" 
d="M58 81q-12 16 1 25l28 24q16 11 28 -5q8 -10 24 -24t53 -30.5t77 -16.5q62 0 105 35t43 95q0 61 -45.5 97t-136.5 36h-58q-20 0 -20 23v25q0 12 4.5 17t17.5 5h57q79 0 121 35.5t42 89.5q0 59 -39 94.5t-96 35.5q-76 0 -135 -67q-13 -15 -26 -2l-25 19q-14 13 0 27
q3 4 8.5 10t24.5 21.5t39 27.5t51.5 22t62.5 10q95 0 154 -51t59 -137q0 -55 -33 -99.5t-74 -63.5v-3q48 -19 86 -60.5t38 -103.5q0 -89 -62 -145.5t-167 -56.5q-44 0 -80.5 9.5t-63 27.5t-37.5 28t-26 26z" />
    <glyph glyph-name="four" unicode="4" horiz-adv-x="626" 
d="M50 159q-8 0 -14 5.5t-6 13.5v28q0 9 6 18l381 474q9 12 24 12h17q8 0 13.5 -6t5.5 -14v-468h84q8 0 13.5 -5t5.5 -13v-26q0 -8 -5.5 -13.5t-13.5 -5.5h-84v-139q0 -8 -5.5 -14t-13.5 -6h-33q-8 0 -14 6t-6 14v139h-355zM405 581h-2l-287 -354v-5h289v359z" />
    <glyph glyph-name="five" unicode="5" horiz-adv-x="566" 
d="M77 75q-17 20 -2 35l11 11t13 12q15 13 25 -1q64 -76 153 -76q71 0 116.5 52t45.5 117q0 64 -41.5 106t-120.5 42h-157q-14 0 -23 11t-9 25v272q0 8 6 13.5t14 5.5h311q8 0 14 -5.5t6 -13.5v-30q0 -8 -6 -14t-14 -6h-262v-189h120q115 0 176.5 -57t61.5 -159
q0 -98 -68 -167t-171 -69q-128 0 -199 85z" />
    <glyph glyph-name="six" unicode="6" horiz-adv-x="578" 
d="M64 283q0 78 26 146.5t62.5 113t86.5 82.5t87 57.5t76 34.5q16 6 23 -10l11 -25q9 -18 -18 -30q-31 -13 -64 -31.5t-77 -49.5t-77.5 -75t-46.5 -93q8 5 21.5 12.5t54.5 20.5t81 13q91 0 156 -62t65 -161q0 -97 -67 -166.5t-160 -69.5q-120 0 -180 81t-60 212zM304 58
q64 0 109 48t45 115t-45 114t-110 47q-43 0 -83.5 -17t-59.5 -33l-20 -17q-4 -20 -4 -48q0 -52 16 -97.5t55.5 -78.5t96.5 -33z" />
    <glyph glyph-name="seven" unicode="7" horiz-adv-x="502" 
d="M388 629v2h-336q-7 0 -13 6t-6 14v30q0 7 5.5 13t13.5 6h414q20 0 20 -19q0 -7 -5 -17l-296 -637q-12 -27 -34 -27h-30q-8 0 -13.5 6t-5.5 14q0 11 7 25z" />
    <glyph glyph-name="eight" unicode="8" horiz-adv-x="599" 
d="M68 189q0 60 39.5 106t84.5 65v4q-40 18 -73 61.5t-33 97.5q0 84 60 135.5t153 51.5q94 0 154 -51t60 -136q0 -54 -33 -97.5t-73 -61.5v-4q45 -19 84.5 -65t39.5 -106q0 -87 -61.5 -143t-171.5 -56q-107 0 -168.5 56t-61.5 143zM300 397q68 7 102.5 40t34.5 83
q0 57 -39 92.5t-98 35.5q-60 0 -98.5 -35.5t-38.5 -92.5q0 -51 34 -84t103 -39zM145 182q0 -59 41.5 -95t111.5 -36t113 35.5t43 95.5q0 50 -42 90.5t-112 47.5q-71 -7 -113 -47t-42 -91z" />
    <glyph glyph-name="nine" unicode="9" horiz-adv-x="579" 
d="M141 20q-9 21 18 29q22 8 57 27t79 50t80.5 77t49.5 94q-8 -5 -21.5 -13t-54.5 -21t-80 -13q-91 0 -156.5 62t-65.5 162q0 97 67.5 166.5t160.5 69.5q120 0 180 -81.5t60 -212.5q0 -66 -17.5 -124t-48 -101.5t-64.5 -78t-75.5 -60.5t-71.5 -41.5t-62 -28.5q-15 -6 -23 11
zM276 317q27 0 53.5 7t45 16.5t33.5 19.5t22 17l8 7q4 20 4 48q0 83 -42 146.5t-125 63.5q-65 0 -110 -48.5t-45 -115.5t45.5 -114t110.5 -47z" />
    <glyph glyph-name="colon" unicode=":" horiz-adv-x="268" 
d="M134 340q-27 0 -46.5 19.5t-19.5 45.5q0 28 19.5 47.5t46.5 19.5q28 0 47 -19.5t19 -47.5q0 -27 -19 -46t-47 -19zM68 56q0 27 19.5 46t46.5 19q28 0 47 -19t19 -46t-19.5 -47t-46.5 -20t-46.5 20t-19.5 47z" />
    <glyph glyph-name="semicolon" unicode=";" horiz-adv-x="272" 
d="M135 340q-27 0 -46.5 19.5t-19.5 45.5q0 28 19.5 47.5t46.5 19.5q28 0 46.5 -19t18.5 -48q0 -27 -19 -46t-46 -19zM72 49q0 27 15 44t41 17q35 0 55 -31t20 -79q0 -93 -68 -167q-8 -8 -16 -1l-19 17q-8 9 1 18q56 60 56 119q0 12 -4 23q-13 -9 -33 -9q-22 0 -35 15
t-13 34z" />
    <glyph glyph-name="less" unicode="&#x3c;" 
d="M107 210q-10 6 -10 17v5q0 11 10 17l340 212q10 6 19 1t9 -17v-36q0 -12 -11 -19l-261 -160l261 -154q11 -7 11 -19v-36q0 -12 -9 -17t-19 1z" />
    <glyph glyph-name="equal" unicode="=" 
d="M150 351q-8 0 -13.5 5.5t-5.5 13.5v30q0 8 5.5 13.5t13.5 5.5h299q8 0 13.5 -5.5t5.5 -13.5v-30q0 -8 -5.5 -13.5t-13.5 -5.5h-299zM150 140q-8 0 -13.5 5.5t-5.5 13.5v31q0 8 5.5 13.5t13.5 5.5h299q8 0 13.5 -5.5t5.5 -13.5v-31q0 -8 -5.5 -13.5t-13.5 -5.5h-299z" />
    <glyph glyph-name="greater" unicode="&#x3e;" 
d="M124 21v36q0 13 11 19l261 154l-261 160q-11 7 -11 19v36q0 12 9 17t19 -1l340 -212q10 -6 10 -17v-5q0 -11 -10 -17l-340 -205q-10 -6 -19 -1t-9 17z" />
    <glyph glyph-name="question" unicode="?" horiz-adv-x="467" 
d="M205 272q-8 0 -13.5 5.5t-5.5 13.5v42q0 34 15.5 59.5t37.5 42t44 32t37.5 39t15.5 54.5q0 37 -26 62.5t-73 25.5q-13 0 -25 -1.5t-23 -5t-19.5 -6.5t-17 -9t-14 -9t-13 -10t-10 -9.5l-9.5 -9.5l-7 -8q-13 -13 -26 -1l-19 17q-12 10 0 26q2 4 7 9.5t21.5 21t35.5 27
t51.5 21t67.5 9.5q78 0 126 -42t48 -111q0 -36 -16.5 -65t-39.5 -47.5t-46 -34.5t-39.5 -35.5t-16.5 -41.5v-41q0 -20 -21 -20h-27zM160 47q0 24 17 40.5t40 16.5q24 0 40.5 -16.5t16.5 -40.5q0 -23 -16.5 -40t-40.5 -17q-23 0 -40 17t-17 40z" />
    <glyph glyph-name="at" unicode="@" horiz-adv-x="987" 
d="M59 223q0 215 125.5 351t334.5 136q196 0 309 -118t113 -304q0 -108 -55 -188t-154 -80q-49 0 -77.5 22t-37.5 56h-8q-17 -34 -50 -56t-76 -22q-77 0 -126 58t-49 153q0 98 49.5 153.5t128.5 55.5q36 0 64.5 -13t39.5 -27l11 -13q1 4 2.5 11t2.5 10l2.5 7.5t3.5 6.5
t5 4.5t7.5 3t10.5 0.5h10q7 0 13 -6t6 -13v-213q0 -69 18 -95.5t54 -26.5q60 0 101.5 57t41.5 155q0 161 -94.5 263.5t-267.5 102.5q-181 0 -288 -116t-107 -315q0 -137 71.5 -237.5t192.5 -152.5q11 -5 12.5 -10t-3.5 -15l-11 -27q-6 -14 -20 -8q-139 58 -222 175t-83 275z
M372 230q0 -67 34 -105.5t83 -38.5q46 0 72 27t36 67v142q-4 6 -11.5 15.5t-35 25t-60.5 15.5q-52 0 -85 -39t-33 -109z" />
    <glyph glyph-name="A" unicode="A" horiz-adv-x="665" 
d="M24 0q-11 0 -16.5 8t-0.5 18l304 673q5 11 17 11h10q12 0 17 -11l302 -673q5 -10 -0.5 -18t-16.5 -8h-40q-13 0 -17 11l-74 165h-355l-73 -165q-4 -11 -17 -11h-40zM182 238h300q-24 55 -73 164t-73 164h-8z" />
    <glyph glyph-name="B" unicode="B" horiz-adv-x="623" 
d="M171 386h152q60 0 95.5 35.5t35.5 89.5q0 55 -35 87.5t-96 32.5h-152v-245zM169 67h176q60 0 96 36t36 91q0 53 -39.5 88t-96.5 35h-172v-250zM442 357v-2q49 -20 84 -60t35 -102q0 -84 -59 -138.5t-152 -54.5h-235q-8 0 -13.5 5.5t-5.5 13.5v662q0 8 5.5 13.5t13.5 5.5
h221q90 0 146.5 -52t56.5 -132q0 -100 -97 -159z" />
    <glyph glyph-name="C" unicode="C" horiz-adv-x="706" 
d="M52 349q0 150 105.5 255.5t255.5 105.5q133 0 242 -93q15 -15 1 -28l-27 -27q-11 -14 -26 1q-87 75 -191 75q-117 0 -198 -85t-81 -203q0 -117 81 -202t198 -85q61 0 104 18.5t87 56.5q14 11 26 -1l23 -23q6 -5 5.5 -13t-6.5 -14q-107 -97 -238 -97q-150 0 -255.5 104.5
t-105.5 254.5z" />
    <glyph glyph-name="D" unicode="D" horiz-adv-x="742" 
d="M96 19v662q0 8 5.5 13.5t12.5 5.5h224q145 0 248 -102.5t103 -246.5q0 -145 -103 -248t-248 -103h-224q-7 0 -12.5 5.5t-5.5 13.5zM172 69h157q123 0 201 79t78 203q0 123 -78 202t-201 79h-157v-563z" />
    <glyph glyph-name="E" unicode="E" horiz-adv-x="576" 
d="M96 19v662q0 8 5.5 13.5t13.5 5.5h394q8 0 13.5 -5.5t5.5 -13.5v-29q0 -8 -5.5 -13.5t-13.5 -5.5h-336v-244h287q8 0 13.5 -5.5t5.5 -13.5v-29q0 -8 -5.5 -13.5t-13.5 -5.5h-287v-255h336q8 0 13.5 -5.5t5.5 -13.5v-29q0 -8 -5.5 -13.5t-13.5 -5.5h-394q-8 0 -13.5 5.5
t-5.5 13.5z" />
    <glyph glyph-name="F" unicode="F" horiz-adv-x="558" 
d="M96 19v662q0 8 5.5 13.5t13.5 5.5h394q8 0 13.5 -5.5t5.5 -13.5v-29q0 -8 -5.5 -13.5t-13.5 -5.5h-336v-274h287q8 0 13.5 -5.5t5.5 -13.5v-29q0 -7 -5.5 -13t-13.5 -6h-287v-273q0 -7 -5.5 -13t-13.5 -6h-39q-8 0 -13.5 5.5t-5.5 13.5z" />
    <glyph glyph-name="G" unicode="G" horiz-adv-x="734" 
d="M52 349q0 150 105.5 255.5t255.5 105.5q133 0 242 -93q15 -15 1 -28l-28 -28q-11 -12 -26 1q-40 35 -90.5 56.5t-99.5 21.5q-117 0 -197.5 -84.5t-80.5 -202.5q0 -117 80.5 -203t197.5 -86q49 0 94 10.5t66 21.5l20 10v140h-115q-8 0 -13.5 5t-5.5 13v37q0 19 19 19h173
q7 0 12.5 -5.5t5.5 -13.5v-229q0 -10 -8 -16q-11 -7 -32 -18t-86 -29.5t-129 -18.5q-150 0 -255.5 104.5t-105.5 254.5z" />
    <glyph glyph-name="H" unicode="H" horiz-adv-x="752" 
d="M96 19v662q0 7 6 13t13 6h39q8 0 13.5 -5.5t5.5 -13.5v-292h406v292q0 8 5.5 13.5t13.5 5.5h39q7 0 13 -6t6 -13v-662q0 -7 -6 -13t-13 -6h-39q-8 0 -13.5 5.5t-5.5 13.5v303h-406v-303q0 -8 -5.5 -13.5t-13.5 -5.5h-39q-7 0 -13 6t-6 13z" />
    <glyph glyph-name="I" unicode="I" horiz-adv-x="270" 
d="M96 19v662q0 7 6 13t13 6h40q7 0 13 -6t6 -13v-662q0 -7 -6 -13t-13 -6h-40q-7 0 -13 6t-6 13z" />
    <glyph glyph-name="J" unicode="J" horiz-adv-x="464" 
d="M21 64q-9 14 1 25l20 23q15 18 34 -3q47 -52 106 -52q47 0 81 33.5t34 106.5v484q0 8 5.5 13.5t13.5 5.5h39q8 0 13.5 -5.5t5.5 -13.5v-482q0 -101 -53.5 -155t-138.5 -54q-101 0 -161 74z" />
    <glyph glyph-name="K" unicode="K" horiz-adv-x="601" 
d="M96 24v652q0 10 7 17t17 7h29q10 0 17 -7t7 -17v-289l312 303q8 10 19 10h49q14 0 18.5 -12t-6.5 -23l-316 -301l331 -333q7 -5 2.5 -18t-19.5 -13h-51q-13 0 -18 7l-321 329v-312q0 -10 -7 -17t-17 -7h-29q-10 0 -17 7t-7 17z" />
    <glyph glyph-name="L" unicode="L" horiz-adv-x="494" 
d="M96 19v662q0 8 5.5 13.5t13.5 5.5h39q8 0 13.5 -6t5.5 -13v-614h288q8 0 13.5 -5.5t5.5 -13.5v-29q0 -8 -5.5 -13.5t-13.5 -5.5h-346q-8 0 -13.5 5.5t-5.5 13.5z" />
    <glyph glyph-name="M" unicode="M" horiz-adv-x="862" 
d="M52 24l129 672q3 14 18 14h16q13 0 17 -11l198 -551h5l195 551q4 11 17 11h16q15 0 18 -14l129 -672q5 -24 -18 -24h-40q-14 0 -18 14l-89 515h-4l-184 -528q-4 -11 -17 -11h-18q-13 0 -17 11l-186 528h-4l-87 -515q-1 -5 -6.5 -9.5t-11.5 -4.5h-40q-23 0 -18 24z" />
    <glyph glyph-name="N" unicode="N" horiz-adv-x="762" 
d="M96 19v673q0 7 5.5 12.5t13.5 5.5h15q11 0 16 -8l445 -554h2v533q0 8 5.5 13.5t13.5 5.5h35q7 0 13 -6t6 -13v-673q0 -7 -5.5 -12.5t-13.5 -5.5h-8q-11 0 -16 8l-453 565h-1v-544q0 -8 -5.5 -13.5t-13.5 -5.5h-35q-7 0 -13 6t-6 13z" />
    <glyph glyph-name="O" unicode="O" horiz-adv-x="823" 
d="M52 349q0 150 104.5 255.5t254.5 105.5t255 -105.5t105 -255.5t-105 -254.5t-255 -104.5t-254.5 104.5t-104.5 254.5zM122 349q0 -119 85 -204t204 -85t204.5 85t85.5 204t-85.5 205t-204.5 86t-204 -86t-85 -205z" />
    <glyph glyph-name="P" unicode="P" horiz-adv-x="593" 
d="M96 19v662q0 8 5.5 13.5t13.5 5.5h221q92 0 158 -65t66 -156q0 -93 -65.5 -159t-157.5 -66h-165v-235q0 -7 -6 -13t-13 -6h-38q-8 0 -13.5 5.5t-5.5 13.5zM172 328h159q63 0 107.5 43t44.5 110q0 65 -44 104t-108 39h-159v-296z" />
    <glyph glyph-name="Q" unicode="Q" horiz-adv-x="823" 
d="M52 349q0 150 104.5 255.5t254.5 105.5t255 -105.5t105 -255.5q0 -109 -58.5 -197.5t-154.5 -131.5l117 -188q7 -10 1.5 -20t-17.5 -10h-50q-10 0 -16 10l-109 184q-33 -6 -73 -6q-150 0 -254.5 104.5t-104.5 254.5zM122 349q0 -119 85 -204t204 -85t204.5 85t85.5 204
t-85.5 205t-204.5 86t-204 -86t-85 -205z" />
    <glyph glyph-name="R" unicode="R" horiz-adv-x="650" 
d="M96 19v662q0 8 5.5 13.5t13.5 5.5h259q90 0 154 -62t64 -151q0 -68 -40.5 -122.5t-107.5 -81.5l137 -254q6 -10 0.5 -19.5t-17.5 -9.5h-48q-14 0 -22 15l-130 259h-191v-255q0 -7 -5.5 -13t-13.5 -6h-39q-8 0 -13.5 5.5t-5.5 13.5zM175 340h194q58 0 101 42.5t43 103.5
q0 57 -43 99t-101 42h-194v-287z" />
    <glyph glyph-name="S" unicode="S" horiz-adv-x="532" 
d="M63 71q-19 17 -6 34l15 19q15 20 32 6q85 -73 172 -73q60 0 97 33t37 81q0 49 -41 84t-134 74q-46 20 -74.5 36t-54 39.5t-36.5 54.5t-11 73q0 28 11.5 57t35 57t67 46t99.5 18q44 0 86.5 -13t63.5 -25l21 -13q20 -10 6 -34l-10 -17q-11 -19 -35 -5q-67 40 -133 40
q-71 0 -104.5 -35t-33.5 -75q0 -49 32 -78.5t103 -58.5q115 -47 168.5 -94t53.5 -128q0 -77 -63.5 -130.5t-152.5 -53.5q-53 0 -104.5 19.5t-72 34t-34.5 27.5z" />
    <glyph glyph-name="T" unicode="T" horiz-adv-x="514" 
d="M219 19v614h-174q-8 0 -13.5 5.5t-5.5 13.5v29q0 8 5.5 13.5t13.5 5.5h424q8 0 13.5 -5.5t5.5 -13.5v-29q0 -8 -5.5 -13.5t-13.5 -5.5h-174v-614q0 -7 -5.5 -13t-13.5 -6h-38q-8 0 -13.5 6t-5.5 13z" />
    <glyph glyph-name="U" unicode="U" horiz-adv-x="708" 
d="M89 254v427q0 7 5.5 13t13.5 6h38q8 0 13.5 -5.5t5.5 -13.5v-421q0 -87 51 -143t137 -56q87 0 138.5 55t51.5 142v423q0 8 5.5 13.5t13.5 5.5h38q8 0 13.5 -6t5.5 -13v-427q0 -115 -74 -189.5t-192 -74.5q-117 0 -190.5 74.5t-73.5 189.5z" />
    <glyph glyph-name="V" unicode="V" horiz-adv-x="663" 
d="M309 1l-302 673q-5 10 0.5 18t16.5 8h40q13 0 17 -11l249 -560h4l249 560q4 11 17 11h40q11 0 16.5 -8t0.5 -18l-304 -673q-5 -11 -17 -11h-10q-12 0 -17 11z" />
    <glyph glyph-name="W" unicode="W" horiz-adv-x="886" 
d="M218 4l-189 672q-3 10 2 17t16 7h42q14 0 18 -14l139 -518h4l167 531q4 11 17 11h18q13 0 17 -11l170 -531h4l136 518q4 14 18 14h42q11 0 16 -7t2 -17l-189 -672q-4 -14 -18 -14h-16q-12 0 -17 11l-173 541h-5l-170 -541q-5 -11 -17 -11h-16q-14 0 -18 14z" />
    <glyph glyph-name="X" unicode="X" horiz-adv-x="572" 
d="M35 28l203 331l-195 313q-6 10 -1 19t18 9h54q12 0 17 -9l154 -265h1l156 265q5 9 17 9h54q13 0 18 -9t-1 -19l-195 -313l202 -331q6 -10 1 -19t-18 -9h-46q-12 0 -17 9l-171 283h-1l-169 -283q-5 -9 -17 -9h-46q-13 0 -18.5 9t0.5 19z" />
    <glyph glyph-name="Y" unicode="Y" horiz-adv-x="574" 
d="M248 19v318l-241 334q-6 10 -1 19.5t17 9.5h47q9 0 16 -9l202 -279l202 279q7 9 16 9h47q12 0 17 -9.5t-1 -19.5l-244 -333v-319q0 -7 -5.5 -13t-13.5 -6h-39q-8 0 -13.5 5.5t-5.5 13.5z" />
    <glyph glyph-name="Z" unicode="Z" horiz-adv-x="528" 
d="M27 19v8q0 9 5 19l358 581v3h-315q-7 0 -13 6t-6 13v32q0 7 6 13t13 6h405q8 0 13.5 -6t5.5 -13v-3q0 -9 -5 -19l-364 -588v-1h330q8 0 13.5 -5.5t5.5 -13.5v-32q0 -8 -5.5 -13.5t-13.5 -5.5h-414q-8 0 -13.5 6t-5.5 13z" />
    <glyph glyph-name="bracketleft" unicode="[" horiz-adv-x="331" 
d="M148 -175h137q8 0 13.5 -5.5t5.5 -12.5v-26q0 -7 -6 -13t-13 -6h-186q-7 0 -13 6t-6 13v900q0 7 6 13t13 6h186q7 0 13 -6t6 -13v-25q0 -8 -5.5 -13.5t-13.5 -5.5h-137v-812z" />
    <glyph glyph-name="backslash" unicode="\" horiz-adv-x="386" 
d="M256 13l-195 662q-3 10 2 17.5t16 7.5h32q14 0 18 -13l196 -662q3 -10 -2.5 -17.5t-15.5 -7.5h-33q-14 0 -18 13z" />
    <glyph glyph-name="bracketright" unicode="]" horiz-adv-x="331" 
d="M46 -175h137v812h-137q-8 0 -13.5 5.5t-5.5 13.5v25q0 7 5.5 13t13.5 6h186q8 0 13.5 -6t5.5 -13v-900q0 -7 -5.5 -13t-13.5 -6h-186q-8 0 -13.5 6t-5.5 13v26q0 7 5.5 12.5t13.5 5.5z" />
    <glyph glyph-name="asciicircum" unicode="^" horiz-adv-x="524" 
d="M60 398q-12 0 -17 9t1 19l201 278q6 10 17 10h5q11 0 17 -10l196 -278q6 -10 1 -19t-17 -9h-33q-12 0 -19 11l-149 211l-151 -211q-8 -11 -19 -11h-33z" />
    <glyph glyph-name="underscore" unicode="_" horiz-adv-x="453" 
d="M58 -29q0 19 19 19h299q19 0 19 -19v-16q0 -8 -5.5 -13t-13.5 -5h-299q-8 0 -13.5 5t-5.5 13v16z" />
    <glyph glyph-name="grave" unicode="`" horiz-adv-x="302" 
d="M237 559l-161 67q-14 5 -6 21l18 36q3 6 12.5 6.5t13.5 -3.5l150 -84q12 -6 6 -19l-10 -22q-5 -10 -23 -2z" />
    <glyph glyph-name="a" unicode="a" horiz-adv-x="471" 
d="M42 140q0 68 49 110.5t136 42.5q22 0 46.5 -3.5t38.5 -7.5l14 -4q1 69 -14 98t-62 29q-56 0 -137 -27q-15 -6 -22 12l-10 27q-5 16 14 25q69 30 159 30q85 0 114 -43.5t29 -150.5v-256q0 -9 -6.5 -15.5t-15.5 -6.5h-19q-14 0 -19 17l-9 31q-59 -59 -143 -59
q-62 0 -102.5 41.5t-40.5 109.5zM115 140q0 -36 23 -60t60 -24q40 0 75.5 18.5t51.5 43.5v94q-34 18 -98 18q-50 0 -81 -23.5t-31 -66.5z" />
    <glyph glyph-name="b" unicode="b" horiz-adv-x="546" 
d="M78 22v656q0 9 6 15.5t15 6.5h30q8 0 15 -7t7 -15v-235q51 29 128 29q101 0 159.5 -68t58.5 -172q0 -100 -59.5 -171.5t-147.5 -71.5q-42 0 -78.5 15t-51.5 30l-16 15l-6 -30q-3 -19 -20 -19h-18q-9 0 -15.5 6.5t-6.5 15.5zM151 132q2 -3 5.5 -8t16.5 -18.5t27 -23.5
t36.5 -18t45.5 -8q61 0 100.5 52.5t39.5 122.5q0 73 -41 123.5t-113 50.5q-28 0 -57.5 -7.5t-44.5 -14.5l-15 -7v-244z" />
    <glyph glyph-name="c" unicode="c" horiz-adv-x="500" 
d="M48 230q0 102 67 172t167 70q101 0 168 -76q15 -18 -4 -33l-16 -15q-15 -13 -33 7q-44 50 -116 50q-66 0 -112 -51t-46 -123q0 -73 45 -124t110 -51q32 0 58.5 12t38 22.5t29.5 31.5q17 20 39 -2l6 -6q16 -16 6 -32q-28 -41 -73.5 -67t-100.5 -26q-102 0 -167.5 68
t-65.5 173z" />
    <glyph glyph-name="d" unicode="d" horiz-adv-x="547" 
d="M49 232q0 104 58.5 172t160.5 68q34 0 66 -7t47 -15l15 -7v235q0 8 6.5 15t15.5 7h28q9 0 16 -7t7 -15v-656q0 -9 -7 -15.5t-16 -6.5h-18q-13 0 -20 19l-6 30q-7 -7 -19 -17t-50 -26.5t-77 -16.5q-87 0 -147 71.5t-60 171.5zM124 231q0 -70 40 -122.5t101 -52.5
q37 0 69.5 18.5t47.5 37.5l14 18v249q-54 26 -118 26q-71 0 -112.5 -50.5t-41.5 -123.5z" />
    <glyph glyph-name="e" unicode="e" horiz-adv-x="525" 
d="M49 231q0 101 61 171t163 70q91 0 150 -59.5t59 -150.5q0 -12 -2 -28q-2 -20 -21 -20h-336q2 -60 46 -109t105 -49q67 0 125 38q13 9 19 9.5t16 -12.5l12 -17q6 -9 7 -12t-1 -8.5t-10 -11.5q-67 -53 -169 -53t-163 69.5t-61 172.5zM124 273h284q-2 53 -40 92.5t-95 39.5
q-58 0 -100 -38.5t-49 -93.5z" />
    <glyph glyph-name="f" unicode="f" horiz-adv-x="374" 
d="M120 22v376h-74q-9 0 -15.5 6.5t-6.5 15.5v20q0 10 6.5 16t15.5 6h74v73q0 86 39.5 130.5t114.5 44.5q77 0 127 -48q13 -13 4 -26l-19 -24q-10 -14 -29 -1q-44 32 -85 32q-78 0 -78 -108v-73h137q9 0 15.5 -6t6.5 -16v-20q0 -9 -6.5 -15.5t-15.5 -6.5h-137v-376
q0 -9 -6.5 -15.5t-15.5 -6.5h-30q-9 0 -15.5 6.5t-6.5 15.5z" />
    <glyph glyph-name="g" unicode="g" horiz-adv-x="547" 
d="M124 232q0 -75 44 -125t110 -50q28 0 57.5 9.5t44.5 19.5l15 9v253q-5 6 -15 15.5t-42 25t-65 15.5q-67 0 -108 -51t-41 -121zM469 440v-443q0 -111 -57.5 -163.5t-144.5 -52.5q-49 0 -93.5 19.5t-67.5 40.5q-15 13 -5 27l20 29q11 18 30 1q58 -49 116 -49q59 0 94 35.5
t35 112.5v33q-52 -41 -128 -41q-94 0 -156.5 70t-62.5 172q0 101 61.5 171t154.5 70q37 0 71.5 -12t50.5 -24l16 -11l7 21q9 16 22 16h14q9 0 16 -7t7 -15z" />
    <glyph glyph-name="h" unicode="h" horiz-adv-x="539" 
d="M78 22v656q0 8 6.5 15t15.5 7h30q8 0 15 -7t7 -15v-265q6 7 17.5 16.5t50 26t79.5 16.5q167 0 167 -206v-244q0 -9 -7 -15.5t-15 -6.5h-31q-9 0 -15.5 6.5t-6.5 15.5v244q0 139 -97 139q-39 0 -74.5 -16.5t-51.5 -32.5l-16 -17v-317q0 -9 -7 -15.5t-15 -6.5h-30
q-9 0 -15.5 6.5t-6.5 15.5z" />
    <glyph glyph-name="i" unicode="i" horiz-adv-x="230" 
d="M113 581q-22 0 -38 16t-16 38q0 24 15.5 40t38.5 16t39 -16t16 -40q0 -22 -16 -38t-39 -16zM78 22v418q0 8 6.5 15t15.5 7h30q8 0 15 -7t7 -15v-418q0 -9 -7 -15.5t-15 -6.5h-30q-9 0 -15.5 6.5t-6.5 15.5z" />
    <glyph glyph-name="j" unicode="j" horiz-adv-x="230" 
d="M114 581q-23 0 -39 16t-16 38q0 24 16 40t39 16t38.5 -16t15.5 -40q0 -22 -16 -38t-38 -16zM152 440v-490q0 -170 -131 -198q-17 -3 -21 12l-10 30q-7 19 14 27q39 14 56.5 40t17.5 82v497q0 10 6.5 16t15.5 6h30q9 0 15.5 -6.5t6.5 -15.5z" />
    <glyph glyph-name="k" unicode="k" horiz-adv-x="484" 
d="M78 22v656q0 8 6.5 15t15.5 7h30q8 0 15 -7t7 -15v-391l192 161q16 14 28 14h56q14 0 16 -12t-5 -16l-213 -177l229 -228q8 -6 5 -17.5t-17 -11.5h-57q-12 0 -23 9l-211 223v-210q0 -9 -7 -15.5t-15 -6.5h-30q-9 0 -15.5 6.5t-6.5 15.5z" />
    <glyph glyph-name="l" unicode="l" horiz-adv-x="240" 
d="M83 22v656q0 8 6.5 15t15.5 7h30q8 0 15 -7t7 -15v-656q0 -9 -7 -15.5t-15 -6.5h-30q-9 0 -15.5 6.5t-6.5 15.5z" />
    <glyph glyph-name="m" unicode="m" horiz-adv-x="827" 
d="M78 22v418q0 8 6.5 15t15.5 7h16q15 0 18 -14l10 -35q5 7 16 16.5t48 26t79 16.5q50 0 81.5 -17.5t54.5 -55.5l7 7q8 6 17.5 13.5t25.5 17t32.5 17.5t38.5 13t44 5q94 0 130 -53.5t36 -152.5v-244q0 -9 -6.5 -15.5t-15.5 -6.5h-30q-9 0 -15.5 6.5t-6.5 15.5v244
q0 139 -98 139q-21 0 -40.5 -4.5t-35 -14t-24.5 -16t-22 -17.5l-12 -11q6 -30 6 -76v-244q0 -9 -6.5 -15.5t-15.5 -6.5h-30q-8 0 -15 6.5t-7 15.5v244q0 139 -104 139q-36 0 -67 -16t-44 -32l-13 -16v-319q0 -9 -7 -15.5t-15 -6.5h-30q-9 0 -15.5 6.5t-6.5 15.5z" />
    <glyph glyph-name="n" unicode="n" horiz-adv-x="539" 
d="M78 22v418q0 8 6.5 15t15.5 7h16q15 0 18 -14l10 -35q7 7 19.5 16.5t52.5 26t83 16.5q94 0 130.5 -53.5t36.5 -152.5v-244q0 -9 -7 -15.5t-15 -6.5h-30q-9 0 -15.5 6.5t-6.5 15.5v254q0 66 -23.5 97.5t-74.5 31.5q-39 0 -74.5 -16t-51.5 -32l-16 -16v-319q0 -9 -7 -15.5
t-15 -6.5h-30q-9 0 -15.5 6.5t-6.5 15.5z" />
    <glyph glyph-name="o" unicode="o" horiz-adv-x="560" 
d="M48 232q0 98 68 169t164 71t164 -71t68 -169q0 -99 -68 -171t-164 -72t-164 72t-68 171zM121 232q0 -73 45.5 -124.5t113.5 -51.5q67 0 112.5 51.5t45.5 124.5q0 71 -45.5 122t-112.5 51t-113 -51t-46 -122z" />
    <glyph glyph-name="p" unicode="p" horiz-adv-x="546" 
d="M151 27v-243q0 -9 -7 -15.5t-15 -6.5h-29q-9 0 -15.5 6.5t-6.5 15.5v656q0 8 6.5 15t15.5 7h17q13 0 19 -15l7 -22q6 5 17.5 13t48 21t73.5 13q93 0 154 -70t61 -171q0 -102 -62 -172t-156 -70q-34 0 -66 9.5t-47 19.5zM151 96q53 -40 117 -40q67 0 110.5 50t43.5 126
q0 71 -41 122t-108 51q-33 0 -63.5 -14t-44.5 -28l-14 -14v-253z" />
    <glyph glyph-name="q" unicode="q" horiz-adv-x="547" 
d="M49 231q0 101 61.5 171t154.5 70q37 0 71.5 -12t50.5 -24l16 -11l7 21q9 16 22 16h14q9 0 16 -7t7 -15v-656q0 -9 -7 -15.5t-16 -6.5h-28q-9 0 -15.5 6.5t-6.5 15.5v246q-52 -41 -128 -41q-94 0 -156.5 70t-62.5 172zM124 232q0 -75 44 -125t110 -50q28 0 57.5 9.5
t44.5 19.5l16 9v253q-5 6 -15 15.5t-42.5 25t-65.5 15.5q-67 0 -108 -51t-41 -121z" />
    <glyph glyph-name="r" unicode="r" horiz-adv-x="386" 
d="M78 22v418q0 8 6.5 15t15.5 7h16q16 0 20 -16l8 -33q5 7 15.5 16.5t47 26t79.5 16.5q16 0 29.5 -1.5t28 -5t21 -11.5t2.5 -19l-13 -36q-7 -20 -27 -11q-29 13 -50 13q-25 0 -47 -6t-35.5 -14.5t-24 -17.5t-14.5 -15l-4 -6v-320q0 -9 -7 -15.5t-15 -6.5h-30
q-9 0 -15.5 6.5t-6.5 15.5z" />
    <glyph glyph-name="s" unicode="s" horiz-adv-x="406" 
d="M207 -11q-92 0 -153 56q-9 9 -3 20l14 26q10 18 27 6q55 -41 115 -41q36 0 57.5 15.5t21.5 42.5q0 30 -22 48t-81 47q-32 16 -47.5 25t-39 27t-34 40t-10.5 50q0 44 35.5 82.5t107.5 38.5q83 0 132 -36q15 -12 5 -31l-10 -19q-5 -9 -15 -11t-17 3q-45 27 -95 27
q-35 0 -51.5 -15.5t-16.5 -35.5q0 -28 19 -43.5t69 -38.5q34 -16 47.5 -22.5t38 -22t35 -28.5t19.5 -33.5t9 -44.5q0 -56 -44 -94t-113 -38z" />
    <glyph glyph-name="t" unicode="t" horiz-adv-x="379" 
d="M108 398h-61q-10 0 -16.5 6.5t-6.5 15.5v20q0 22 23 22h61v128q0 9 6.5 15t15.5 7l31 2q9 1 15 -6t6 -16v-130h136q10 0 16.5 -6t6.5 -16v-20q0 -9 -6.5 -15.5t-16.5 -6.5h-136v-276q0 -66 41 -66q43 0 91 30q19 12 29 -9l9 -21q8 -19 -8 -30q-53 -37 -130 -37
q-61 0 -83.5 33.5t-22.5 94.5v281z" />
    <glyph glyph-name="u" unicode="u" horiz-adv-x="526" 
d="M73 191v249q0 9 6.5 15.5t15.5 6.5h30q9 0 15.5 -7t6.5 -15v-250q0 -69 23.5 -101.5t73.5 -32.5q72 0 131 67v317q0 9 6 15.5t15 6.5h31q8 0 14.5 -7t6.5 -15v-418q0 -9 -6.5 -15.5t-14.5 -6.5h-16q-16 0 -21 20l-9 29q-57 -60 -143 -60q-94 0 -129.5 51t-35.5 151z" />
    <glyph glyph-name="v" unicode="v" horiz-adv-x="490" 
d="M221 1l-195 435q-5 10 -0.5 18t17.5 8h35q16 0 21 -13l143 -340h2l152 340q5 13 18 13h32q13 0 18 -7.5t0 -18.5l-199 -435q-4 -12 -19 -12h-6q-15 0 -19 12z" />
    <glyph glyph-name="w" unicode="w" horiz-adv-x="702" 
d="M351 348h-2l-136 -347q-4 -12 -19 -12h-6q-15 0 -20 12l-128 435q-7 26 18 26h34q18 0 21 -13l85 -314h2l130 326q4 11 20 11h6q15 0 19 -11l129 -327h2l85 315q3 13 19 13h35q25 0 16 -26l-126 -435q-3 -12 -19 -12h-6q-14 0 -20 12z" />
    <glyph glyph-name="x" unicode="x" horiz-adv-x="476" 
d="M55 0q-15 0 -19.5 10t4.5 20l154 205l-150 197q-8 11 -3.5 20.5t18.5 9.5h43q13 0 18 -9l116 -160h2l120 160q7 9 18 9h43q14 0 18.5 -9.5t-3.5 -20.5l-150 -195l151 -207q8 -11 3.5 -20.5t-18.5 -9.5h-38q-10 0 -18 10l-126 174h-2l-125 -175q-7 -9 -18 -9h-38z" />
    <glyph glyph-name="y" unicode="y" horiz-adv-x="500" 
d="M198 1l-169 436q-10 25 18 25h42q15 0 20 -13l131 -367h2l156 367q5 13 20 13h37q13 0 18 -7.5t0 -18.5l-289 -660q-6 -14 -20 -14h-36q-13 0 -18.5 8t-0.5 20z" />
    <glyph glyph-name="z" unicode="z" horiz-adv-x="414" 
d="M38 22v2q0 9 6 18l234 354v3h-209q-8 0 -13.5 6.5t-5.5 15.5v19q0 22 19 22h293q21 0 21 -20q0 -7 -4 -12l-236 -364v-3h193q22 0 22 -22v-19q0 -22 -22 -22h-276q-9 0 -15.5 6.5t-6.5 15.5z" />
    <glyph glyph-name="braceleft" unicode="{" horiz-adv-x="403" 
d="M115 -26v146q0 30 -23.5 52t-45.5 26q-15 2 -15 17v31q0 13 15 15q22 4 45.5 26t23.5 52v146q0 52 16 93t40.5 65t58 40t65 21.5t65.5 5.5q20 0 20 -17v-19q0 -16 -13 -18q-80 -12 -131.5 -54t-51.5 -117v-118q0 -35 -7.5 -60.5t-22 -40t-24.5 -21t-25 -12.5v-7
q15 -6 25 -12.5t24.5 -21t22 -40t7.5 -60.5v-118q0 -75 51.5 -116.5t131.5 -53.5q13 -2 13 -17v-20q0 -7 -6 -12t-14 -5q-34 0 -65.5 5.5t-65 21t-58 39.5t-40.5 65t-16 93z" />
    <glyph glyph-name="bar" unicode="|" horiz-adv-x="202" 
d="M79 -220v961q0 8 5.5 13.5t13.5 5.5h7q8 0 13 -5.5t5 -13.5v-961q0 -7 -5.5 -12.5t-13.5 -5.5h-6q-8 0 -13.5 5.5t-5.5 12.5z" />
    <glyph glyph-name="braceright" unicode="}" horiz-adv-x="403" 
d="M219 92q0 35 7.5 60.5t22 40t24.5 21t25 12.5v7q-15 6 -25 12.5t-24.5 21t-22 40t-7.5 60.5v118q0 75 -51.5 117t-131.5 54q-13 2 -13 18v19q0 17 20 17q34 0 65.5 -5.5t65 -21.5t58 -40t40.5 -65t16 -93v-146q0 -30 23.5 -52t45.5 -26q15 -2 15 -15v-31q0 -15 -15 -17
q-22 -4 -45.5 -26t-23.5 -52v-146q0 -52 -16 -93t-40.5 -65t-58 -39.5t-65 -21t-65.5 -5.5q-8 0 -14 5t-6 12v20q0 15 13 17q80 12 131.5 53.5t51.5 116.5v118z" />
    <glyph glyph-name="asciitilde" unicode="~" horiz-adv-x="564" 
d="M82 228q-4 3 -11 8.5t-10 8.5q-13 11 -2 24q2 4 6 10t18 22t28.5 28t36.5 22t44 10q45 0 108 -45q48 -34 73 -34q9 0 18 2.5t17 7.5t13.5 9.5t12.5 13t9.5 12t8.5 12.5l6 9q12 17 27 4l21 -17q13 -11 2 -24q-2 -4 -6 -10t-18 -22t-28.5 -28t-37 -22t-45.5 -10
q-42 0 -104 43q-2 2 -11.5 8.5t-15 10t-14.5 8.5t-17.5 7t-17.5 2t-18 -2.5t-16.5 -7.5t-13 -9.5t-12.5 -13t-9.5 -12t-8.5 -12t-6 -9.5q-12 -17 -27 -4z" />
    <glyph glyph-name="uni00A0" unicode="&#xa0;" horiz-adv-x="240" 
 />
    <glyph glyph-name="exclamdown" unicode="&#xa1;" horiz-adv-x="236" 
d="M118 358q-24 0 -40.5 16.5t-16.5 40.5q0 23 16.5 40t40.5 17q23 0 40 -17t17 -40q0 -24 -17 -40.5t-40 -16.5zM93 174q1 6 6.5 11t12.5 5h12q7 0 12.5 -5t6.5 -11l19 -279v-114q0 -7 -6 -13t-13 -6h-50q-7 0 -13 6t-6 13v112z" />
    <glyph glyph-name="cent" unicode="&#xa2;" horiz-adv-x="537" 
d="M67 230q0 101 69.5 171.5t164.5 70.5q11 0 16 -1l13 48q2 9 10.5 13.5t16.5 0.5l8 -2q9 -2 13.5 -9.5t1.5 -16.5l-12 -43q59 -18 101 -66q15 -18 -4 -33l-12 -11q-9 -7 -15.5 -7t-8.5 1.5t-9 9.5q-27 29 -69 41l-92 -336q15 -5 38 -5q32 0 58.5 12t38 22.5t29.5 31.5
q17 20 39 -2l6 -6q16 -16 6 -32q-28 -41 -73.5 -67t-100.5 -26q-26 0 -58 7l-31 -115q-2 -8 -10 -13t-16 -2l-9 3q-19 7 -14 25l32 120q-58 29 -92.5 86.5t-34.5 129.5zM142 231q0 -44 19 -83.5t52 -63.5l86 321q-65 -1 -111 -52.5t-46 -121.5z" />
    <glyph glyph-name="sterling" unicode="&#xa3;" 
d="M129 19v18q46 87 46 181q0 34 -7 76h-44q-7 0 -12.5 5.5t-5.5 13.5v7q0 8 5.5 13.5t12.5 5.5h32q-1 4 -10 34t-15.5 64.5t-6.5 67.5q0 93 59.5 149t149.5 56q86 0 167 -71q15 -11 2 -26l-21 -26q-15 -19 -29 -1q-6 6 -17.5 16t-43.5 26t-62 16q-58 0 -96.5 -39
t-38.5 -101q0 -34 7.5 -70t16 -63.5t9.5 -31.5h164q8 0 13.5 -5.5t5.5 -13.5v-8q0 -8 -5.5 -13t-13.5 -5h-153q6 -36 6 -71q0 -97 -28 -159h250q8 0 13 -5.5t5 -13.5v-26q0 -8 -5.5 -13.5t-12.5 -5.5h-318q-8 0 -13.5 6t-5.5 13z" />
    <glyph glyph-name="currency" unicode="&#xa4;" horiz-adv-x="486" 
d="M106 176l-20 19q-5 5 -5 13.5t5 13.5l41 41q-19 31 -19 69q0 37 19 69l-41 41q-5 5 -5 13.5t5 13.5l20 19q5 5 13.5 5t13.5 -5l41 -41q32 20 70 20q37 0 68 -19l42 42q12 12 26 -1l20 -20q13 -13 0 -26l-41 -41q19 -31 19 -70t-19 -70l41 -41q13 -13 0 -26l-20 -20
q-14 -13 -26 -1l-42 42q-33 -19 -69 -19q-37 0 -69 20l-41 -41q-5 -5 -13.5 -5t-13.5 5zM243 260q30 0 51 21t21 51t-21 51t-51 21t-51 -21t-21 -51t21 -51t51 -21z" />
    <glyph glyph-name="yen" unicode="&#xa5;" 
d="M129 123q-7 0 -12.5 5.5t-5.5 13.5v7q0 8 5.5 13.5t12.5 5.5h131v75h-131q-7 0 -12.5 5.5t-5.5 13.5v7q0 8 5.5 13.5t12.5 5.5h131v49l-241 334q-6 10 -1 19.5t17 9.5h47q9 0 16 -9l202 -279l202 279q7 9 16 9h47q12 0 17 -9.5t-1 -19.5l-244 -333v-50h129q8 0 13.5 -5.5
t5.5 -13.5v-8q0 -8 -5.5 -13t-13.5 -5h-129v-75h129q8 0 13.5 -5.5t5.5 -13.5v-8q0 -8 -5.5 -13t-13.5 -5h-129v-104q0 -7 -5.5 -13t-13.5 -6h-39q-8 0 -13.5 5.5t-5.5 13.5v104h-131z" />
    <glyph glyph-name="brokenbar" unicode="&#xa6;" horiz-adv-x="210" 
d="M102 393q-8 0 -13.5 5.5t-5.5 12.5v330q0 8 5.5 13.5t13.5 5.5h7q8 0 13 -5.5t5 -13.5v-330q0 -7 -5.5 -12.5t-13.5 -5.5h-6zM83 111q0 8 5.5 13.5t13.5 5.5h7q8 0 13 -5.5t5 -13.5v-331q0 -7 -5.5 -12.5t-13.5 -5.5h-6q-8 0 -13.5 5.5t-5.5 12.5v331z" />
    <glyph glyph-name="section" unicode="&#xa7;" horiz-adv-x="568" 
d="M92 -110q15 18 30 3q9 -9 27 -23t60.5 -33t81.5 -19q57 0 95.5 25.5t38.5 73.5q0 46 -42.5 83t-132.5 75q-176 74 -176 195q0 24 8 46t20 36t24 25t20 16l8 5q-3 2 -8.5 6t-19.5 18t-24.5 29.5t-19 40t-8.5 50.5q0 62 52.5 115t160.5 53q44 0 86.5 -13t63.5 -25l21 -13
q7 -3 10 -10.5t-3 -22.5l-15 -23q-13 -17 -33 -6q-81 46 -131 46q-73 0 -105.5 -30.5t-32.5 -69.5q0 -76 135 -131q116 -48 169 -91t53 -111q0 -37 -21.5 -71.5t-42.5 -50.5l-21 -16q3 -2 9 -6.5t20.5 -19t26 -31t20.5 -42.5t9 -53q0 -77 -61 -123t-155 -46q-53 0 -104.5 19
t-72 33.5t-34.5 27.5q-19 17 -6 34zM148 273q0 -24 8.5 -42t31.5 -34.5t41.5 -26.5t61.5 -30.5t69 -33.5q3 1 7 3.5t15.5 11.5t20 19t15.5 27.5t7 36.5q0 42 -40 71.5t-135 69.5q-28 12 -42 19q-7 -3 -17 -9t-26.5 -29.5t-16.5 -52.5z" />
    <glyph glyph-name="dieresis" unicode="&#xa8;" horiz-adv-x="414" 
d="M320 581q-21 0 -36 15t-15 36q0 22 15 37t36 15q22 0 37 -15t15 -37q0 -21 -15 -36t-37 -15zM127 581q-21 0 -36 15t-15 36q0 22 15 37t36 15q22 0 37 -15t15 -37q0 -21 -15 -36t-37 -15z" />
    <glyph glyph-name="copyright" unicode="&#xa9;" horiz-adv-x="845" 
d="M63 350q0 149 105.5 254.5t253.5 105.5t254 -106t106 -254t-105.5 -253.5t-254.5 -105.5q-148 0 -253.5 105.5t-105.5 253.5zM123 350q0 -124 87.5 -211.5t211.5 -87.5t211.5 87.5t87.5 211.5t-87.5 211.5t-211.5 87.5t-211.5 -87.5t-87.5 -211.5zM244 348q0 78 55 133
t132 55q67 0 115 -38q16 -14 2 -29l-14 -18q-9 -12 -27 -1q-35 23 -74 23q-51 0 -85 -36t-34 -86q0 -52 34 -87t85 -35q38 0 71 22q19 12 29 -1l16 -19q13 -14 -1 -28q-49 -42 -117 -42q-77 0 -132 55t-55 132z" />
    <glyph glyph-name="ordfeminine" unicode="&#xaa;" horiz-adv-x="340" 
d="M138 404q-39 0 -64 26.5t-25 70.5q0 43 30.5 69.5t85.5 26.5q14 0 29 -2.5t23 -4.5l8 -3q0 44 -8.5 60.5t-36.5 16.5q-36 0 -86 -18q-11 -3 -15 11l-5 18q-3 10 7 15q3 2 14.5 6.5t36.5 9t52 4.5q26 0 44 -7.5t27 -17.5t13.5 -29.5t5 -32t0.5 -37.5v-8v-152
q0 -14 -13 -14h-18q-9 0 -12 10l-6 21q-42 -39 -87 -39zM144 451q23 0 45.5 12t33.5 26v56q-26 13 -61 13q-29 0 -48.5 -16t-19.5 -40q0 -22 14 -36.5t36 -14.5z" />
    <glyph glyph-name="guillemotleft" unicode="&#xab;" horiz-adv-x="433" 
d="M215 224q-8 11 0 24l109 148q7 12 18 12h14q13 0 17 -9.5t-2 -21.5l-74 -139l71 -147q6 -12 2 -21t-17 -9h-19q-9 0 -15 8zM156 69l-104 155q-8 11 0 24l109 148q7 12 18 12h14q13 0 17 -9.5t-2 -21.5l-74 -139l71 -147q6 -12 2 -21t-17 -9h-19q-9 0 -15 8z" />
    <glyph glyph-name="logicalnot" unicode="&#xac;" horiz-adv-x="590" 
d="M101 314q-7 0 -13 6t-6 13v28q0 7 6 13t13 6h380q8 0 13.5 -6t5.5 -13v-204q0 -7 -5.5 -12.5t-13.5 -5.5h-28q-8 0 -13.5 5.5t-5.5 12.5v157h-333z" />
    <glyph glyph-name="uni00AD" unicode="&#xad;" horiz-adv-x="383" 
d="M87 220q-8 0 -13.5 5t-5.5 13v19q0 19 19 19h209q19 0 19 -19v-19q0 -8 -5.5 -13t-13.5 -5h-209z" />
    <glyph glyph-name="registered" unicode="&#xae;" horiz-adv-x="845" 
d="M63 350q0 149 105.5 254.5t253.5 105.5t254 -106t106 -254t-105.5 -253.5t-254.5 -105.5q-148 0 -253.5 105.5t-105.5 253.5zM123 350q0 -124 87.5 -211.5t211.5 -87.5t211.5 87.5t87.5 211.5t-87.5 211.5t-211.5 87.5t-211.5 -87.5t-87.5 -211.5zM297 187v328
q0 8 5.5 13.5t13.5 5.5h142q50 0 86.5 -29.5t36.5 -82.5q0 -50 -25.5 -76t-55.5 -33q10 -19 30 -58.5t30 -59.5q5 -9 -0.5 -18t-16.5 -9h-34q-11 0 -18 14l-56 125h-74v-120q0 -8 -5.5 -13.5t-13.5 -5.5h-26q-8 0 -13.5 5.5t-5.5 13.5zM361 365h97q27 0 43.5 16.5t16.5 40.5
q0 26 -16 41.5t-44 15.5h-97v-114z" />
    <glyph glyph-name="macron" unicode="&#xaf;" horiz-adv-x="414" 
d="M79 583q-8 0 -13.5 5t-5.5 13v21q0 19 19 19h256q19 0 19 -19v-21q0 -8 -5.5 -13t-13.5 -5h-256z" />
    <glyph glyph-name="degree" unicode="&#xb0;" horiz-adv-x="364" 
d="M182 440q-56 0 -95.5 39.5t-39.5 95.5t39.5 95.5t95.5 39.5t95.5 -39.5t39.5 -95.5t-39.5 -95.5t-95.5 -39.5zM182 493q31 0 55.5 25t24.5 57q0 31 -24.5 55.5t-55.5 24.5q-32 0 -57 -24.5t-25 -55.5q0 -32 25 -57t57 -25z" />
    <glyph glyph-name="plusminus" unicode="&#xb1;" 
d="M267 267v117h-157q-8 0 -13.5 6t-5.5 13v28q0 7 5.5 13t13.5 6h157v148q0 7 5.5 12.5t13.5 5.5h28q8 0 13.5 -5.5t5.5 -12.5v-148h158q7 0 12.5 -5.5t5.5 -13.5v-28q0 -8 -5.5 -13.5t-12.5 -5.5h-158v-117q0 -7 -5.5 -12.5t-13.5 -5.5h-28q-8 0 -13.5 5.5t-5.5 12.5z
M90 80v28q0 8 6 13.5t13 5.5h381q7 0 12.5 -5.5t5.5 -13.5v-28q0 -8 -5.5 -13.5t-12.5 -5.5h-381q-7 0 -13 5.5t-6 13.5z" />
    <glyph glyph-name="twosuperior" unicode="&#xb2;" horiz-adv-x="286" 
d="M43 504q-10 0 -10 9v14l127 133q32 35 32 56q0 18 -14.5 32.5t-42.5 14.5q-32 0 -62 -30q-6 -6 -12 0l-20 21q-6 6 0 11q4 5 12 12.5t33.5 20t51.5 12.5q52 0 80 -25t28 -64t-49 -90l-81 -83h121q9 0 9 -10v-25q0 -9 -9 -9h-194z" />
    <glyph glyph-name="threesuperior" unicode="&#xb3;" horiz-adv-x="289" 
d="M137 494q-65 0 -103 41q-6 6 1 11l21 20q8 4 13 -1q39 -26 66 -26q24 0 42 12.5t18 32.5t-18.5 34t-54.5 14h-31q-10 0 -10 9v25q0 9 10 9h31q32 0 48.5 12.5t16.5 31.5q0 20 -16 32.5t-38 12.5q-32 0 -56 -24q-6 -6 -13 0l-20 18q-8 6 0 12q38 40 93 40q45 0 75 -23
t30 -60q0 -24 -13.5 -43.5t-32.5 -26.5v-2q21 -8 38 -28t17 -47q0 -37 -31.5 -61.5t-82.5 -24.5z" />
    <glyph glyph-name="acute" unicode="&#xb4;" horiz-adv-x="302" 
d="M83 561l-10 22q-6 13 6 19l150 84q4 4 13.5 3.5t12.5 -6.5l18 -36q8 -16 -6 -21l-161 -67q-18 -8 -23 2z" />
    <glyph glyph-name="mu" unicode="&#xb5;" horiz-adv-x="531" 
d="M90 -216v656q0 9 6.5 15.5t15.5 6.5h30q9 0 15.5 -7t6.5 -15v-244q0 -140 97 -140q25 0 47.5 7t37 16.5t25.5 19.5t16 17l5 7v317q0 9 6 15.5t15 6.5h31q8 0 14.5 -7t6.5 -15v-418q0 -9 -6.5 -15.5t-14.5 -6.5h-16q-16 0 -21 20l-9 29q-2 -2 -5.5 -6.5t-17 -14.5
t-28.5 -18t-40 -14.5t-52 -6.5q-56 0 -91 20v-225q0 -9 -7 -15.5t-15 -6.5h-30q-9 0 -15.5 6.5t-6.5 15.5z" />
    <glyph glyph-name="paragraph" unicode="&#xb6;" horiz-adv-x="739" 
d="M251 282q-85 0 -146.5 61t-61.5 149q0 86 56.5 147t137.5 61h442q7 0 13 -6t6 -13v-20q0 -8 -5.5 -13.5t-13.5 -5.5h-111v-861q0 -8 -5.5 -13.5t-13.5 -5.5h-21q-8 0 -13.5 6t-5.5 13v861h-156v-861q0 -7 -5.5 -13t-13.5 -6h-20q-8 0 -13.5 6t-5.5 13v501h-44z" />
    <glyph glyph-name="periodcentered" unicode="&#xb7;" horiz-adv-x="240" 
d="M120 204q-23 0 -40 17t-17 40q0 24 17 40.5t40 16.5q24 0 40.5 -16.5t16.5 -40.5q0 -23 -16.5 -40t-40.5 -17z" />
    <glyph glyph-name="cedilla" unicode="&#xb8;" horiz-adv-x="247" 
d="M114 3h52l-45 -70q12 4 25 4q35 0 59.5 -20.5t24.5 -62.5t-31.5 -68t-77.5 -26q-52 0 -82 28q-7 7 0 21l8 15q7 14 21 5q20 -20 50 -20q25 0 40.5 12.5t15.5 32.5q0 45 -53 45q-24 0 -44 -10q-5 -2 -9.5 3t-2.5 10z" />
    <glyph glyph-name="onesuperior" unicode="&#xb9;" horiz-adv-x="184" 
d="M91 504q-10 0 -10 9v210l-41 -11q-9 -2 -10 4l-5 17q-1 7 3 11l70 56h28q9 0 9 -9v-278q0 -9 -9 -9h-35z" />
    <glyph glyph-name="ordmasculine" unicode="&#xba;" horiz-adv-x="352" 
d="M176 394q-59 0 -91.5 41.5t-32.5 115.5q0 75 32.5 116.5t91.5 41.5t91.5 -41.5t32.5 -116.5q0 -74 -32.5 -115.5t-91.5 -41.5zM176 442q33 0 51 28.5t18 80.5q0 53 -18 81.5t-51 28.5t-51 -28.5t-18 -81.5q0 -52 18 -80.5t51 -28.5z" />
    <glyph glyph-name="guillemotright" unicode="&#xbb;" horiz-adv-x="433" 
d="M227 91l71 147l-74 139q-6 12 -2 21.5t17 9.5h14q11 0 18 -12l109 -148q8 -13 0 -24l-104 -155q-6 -8 -15 -8h-19q-13 0 -17 9t2 21zM79 61q-13 0 -17 9t2 21l71 147l-74 139q-6 12 -2 21.5t17 9.5h14q11 0 18 -12l109 -148q8 -13 0 -24l-104 -155q-6 -8 -15 -8h-19z" />
    <glyph glyph-name="onequarter" unicode="&#xbc;" horiz-adv-x="634" 
d="M99 27l343 663q6 10 17 10h16q11 0 16.5 -8.5t0.5 -18.5l-345 -663q-5 -10 -17 -10h-14q-11 0 -16.5 8.5t-0.5 18.5zM113 404q-10 0 -10 9v210l-41 -11q-9 -2 -10 4l-5 17q-1 7 3 11l70 56h28q9 0 9 -9v-278q0 -9 -9 -9h-35zM326 68v32l169 193q3 3 8 3h24q10 0 10 -9
v-185h41q9 0 9 -8v-26q0 -8 -9 -8h-41v-51q0 -9 -10 -9h-32q-10 0 -10 9v50h-150q-9 0 -9 9zM381 103h106v118z" />
    <glyph glyph-name="onehalf" unicode="&#xbd;" horiz-adv-x="624" 
d="M99 27l343 663q6 10 17 10h16q11 0 16.5 -8.5t0.5 -18.5l-345 -663q-5 -10 -17 -10h-14q-11 0 -16.5 8.5t-0.5 18.5zM113 404q-10 0 -10 9v210l-41 -11q-9 -2 -10 4l-5 17q-1 7 3 11l70 56h28q9 0 9 -9v-278q0 -9 -9 -9h-35zM356 9v14l127 133q32 35 32 56
q0 18 -14.5 32.5t-42.5 14.5q-32 0 -62 -30q-6 -6 -12 0l-20 21q-6 6 0 11q4 5 12 12.5t33.5 20t51.5 12.5q52 0 80 -25t28 -64t-49 -90l-81 -83h121q9 0 9 -10v-25q0 -9 -9 -9h-194q-10 0 -10 9z" />
    <glyph glyph-name="threequarters" unicode="&#xbe;" horiz-adv-x="678" 
d="M156 394q-65 0 -103 41q-6 6 1 11l21 20q7 4 13 -1q39 -26 66 -26q24 0 42 12.5t18 32.5t-18.5 34t-54.5 14h-31q-10 0 -10 9v25q0 9 10 9h31q32 0 48.5 12.5t16.5 31.5q0 20 -16 32.5t-38 12.5q-32 0 -56 -24q-6 -6 -13 0l-20 18q-8 6 0 12q38 40 93 40q45 0 75 -23
t30 -60q0 -24 -14.5 -44t-33.5 -27v-2q22 -8 39.5 -27.5t17.5 -46.5q0 -37 -31.5 -61.5t-82.5 -24.5zM143 27l343 663q6 10 17 10h16q11 0 16.5 -8.5t0.5 -18.5l-345 -663q-5 -10 -17 -10h-14q-11 0 -16.5 8.5t-0.5 18.5zM370 68v32l169 193q3 3 8 3h24q10 0 10 -9v-185h41
q9 0 9 -8v-26q0 -8 -9 -8h-41v-51q0 -9 -10 -9h-32q-10 0 -10 9v50h-150q-9 0 -9 9zM425 103h106v118z" />
    <glyph glyph-name="questiondown" unicode="&#xbf;" horiz-adv-x="456" 
d="M250 358q-24 0 -40.5 16.5t-16.5 40.5q0 23 16.5 40t40.5 17q23 0 40 -17t17 -40q0 -24 -17 -40.5t-40 -16.5zM214 128v41q0 20 21 20h27q8 0 13.5 -5.5t5.5 -13.5v-42q0 -34 -15.5 -59.5t-37.5 -42t-44 -32t-37.5 -39t-15.5 -54.5q0 -37 26 -62.5t73 -25.5q13 0 25 1.5
t23 5t19.5 6.5t17 9t14 9t13 10t10 9.5t9.5 10.5l7 7q13 13 26 1l19 -17q12 -10 0 -26q-2 -4 -7 -9.5t-21.5 -21t-35.5 -27t-51.5 -21t-67.5 -9.5q-78 0 -126 42t-48 111q0 36 16.5 65t39.5 47.5t46 34.5t39.5 35.5t16.5 41.5z" />
    <glyph glyph-name="Agrave" unicode="&#xc0;" horiz-adv-x="665" 
d="M24 0q-11 0 -16.5 8t-0.5 18l304 673q5 11 17 11h10q12 0 17 -11l302 -673q5 -10 -0.5 -18t-16.5 -8h-40q-13 0 -17 11l-74 165h-355l-73 -165q-4 -11 -17 -11h-40zM182 238h300q-24 55 -73 164t-73 164h-8zM400 781l-161 67q-14 5 -6 21l18 36q3 6 12.5 6.5t13.5 -3.5
l150 -84q12 -6 6 -19l-10 -22q-5 -10 -23 -2z" />
    <glyph glyph-name="Aacute" unicode="&#xc1;" horiz-adv-x="665" 
d="M24 0q-11 0 -16.5 8t-0.5 18l304 673q5 11 17 11h10q12 0 17 -11l302 -673q5 -10 -0.5 -18t-16.5 -8h-40q-13 0 -17 11l-74 165h-355l-73 -165q-4 -11 -17 -11h-40zM182 238h300q-24 55 -73 164t-73 164h-8zM242 783l-10 22q-6 13 6 19l150 84q4 4 13.5 3.5t12.5 -6.5
l18 -36q8 -16 -6 -21l-161 -67q-18 -8 -23 2z" />
    <glyph glyph-name="Acircumflex" unicode="&#xc2;" horiz-adv-x="665" 
d="M24 0q-11 0 -16.5 8t-0.5 18l304 673q5 11 17 11h10q12 0 17 -11l302 -673q5 -10 -0.5 -18t-16.5 -8h-40q-13 0 -17 11l-74 165h-355l-73 -165q-4 -11 -17 -11h-40zM182 238h300q-24 55 -73 164t-73 164h-8zM208 775l-14 18q-7 10 6 19l120 94q5 4 13 4t13 -4l120 -94
q13 -9 6 -19q-2 -2 -5.5 -8t-6 -9t-6.5 -6.5t-8.5 -3t-10.5 4.5l-102 70l-102 -68q-15 -10 -23 2z" />
    <glyph glyph-name="Atilde" unicode="&#xc3;" horiz-adv-x="665" 
d="M24 0q-11 0 -16.5 8t-0.5 18l304 673q5 11 17 11h10q12 0 17 -11l302 -673q5 -10 -0.5 -18t-16.5 -8h-40q-13 0 -17 11l-74 165h-355l-73 -165q-4 -11 -17 -11h-40zM182 238h300q-24 55 -73 164t-73 164h-8zM208 795l-18 9q-11 6 -4 22q0 1 6 15t11.5 23t15.5 21t25 18.5
t34 6.5q26 0 46.5 -18.5t36 -37t27.5 -18.5q30 0 45 51q5 16 23 8l16 -8q10 -5 4 -26q-28 -81 -89 -81q-24 0 -45.5 19t-37.5 37.5t-27 18.5q-12 0 -22 -9t-13.5 -17.5t-8.5 -23.5q-6 -20 -25 -10z" />
    <glyph glyph-name="Adieresis" unicode="&#xc4;" horiz-adv-x="665" 
d="M24 0q-11 0 -16.5 8t-0.5 18l304 673q5 11 17 11h10q12 0 17 -11l302 -673q5 -10 -0.5 -18t-16.5 -8h-40q-13 0 -17 11l-74 165h-355l-73 -165q-4 -11 -17 -11h-40zM182 238h300q-24 55 -73 164t-73 164h-8zM437 788q-21 0 -36 15t-15 36q0 22 15 37t36 15q22 0 37 -15
t15 -37q0 -21 -15 -36t-37 -15zM226 788q-21 0 -36 15t-15 36q0 22 15 37t36 15q22 0 37 -15t15 -37q0 -21 -15 -36t-37 -15z" />
    <glyph glyph-name="Aring" unicode="&#xc5;" horiz-adv-x="665" 
d="M24 0q-11 0 -16.5 8t-0.5 18l304 673q5 11 17 11h10q12 0 17 -11l302 -673q5 -10 -0.5 -18t-16.5 -8h-40q-13 0 -17 11l-74 165h-355l-73 -165q-4 -11 -17 -11h-40zM182 238h300q-24 55 -73 164t-73 164h-8zM332 758q-46 0 -77.5 31.5t-31.5 77.5t31.5 77.5t77.5 31.5
q45 0 77 -31.5t32 -77.5t-32 -77.5t-77 -31.5zM332 806q24 0 41.5 18.5t17.5 42.5t-17.5 41.5t-41.5 17.5t-42.5 -17.5t-18.5 -41.5t18.5 -42.5t42.5 -18.5z" />
    <glyph glyph-name="AE" unicode="&#xc6;" horiz-adv-x="889" 
d="M8 0q-11 0 -14.5 8t2.5 18l401 643q11 17 20 24t27 7h378q8 0 13.5 -5.5t5.5 -13.5v-29q0 -8 -5.5 -13.5t-13.5 -5.5h-342v-244h293q7 0 13 -5.5t6 -13.5v-29q0 -8 -5.5 -13.5t-13.5 -5.5h-293v-255h342q8 0 13.5 -5.5t5.5 -13.5v-29q0 -8 -5.5 -13.5t-13.5 -5.5h-394
q-8 0 -13.5 5.5t-5.5 13.5v157h-237l-104 -165q-9 -11 -19 -11h-41zM208 238h201v328z" />
    <glyph glyph-name="Ccedilla" unicode="&#xc7;" horiz-adv-x="706" 
d="M52 349q0 150 105.5 255.5t255.5 105.5q133 0 242 -93q15 -15 1 -28l-27 -27q-11 -14 -26 1q-87 75 -191 75q-117 0 -198 -85t-81 -203q0 -117 81 -202t198 -85q41 0 77.5 11.5t58.5 25t55 38.5q13 10 24 3l30 -27q6 -5 5.5 -13t-6.5 -14q-97 -94 -234 -97l-36 -57
q12 4 25 4q36 0 61.5 -20.5t25.5 -62.5q0 -41 -33 -67.5t-79 -26.5q-52 0 -82 28q-7 7 0 21l8 15q7 14 21 5q20 -20 50 -20q56 0 56 41t-53 41q-28 0 -48 -10q-5 -2 -9.5 3t-2.5 10l47 98q-137 14 -229 116t-92 241z" />
    <glyph glyph-name="Egrave" unicode="&#xc8;" horiz-adv-x="576" 
d="M96 19v662q0 8 5.5 13.5t13.5 5.5h394q8 0 13.5 -5.5t5.5 -13.5v-29q0 -8 -5.5 -13.5t-13.5 -5.5h-336v-244h287q8 0 13.5 -5.5t5.5 -13.5v-29q0 -8 -5.5 -13.5t-13.5 -5.5h-287v-255h336q8 0 13.5 -5.5t5.5 -13.5v-29q0 -8 -5.5 -13.5t-13.5 -5.5h-394q-8 0 -13.5 5.5
t-5.5 13.5zM388 781l-161 67q-14 5 -6 21l18 36q3 6 12.5 6.5t13.5 -3.5l150 -84q12 -6 6 -19l-10 -22q-5 -10 -23 -2z" />
    <glyph glyph-name="Eacute" unicode="&#xc9;" horiz-adv-x="576" 
d="M96 19v662q0 8 5.5 13.5t13.5 5.5h394q8 0 13.5 -5.5t5.5 -13.5v-29q0 -8 -5.5 -13.5t-13.5 -5.5h-336v-244h287q8 0 13.5 -5.5t5.5 -13.5v-29q0 -8 -5.5 -13.5t-13.5 -5.5h-287v-255h336q8 0 13.5 -5.5t5.5 -13.5v-29q0 -8 -5.5 -13.5t-13.5 -5.5h-394q-8 0 -13.5 5.5
t-5.5 13.5zM231 783l-10 22q-6 13 6 19l150 84q4 4 13.5 3.5t12.5 -6.5l18 -36q8 -16 -6 -21l-161 -67q-18 -8 -23 2z" />
    <glyph glyph-name="Ecircumflex" unicode="&#xca;" horiz-adv-x="576" 
d="M96 19v662q0 8 5.5 13.5t13.5 5.5h394q8 0 13.5 -5.5t5.5 -13.5v-29q0 -8 -5.5 -13.5t-13.5 -5.5h-336v-244h287q8 0 13.5 -5.5t5.5 -13.5v-29q0 -8 -5.5 -13.5t-13.5 -5.5h-287v-255h336q8 0 13.5 -5.5t5.5 -13.5v-29q0 -8 -5.5 -13.5t-13.5 -5.5h-394q-8 0 -13.5 5.5
t-5.5 13.5zM186 775l-14 18q-7 10 6 19l120 94q5 4 13 4t13 -4l120 -94q13 -9 6 -19q-2 -2 -5.5 -8t-6 -9t-6.5 -6.5t-8.5 -3t-10.5 4.5l-102 70l-102 -68q-15 -10 -23 2z" />
    <glyph glyph-name="Edieresis" unicode="&#xcb;" horiz-adv-x="576" 
d="M96 19v662q0 8 5.5 13.5t13.5 5.5h394q8 0 13.5 -5.5t5.5 -13.5v-29q0 -8 -5.5 -13.5t-13.5 -5.5h-336v-244h287q8 0 13.5 -5.5t5.5 -13.5v-29q0 -8 -5.5 -13.5t-13.5 -5.5h-287v-255h336q8 0 13.5 -5.5t5.5 -13.5v-29q0 -8 -5.5 -13.5t-13.5 -5.5h-394q-8 0 -13.5 5.5
t-5.5 13.5zM417 788q-21 0 -36 15t-15 36q0 22 15 37t36 15q22 0 37 -15t15 -37q0 -21 -15 -36t-37 -15zM206 788q-21 0 -36 15t-15 36q0 22 15 37t36 15q22 0 37 -15t15 -37q0 -21 -15 -36t-37 -15z" />
    <glyph glyph-name="Igrave" unicode="&#xcc;" horiz-adv-x="270" 
d="M96 19v662q0 7 6 13t13 6h40q7 0 13 -6t6 -13v-662q0 -7 -6 -13t-13 -6h-40q-7 0 -13 6t-6 13zM202 781l-161 67q-14 5 -6 21l18 36q3 6 12.5 6.5t13.5 -3.5l150 -84q12 -6 6 -19l-10 -22q-5 -10 -23 -2z" />
    <glyph glyph-name="Iacute" unicode="&#xcd;" horiz-adv-x="270" 
d="M96 19v662q0 7 6 13t13 6h40q7 0 13 -6t6 -13v-662q0 -7 -6 -13t-13 -6h-40q-7 0 -13 6t-6 13zM45 783l-10 22q-6 13 6 19l150 84q4 4 13.5 3.5t12.5 -6.5l18 -36q8 -16 -6 -21l-161 -67q-18 -8 -23 2z" />
    <glyph glyph-name="Icircumflex" unicode="&#xce;" horiz-adv-x="270" 
d="M96 19v662q0 7 6 13t13 6h40q7 0 13 -6t6 -13v-662q0 -7 -6 -13t-13 -6h-40q-7 0 -13 6t-6 13zM10 775l-14 18q-7 10 6 19l120 94q5 4 13 4t13 -4l120 -94q13 -9 6 -19q-2 -2 -5.5 -8t-6 -9t-6.5 -6.5t-8.5 -3t-10.5 4.5l-102 70l-102 -68q-15 -10 -23 2z" />
    <glyph glyph-name="Idieresis" unicode="&#xcf;" horiz-adv-x="270" 
d="M96 19v662q0 7 6 13t13 6h40q7 0 13 -6t6 -13v-662q0 -7 -6 -13t-13 -6h-40q-7 0 -13 6t-6 13zM241 788q-21 0 -36 15t-15 36q0 22 15 37t36 15q22 0 37 -15t15 -37q0 -21 -15 -36t-37 -15zM30 788q-21 0 -36 15t-15 36q0 22 15 37t36 15q22 0 37 -15t15 -37
q0 -21 -15 -36t-37 -15z" />
    <glyph glyph-name="Eth" unicode="&#xd0;" horiz-adv-x="742" 
d="M96 19v305h-29q-7 0 -12.5 5.5t-5.5 13.5v7q0 8 5.5 13.5t12.5 5.5h29v312q0 8 5.5 13.5t12.5 5.5h224q145 0 248 -102.5t103 -246.5q0 -145 -103 -248t-248 -103h-224q-7 0 -12.5 5.5t-5.5 13.5zM172 69h150q123 0 203 79.5t80 202.5t-80 202t-203 79h-150v-263h211
q8 0 13.5 -5.5t5.5 -13.5v-8q0 -8 -5.5 -13t-13.5 -5h-211v-255z" />
    <glyph glyph-name="Ntilde" unicode="&#xd1;" horiz-adv-x="762" 
d="M96 19v673q0 7 5.5 12.5t13.5 5.5h15q11 0 16 -8l445 -554h2v533q0 8 5.5 13.5t13.5 5.5h35q7 0 13 -6t6 -13v-673q0 -7 -5.5 -12.5t-13.5 -5.5h-8q-11 0 -16 8l-453 565h-1v-544q0 -8 -5.5 -13.5t-13.5 -5.5h-35q-7 0 -13 6t-6 13zM268 795l-18 9q-11 6 -4 22q0 1 6 15
t11.5 23t15.5 21t25 18.5t34 6.5q26 0 46.5 -18.5t36 -37t27.5 -18.5q30 0 45 51q5 16 23 8l16 -8q10 -5 4 -26q-28 -81 -89 -81q-24 0 -45.5 19t-37.5 37.5t-27 18.5q-12 0 -22 -9t-13.5 -17.5t-8.5 -23.5q-6 -20 -25 -10z" />
    <glyph glyph-name="Ograve" unicode="&#xd2;" horiz-adv-x="823" 
d="M52 349q0 150 104.5 255.5t254.5 105.5t255 -105.5t105 -255.5t-105 -254.5t-255 -104.5t-254.5 104.5t-104.5 254.5zM122 349q0 -119 85 -204t204 -85t204.5 85t85.5 204t-85.5 205t-204.5 86t-204 -86t-85 -205zM488 781l-161 67q-14 5 -6 21l18 36q3 6 12.5 6.5
t13.5 -3.5l150 -84q12 -6 6 -19l-10 -22q-5 -10 -23 -2z" />
    <glyph glyph-name="Oacute" unicode="&#xd3;" horiz-adv-x="823" 
d="M52 349q0 150 104.5 255.5t254.5 105.5t255 -105.5t105 -255.5t-105 -254.5t-255 -104.5t-254.5 104.5t-104.5 254.5zM122 349q0 -119 85 -204t204 -85t204.5 85t85.5 204t-85.5 205t-204.5 86t-204 -86t-85 -205zM331 783l-10 22q-6 13 6 19l150 84q4 4 13.5 3.5
t12.5 -6.5l18 -36q8 -16 -6 -21l-161 -67q-18 -8 -23 2z" />
    <glyph glyph-name="Ocircumflex" unicode="&#xd4;" horiz-adv-x="823" 
d="M52 349q0 150 104.5 255.5t254.5 105.5t255 -105.5t105 -255.5t-105 -254.5t-255 -104.5t-254.5 104.5t-104.5 254.5zM122 349q0 -119 85 -204t204 -85t204.5 85t85.5 204t-85.5 205t-204.5 86t-204 -86t-85 -205zM286 775l-14 18q-7 10 6 19l120 94q5 4 13 4t13 -4
l120 -94q13 -9 6 -19q-2 -2 -5.5 -8t-6 -9t-6.5 -6.5t-8.5 -3t-10.5 4.5l-102 70l-102 -68q-15 -10 -23 2z" />
    <glyph glyph-name="Otilde" unicode="&#xd5;" horiz-adv-x="823" 
d="M52 349q0 150 104.5 255.5t254.5 105.5t255 -105.5t105 -255.5t-105 -254.5t-255 -104.5t-254.5 104.5t-104.5 254.5zM122 349q0 -119 85 -204t204 -85t204.5 85t85.5 204t-85.5 205t-204.5 86t-204 -86t-85 -205zM286 795l-18 9q-11 6 -4 22q0 1 6 15t11.5 23t15.5 21
t25 18.5t34 6.5q26 0 46.5 -18.5t36 -37t27.5 -18.5q30 0 45 51q5 16 23 8l16 -8q10 -5 4 -26q-28 -81 -89 -81q-24 0 -45.5 19t-37.5 37.5t-27 18.5q-12 0 -22 -9t-13.5 -17.5t-8.5 -23.5q-6 -20 -25 -10z" />
    <glyph glyph-name="Odieresis" unicode="&#xd6;" horiz-adv-x="823" 
d="M52 349q0 150 104.5 255.5t254.5 105.5t255 -105.5t105 -255.5t-105 -254.5t-255 -104.5t-254.5 104.5t-104.5 254.5zM122 349q0 -119 85 -204t204 -85t204.5 85t85.5 204t-85.5 205t-204.5 86t-204 -86t-85 -205zM517 788q-21 0 -36 15t-15 36q0 22 15 37t36 15
q22 0 37 -15t15 -37q0 -21 -15 -36t-37 -15zM306 788q-21 0 -36 15t-15 36q0 22 15 37t36 15q22 0 37 -15t15 -37q0 -21 -15 -36t-37 -15z" />
    <glyph glyph-name="multiply" unicode="&#xd7;" 
d="M162 190l-20 20q-13 13 0 26l111 111l-111 111q-5 5 -5 13.5t5 13.5l19 20q13 13 27 0l111 -111l112 112q13 12 26 -1l20 -20q13 -13 1 -26l-112 -112l112 -111q12 -14 -1 -27l-20 -19q-5 -5 -13 -5.5t-13 4.5l-112 112l-111 -111q-13 -13 -26 0z" />
    <glyph glyph-name="Oslash" unicode="&#xd8;" horiz-adv-x="823" 
d="M82 22q-14 14 -1 26l61 61q-90 103 -90 240q0 150 104.5 255.5t254.5 105.5q136 0 240 -91l63 63q13 13 26 0l5 -5q13 -13 0 -26l-63 -63q89 -104 89 -239q0 -150 -105 -254.5t-255 -104.5q-137 0 -238 88l-61 -61q-12 -13 -26 1zM193 160l408 409q-82 71 -190 71
q-119 0 -204 -86t-85 -205q0 -107 71 -189zM224 129q80 -69 187 -69q119 0 204.5 85t85.5 204q0 108 -70 188z" />
    <glyph glyph-name="Ugrave" unicode="&#xd9;" horiz-adv-x="708" 
d="M89 254v427q0 7 5.5 13t13.5 6h38q8 0 13.5 -5.5t5.5 -13.5v-421q0 -87 51 -143t137 -56q87 0 138.5 55t51.5 142v423q0 8 5.5 13.5t13.5 5.5h38q8 0 13.5 -6t5.5 -13v-427q0 -115 -74 -189.5t-192 -74.5q-117 0 -190.5 74.5t-73.5 189.5zM419 781l-161 67q-14 5 -6 21
l18 36q3 6 12.5 6.5t13.5 -3.5l150 -84q12 -6 6 -19l-10 -22q-5 -10 -23 -2z" />
    <glyph glyph-name="Uacute" unicode="&#xda;" horiz-adv-x="708" 
d="M89 254v427q0 7 5.5 13t13.5 6h38q8 0 13.5 -5.5t5.5 -13.5v-421q0 -87 51 -143t137 -56q87 0 138.5 55t51.5 142v423q0 8 5.5 13.5t13.5 5.5h38q8 0 13.5 -6t5.5 -13v-427q0 -115 -74 -189.5t-192 -74.5q-117 0 -190.5 74.5t-73.5 189.5zM262 783l-10 22q-6 13 6 19
l150 84q4 4 13.5 3.5t12.5 -6.5l18 -36q8 -16 -6 -21l-161 -67q-18 -8 -23 2z" />
    <glyph glyph-name="Ucircumflex" unicode="&#xdb;" horiz-adv-x="708" 
d="M89 254v427q0 7 5.5 13t13.5 6h38q8 0 13.5 -5.5t5.5 -13.5v-421q0 -87 51 -143t137 -56q87 0 138.5 55t51.5 142v423q0 8 5.5 13.5t13.5 5.5h38q8 0 13.5 -6t5.5 -13v-427q0 -115 -74 -189.5t-192 -74.5q-117 0 -190.5 74.5t-73.5 189.5zM224 775l-14 18q-7 10 6 19
l120 94q5 4 13 4t13 -4l120 -94q13 -9 6 -19q-2 -2 -5.5 -8t-6 -9t-6.5 -6.5t-8.5 -3t-10.5 4.5l-102 70l-102 -68q-15 -10 -23 2z" />
    <glyph glyph-name="Udieresis" unicode="&#xdc;" horiz-adv-x="708" 
d="M89 254v427q0 7 5.5 13t13.5 6h38q8 0 13.5 -5.5t5.5 -13.5v-421q0 -87 51 -143t137 -56q87 0 138.5 55t51.5 142v423q0 8 5.5 13.5t13.5 5.5h38q8 0 13.5 -6t5.5 -13v-427q0 -115 -74 -189.5t-192 -74.5q-117 0 -190.5 74.5t-73.5 189.5zM458 788q-21 0 -36 15t-15 36
q0 22 15 37t36 15q22 0 37 -15t15 -37q0 -21 -15 -36t-37 -15zM247 788q-21 0 -36 15t-15 36q0 22 15 37t36 15q22 0 37 -15t15 -37q0 -21 -15 -36t-37 -15z" />
    <glyph glyph-name="Yacute" unicode="&#xdd;" horiz-adv-x="574" 
d="M248 19v318l-241 334q-6 10 -1 19.5t17 9.5h47q9 0 16 -9l202 -279l202 279q7 9 16 9h47q12 0 17 -9.5t-1 -19.5l-244 -333v-319q0 -7 -5.5 -13t-13.5 -6h-39q-8 0 -13.5 5.5t-5.5 13.5zM198 783l-10 22q-6 13 6 19l150 84q4 4 13.5 3.5t12.5 -6.5l18 -36q8 -16 -6 -21
l-161 -67q-18 -8 -23 2z" />
    <glyph glyph-name="Thorn" unicode="&#xde;" horiz-adv-x="593" 
d="M96 19v661q0 8 5.5 14t13.5 6h38q7 0 13 -6t6 -13v-107h164q92 0 158 -65t66 -156q0 -93 -65.5 -159t-157.5 -66h-165v-109q0 -7 -6 -13t-13 -6h-38q-8 0 -13.5 5.5t-5.5 13.5zM172 202h159q62 0 107 44.5t45 108.5q0 60 -45 101.5t-107 41.5h-159v-296z" />
    <glyph glyph-name="germandbls" unicode="&#xdf;" horiz-adv-x="579" 
d="M78 21v401q0 288 214 288q79 0 129.5 -45t50.5 -121q0 -44 -17.5 -82.5t-35 -64.5t-17.5 -40q0 -11 20.5 -29t45 -38t45 -59t20.5 -85q0 -74 -46.5 -115.5t-118.5 -41.5q-67 0 -99 15q-21 10 -17 25l9 33q6 21 24 13q40 -19 83 -19q41 0 65.5 25.5t24.5 65.5
q0 27 -14.5 50.5t-35 40.5l-41 34t-35 38t-14.5 44q0 25 40 85t40 101q0 45 -30.5 74t-76.5 29q-74 0 -106.5 -55.5t-32.5 -166.5v-400q0 -8 -6.5 -14.5t-14.5 -6.5h-32q-8 0 -14.5 6.5t-6.5 14.5z" />
    <glyph glyph-name="agrave" unicode="&#xe0;" horiz-adv-x="471" 
d="M42 140q0 68 49 110.5t136 42.5q22 0 46.5 -3.5t38.5 -7.5l14 -4q1 69 -14 98t-62 29q-56 0 -137 -27q-15 -6 -22 12l-10 27q-5 16 14 25q69 30 159 30q85 0 114 -43.5t29 -150.5v-256q0 -9 -6.5 -15.5t-15.5 -6.5h-19q-14 0 -19 17l-9 31q-59 -59 -143 -59
q-62 0 -102.5 41.5t-40.5 109.5zM115 140q0 -36 23 -60t60 -24q40 0 75.5 18.5t51.5 43.5v94q-34 18 -98 18q-50 0 -81 -23.5t-31 -66.5zM304 559l-161 67q-14 5 -6 21l18 36q3 6 12.5 6.5t13.5 -3.5l150 -84q12 -6 6 -19l-10 -22q-5 -10 -23 -2z" />
    <glyph glyph-name="aacute" unicode="&#xe1;" horiz-adv-x="471" 
d="M42 140q0 68 49 110.5t136 42.5q22 0 46.5 -3.5t38.5 -7.5l14 -4q1 69 -14 98t-62 29q-56 0 -137 -27q-15 -6 -22 12l-10 27q-5 16 14 25q69 30 159 30q85 0 114 -43.5t29 -150.5v-256q0 -9 -6.5 -15.5t-15.5 -6.5h-19q-14 0 -19 17l-9 31q-59 -59 -143 -59
q-62 0 -102.5 41.5t-40.5 109.5zM115 140q0 -36 23 -60t60 -24q40 0 75.5 18.5t51.5 43.5v94q-34 18 -98 18q-50 0 -81 -23.5t-31 -66.5zM148 561l-10 22q-6 13 6 19l150 84q4 4 13.5 3.5t12.5 -6.5l18 -36q8 -16 -6 -21l-161 -67q-18 -8 -23 2z" />
    <glyph glyph-name="acircumflex" unicode="&#xe2;" horiz-adv-x="471" 
d="M42 140q0 68 49 110.5t136 42.5q22 0 46.5 -3.5t38.5 -7.5l14 -4q1 69 -14 98t-62 29q-56 0 -137 -27q-15 -6 -22 12l-10 27q-5 16 14 25q69 30 159 30q85 0 114 -43.5t29 -150.5v-256q0 -9 -6.5 -15.5t-15.5 -6.5h-19q-14 0 -19 17l-9 31q-59 -59 -143 -59
q-62 0 -102.5 41.5t-40.5 109.5zM115 140q0 -36 23 -60t60 -24q40 0 75.5 18.5t51.5 43.5v94q-34 18 -98 18q-50 0 -81 -23.5t-31 -66.5zM105 555l-14 18q-7 10 6 19l120 94q5 4 13 4t13 -4l120 -94q13 -9 6 -19q-2 -2 -5.5 -8t-6 -9t-6.5 -6.5t-8.5 -3t-10.5 4.5l-102 70
l-102 -68q-15 -10 -23 2z" />
    <glyph glyph-name="atilde" unicode="&#xe3;" horiz-adv-x="471" 
d="M42 140q0 68 49 110.5t136 42.5q22 0 46.5 -3.5t38.5 -7.5l14 -4q1 69 -14 98t-62 29q-56 0 -137 -27q-15 -6 -22 12l-10 27q-5 16 14 25q69 30 159 30q85 0 114 -43.5t29 -150.5v-256q0 -9 -6.5 -15.5t-15.5 -6.5h-19q-14 0 -19 17l-9 31q-59 -59 -143 -59
q-62 0 -102.5 41.5t-40.5 109.5zM115 140q0 -36 23 -60t60 -24q40 0 75.5 18.5t51.5 43.5v94q-34 18 -98 18q-50 0 -81 -23.5t-31 -66.5zM104 575l-18 9q-11 6 -4 22q0 1 6 15t11.5 23t15.5 21t25 18.5t34 6.5q26 0 46.5 -18.5t36 -37t27.5 -18.5q30 0 45 51q5 16 23 8
l16 -8q10 -5 4 -26q-28 -81 -89 -81q-24 0 -45.5 19t-37.5 37.5t-27 18.5q-12 0 -22 -9t-13.5 -17.5t-8.5 -23.5q-6 -20 -25 -10z" />
    <glyph glyph-name="adieresis" unicode="&#xe4;" horiz-adv-x="471" 
d="M42 140q0 68 49 110.5t136 42.5q22 0 46.5 -3.5t38.5 -7.5l14 -4q1 69 -14 98t-62 29q-56 0 -137 -27q-15 -6 -22 12l-10 27q-5 16 14 25q69 30 159 30q85 0 114 -43.5t29 -150.5v-256q0 -9 -6.5 -15.5t-15.5 -6.5h-19q-14 0 -19 17l-9 31q-59 -59 -143 -59
q-62 0 -102.5 41.5t-40.5 109.5zM115 140q0 -36 23 -60t60 -24q40 0 75.5 18.5t51.5 43.5v94q-34 18 -98 18q-50 0 -81 -23.5t-31 -66.5zM337 581q-21 0 -36 15t-15 36q0 22 15 37t36 15q22 0 37 -15t15 -37q0 -21 -15 -36t-37 -15zM144 581q-21 0 -36 15t-15 36q0 22 15 37
t36 15q22 0 37 -15t15 -37q0 -21 -15 -36t-37 -15z" />
    <glyph glyph-name="aring" unicode="&#xe5;" horiz-adv-x="471" 
d="M42 140q0 68 49 110.5t136 42.5q22 0 46.5 -3.5t38.5 -7.5l14 -4q1 69 -14 98t-62 29q-56 0 -137 -27q-15 -6 -22 12l-10 27q-5 16 14 25q69 30 159 30q85 0 114 -43.5t29 -150.5v-256q0 -9 -6.5 -15.5t-15.5 -6.5h-19q-14 0 -19 17l-9 31q-59 -59 -143 -59
q-62 0 -102.5 41.5t-40.5 109.5zM115 140q0 -36 23 -60t60 -24q40 0 75.5 18.5t51.5 43.5v94q-34 18 -98 18q-50 0 -81 -23.5t-31 -66.5zM229 513q-46 0 -77.5 31.5t-31.5 77.5t31.5 77.5t77.5 31.5q45 0 77 -31.5t32 -77.5t-32 -77.5t-77 -31.5zM229 561q24 0 41.5 18.5
t17.5 42.5t-17.5 41.5t-41.5 17.5t-42.5 -17.5t-18.5 -41.5t18.5 -42.5t42.5 -18.5z" />
    <glyph glyph-name="ae" unicode="&#xe6;" horiz-adv-x="790" 
d="M43 142q0 66 46 108t125 42l111 -6q2 66 -13 92.5t-57 26.5q-20 0 -40 -2t-37.5 -6t-28.5 -7t-25 -7t-16 -5q-8 -3 -15 2t-9 14l-6 28q-3 16 19 23q73 27 162 27q55 0 83.5 -16t42.5 -47q63 63 154 63q88 0 148 -58t60 -152q0 -48 -23 -48h-327v-75q22 -37 62 -60t87 -23
q61 0 118 38q13 9 18 9.5t15 -9.5l16 -23q7 -7 7 -13.5t-12 -15.5q-70 -53 -170 -53q-112 0 -174 82q-27 -34 -72 -58t-97 -24q-68 0 -110 41.5t-42 111.5zM399 274h269q0 55 -38.5 93t-91.5 38q-42 0 -80.5 -22.5t-58.5 -55.5v-53zM117 141q0 -42 27 -63.5t66 -21.5
q35 0 67.5 18t47.5 42v106q-37 9 -99 9q-46 0 -77.5 -24.5t-31.5 -65.5z" />
    <glyph glyph-name="ccedilla" unicode="&#xe7;" horiz-adv-x="500" 
d="M48 230q0 101 68.5 171.5t165.5 70.5q101 0 168 -76q15 -18 -4 -33l-16 -15q-15 -13 -33 7q-44 50 -116 50q-65 0 -111.5 -52t-46.5 -122t45.5 -122.5t109.5 -52.5q32 0 58.5 12t38 22.5t29.5 31.5q17 20 39 -2l6 -6q16 -16 6 -32q-61 -87 -164 -93l-36 -56q12 4 25 4
q36 0 61.5 -20.5t25.5 -62.5q0 -41 -33 -67.5t-79 -26.5q-52 0 -82 28q-7 7 0 21l8 15q7 14 21 5q20 -20 50 -20q56 0 56 41t-53 41q-28 0 -48 -10q-5 -2 -9.5 3t-2.5 10l47 98q-84 14 -139 79.5t-55 158.5z" />
    <glyph glyph-name="egrave" unicode="&#xe8;" horiz-adv-x="525" 
d="M49 231q0 101 61 171t163 70q91 0 150 -59.5t59 -150.5q0 -12 -2 -28q-2 -20 -21 -20h-336q2 -60 46 -109t105 -49q67 0 125 38q13 9 19 9.5t16 -12.5l12 -17q6 -9 7 -12t-1 -8.5t-10 -11.5q-67 -53 -169 -53t-163 69.5t-61 172.5zM124 273h284q-2 53 -40 92.5t-95 39.5
q-58 0 -100 -38.5t-49 -93.5zM325 559l-161 67q-14 5 -6 21l18 36q3 6 12.5 6.5t13.5 -3.5l150 -84q12 -6 6 -19l-10 -22q-5 -10 -23 -2z" />
    <glyph glyph-name="eacute" unicode="&#xe9;" horiz-adv-x="525" 
d="M49 231q0 101 61 171t163 70q91 0 150 -59.5t59 -150.5q0 -12 -2 -28q-2 -20 -21 -20h-336q2 -60 46 -109t105 -49q67 0 125 38q13 9 19 9.5t16 -12.5l12 -17q6 -9 7 -12t-1 -8.5t-10 -11.5q-67 -53 -169 -53t-163 69.5t-61 172.5zM124 273h284q-2 53 -40 92.5t-95 39.5
q-58 0 -100 -38.5t-49 -93.5zM187 561l-10 22q-6 13 6 19l150 84q4 4 13.5 3.5t12.5 -6.5l18 -36q8 -16 -6 -21l-161 -67q-18 -8 -23 2z" />
    <glyph glyph-name="ecircumflex" unicode="&#xea;" horiz-adv-x="525" 
d="M49 231q0 101 61 171t163 70q91 0 150 -59.5t59 -150.5q0 -12 -2 -28q-2 -20 -21 -20h-336q2 -60 46 -109t105 -49q67 0 125 38q13 9 19 9.5t16 -12.5l12 -17q6 -9 7 -12t-1 -8.5t-10 -11.5q-67 -53 -169 -53t-163 69.5t-61 172.5zM124 273h284q-2 53 -40 92.5t-95 39.5
q-58 0 -100 -38.5t-49 -93.5zM153 555l-14 18q-7 10 6 19l120 94q5 4 13 4t13 -4l120 -94q13 -9 6 -19q-2 -2 -5.5 -8t-6 -9t-6.5 -6.5t-8.5 -3t-10.5 4.5l-102 70l-102 -68q-15 -10 -23 2z" />
    <glyph glyph-name="edieresis" unicode="&#xeb;" horiz-adv-x="525" 
d="M49 231q0 101 61 171t163 70q91 0 150 -59.5t59 -150.5q0 -12 -2 -28q-2 -20 -21 -20h-336q2 -60 46 -109t105 -49q67 0 125 38q13 9 19 9.5t16 -12.5l12 -17q6 -9 7 -12t-1 -8.5t-10 -11.5q-67 -53 -169 -53t-163 69.5t-61 172.5zM124 273h284q-2 53 -40 92.5t-95 39.5
q-58 0 -100 -38.5t-49 -93.5zM370 581q-21 0 -36 15t-15 36q0 22 15 37t36 15q22 0 37 -15t15 -37q0 -21 -15 -36t-37 -15zM177 581q-21 0 -36 15t-15 36q0 22 15 37t36 15q22 0 37 -15t15 -37q0 -21 -15 -36t-37 -15z" />
    <glyph glyph-name="igrave" unicode="&#xec;" horiz-adv-x="230" 
d="M78 22v418q0 8 6.5 15t15.5 7h30q8 0 15 -7t7 -15v-418q0 -9 -7 -15.5t-15 -6.5h-30q-9 0 -15.5 6.5t-6.5 15.5zM185 559l-161 67q-14 5 -6 21l18 36q3 6 12.5 6.5t13.5 -3.5l150 -84q12 -6 6 -19l-10 -22q-5 -10 -23 -2z" />
    <glyph glyph-name="iacute" unicode="&#xed;" horiz-adv-x="230" 
d="M78 22v418q0 8 6.5 15t15.5 7h30q8 0 15 -7t7 -15v-418q0 -9 -7 -15.5t-15 -6.5h-30q-9 0 -15.5 6.5t-6.5 15.5zM29 561l-10 22q-6 13 6 19l150 84q4 4 13.5 3.5t12.5 -6.5l18 -36q8 -16 -6 -21l-161 -67q-18 -8 -23 2z" />
    <glyph glyph-name="icircumflex" unicode="&#xee;" horiz-adv-x="230" 
d="M78 22v418q0 8 6.5 15t15.5 7h30q8 0 15 -7t7 -15v-418q0 -9 -7 -15.5t-15 -6.5h-30q-9 0 -15.5 6.5t-6.5 15.5zM-7 555l-14 18q-7 10 6 19l120 94q5 4 13 4t13 -4l120 -94q13 -9 6 -19q-2 -2 -5.5 -8t-6 -9t-6.5 -6.5t-8.5 -3t-10.5 4.5l-102 70l-102 -68q-15 -10 -23 2
z" />
    <glyph glyph-name="idieresis" unicode="&#xef;" horiz-adv-x="230" 
d="M78 22v418q0 8 6.5 15t15.5 7h30q8 0 15 -7t7 -15v-418q0 -9 -7 -15.5t-15 -6.5h-30q-9 0 -15.5 6.5t-6.5 15.5zM212 581q-21 0 -36 15t-15 36q0 22 15 37t36 15q22 0 37 -15t15 -37q0 -21 -15 -36t-37 -15zM19 581q-21 0 -36 15t-15 36q0 22 15 37t36 15q22 0 37 -15
t15 -37q0 -21 -15 -36t-37 -15z" />
    <glyph glyph-name="eth" unicode="&#xf0;" horiz-adv-x="577" 
d="M50 226q0 99 65.5 161t156.5 62q39 0 78 -11.5t58 -23.5l20 -11q-24 93 -132 177l-100 -58q-7 -4 -14.5 -1.5t-10.5 8.5l-4 8q-11 15 6 25l82 48q-58 37 -102 54q-17 7 -8 25l13 28q5 12 21 7q72 -26 142 -76l72 41q18 10 27 -7l4 -7q9 -16 -7 -26l-56 -32
q157 -136 157 -334q0 -131 -60 -212t-180 -81q-99 0 -163.5 68.5t-64.5 167.5zM123 221q0 -67 45 -115t110 -48q57 0 96.5 33.5t55.5 79.5t16 98q0 16 -4 46q-8 8 -21.5 19t-56 29.5t-85.5 18.5q-65 0 -110.5 -47t-45.5 -114z" />
    <glyph glyph-name="ntilde" unicode="&#xf1;" horiz-adv-x="539" 
d="M78 22v418q0 8 6.5 15t15.5 7h16q15 0 18 -14l10 -35q7 7 19.5 16.5t52.5 26t83 16.5q94 0 130.5 -53.5t36.5 -152.5v-244q0 -9 -7 -15.5t-15 -6.5h-30q-9 0 -15.5 6.5t-6.5 15.5v254q0 66 -23.5 97.5t-74.5 31.5q-39 0 -74.5 -16t-51.5 -32l-16 -16v-319q0 -9 -7 -15.5
t-15 -6.5h-30q-9 0 -15.5 6.5t-6.5 15.5zM149 575l-18 9q-11 6 -4 22q0 1 6 15t11.5 23t15.5 21t25 18.5t34 6.5q26 0 46.5 -18.5t36 -37t27.5 -18.5q30 0 45 51q5 16 23 8l16 -8q10 -5 4 -26q-28 -81 -89 -81q-24 0 -45.5 19t-37.5 37.5t-27 18.5q-12 0 -22 -9t-13.5 -17.5
t-8.5 -23.5q-6 -20 -25 -10z" />
    <glyph glyph-name="ograve" unicode="&#xf2;" horiz-adv-x="560" 
d="M48 232q0 98 68 169t164 71t164 -71t68 -169q0 -99 -68 -171t-164 -72t-164 72t-68 171zM121 232q0 -73 45.5 -124.5t113.5 -51.5q67 0 112.5 51.5t45.5 124.5q0 71 -45.5 122t-112.5 51t-113 -51t-46 -122zM345 559l-161 67q-14 5 -6 21l18 36q3 6 12.5 6.5t13.5 -3.5
l150 -84q12 -6 6 -19l-10 -22q-5 -10 -23 -2z" />
    <glyph glyph-name="oacute" unicode="&#xf3;" horiz-adv-x="560" 
d="M48 232q0 98 68 169t164 71t164 -71t68 -169q0 -99 -68 -171t-164 -72t-164 72t-68 171zM121 232q0 -73 45.5 -124.5t113.5 -51.5q67 0 112.5 51.5t45.5 124.5q0 71 -45.5 122t-112.5 51t-113 -51t-46 -122zM189 561l-10 22q-6 13 6 19l150 84q4 4 13.5 3.5t12.5 -6.5
l18 -36q8 -16 -6 -21l-161 -67q-18 -8 -23 2z" />
    <glyph glyph-name="ocircumflex" unicode="&#xf4;" horiz-adv-x="560" 
d="M48 232q0 98 68 169t164 71t164 -71t68 -169q0 -99 -68 -171t-164 -72t-164 72t-68 171zM121 232q0 -73 45.5 -124.5t113.5 -51.5q67 0 112.5 51.5t45.5 124.5q0 71 -45.5 122t-112.5 51t-113 -51t-46 -122zM152 555l-14 18q-7 10 6 19l120 94q5 4 13 4t13 -4l120 -94
q13 -9 6 -19q-2 -2 -5.5 -8t-6 -9t-6.5 -6.5t-8.5 -3t-10.5 4.5l-102 70l-102 -68q-15 -10 -23 2z" />
    <glyph glyph-name="otilde" unicode="&#xf5;" horiz-adv-x="560" 
d="M48 232q0 98 68 169t164 71t164 -71t68 -169q0 -99 -68 -171t-164 -72t-164 72t-68 171zM121 232q0 -73 45.5 -124.5t113.5 -51.5q67 0 112.5 51.5t45.5 124.5q0 71 -45.5 122t-112.5 51t-113 -51t-46 -122zM154 575l-18 9q-11 6 -4 22q0 1 6 15t11.5 23t15.5 21t25 18.5
t34 6.5q26 0 46.5 -18.5t36 -37t27.5 -18.5q30 0 45 51q5 16 23 8l16 -8q10 -5 4 -26q-28 -81 -89 -81q-24 0 -45.5 19t-37.5 37.5t-27 18.5q-12 0 -22 -9t-13.5 -17.5t-8.5 -23.5q-6 -20 -25 -10z" />
    <glyph glyph-name="odieresis" unicode="&#xf6;" horiz-adv-x="560" 
d="M48 232q0 98 68 169t164 71t164 -71t68 -169q0 -99 -68 -171t-164 -72t-164 72t-68 171zM121 232q0 -73 45.5 -124.5t113.5 -51.5q67 0 112.5 51.5t45.5 124.5q0 71 -45.5 122t-112.5 51t-113 -51t-46 -122zM374 581q-21 0 -36 15t-15 36q0 22 15 37t36 15q22 0 37 -15
t15 -37q0 -21 -15 -36t-37 -15zM181 581q-21 0 -36 15t-15 36q0 22 15 37t36 15q22 0 37 -15t15 -37q0 -21 -15 -36t-37 -15z" />
    <glyph glyph-name="divide" unicode="&#xf7;" 
d="M297 472q-23 0 -40 17t-17 40q0 24 17 40.5t40 16.5q24 0 40.5 -16.5t16.5 -40.5q0 -23 -16.5 -40t-40.5 -17zM110 314q-8 0 -13.5 6t-5.5 13v28q0 7 5.5 13t13.5 6h381q7 0 12.5 -5.5t5.5 -13.5v-28q0 -8 -5.5 -13.5t-12.5 -5.5h-381zM240 171q0 24 17 40.5t40 16.5
q24 0 40.5 -16.5t16.5 -40.5q0 -23 -16.5 -40t-40.5 -17q-23 0 -40 17t-17 40z" />
    <glyph glyph-name="oslash" unicode="&#xf8;" horiz-adv-x="559" 
d="M48 232q0 98 68 169t164 71q84 0 148 -56l24 24q18 16 32 0l5 -5q17 -15 0 -31l-26 -26q49 -65 49 -146q0 -99 -68 -171t-164 -72q-82 0 -147 55l-17 -17q-14 -14 -29 1l-6 6q-16 16 -1 30l18 18q-50 64 -50 150zM120 232q0 -56 27 -100l233 235q-45 38 -100 38
q-68 0 -114 -51t-46 -122zM439 232q0 50 -26 95l-232 -234q43 -37 99 -37q68 0 113.5 51.5t45.5 124.5z" />
    <glyph glyph-name="ugrave" unicode="&#xf9;" horiz-adv-x="526" 
d="M73 191v249q0 9 6.5 15.5t15.5 6.5h30q9 0 15.5 -7t6.5 -15v-250q0 -69 23.5 -101.5t73.5 -32.5q72 0 131 67v317q0 9 6 15.5t15 6.5h31q8 0 14.5 -7t6.5 -15v-418q0 -9 -6.5 -15.5t-14.5 -6.5h-16q-16 0 -21 20l-9 29q-57 -60 -143 -60q-94 0 -129.5 51t-35.5 151z
M331 559l-161 67q-14 5 -6 21l18 36q3 6 12.5 6.5t13.5 -3.5l150 -84q12 -6 6 -19l-10 -22q-5 -10 -23 -2z" />
    <glyph glyph-name="uacute" unicode="&#xfa;" horiz-adv-x="526" 
d="M73 191v249q0 9 6.5 15.5t15.5 6.5h30q9 0 15.5 -7t6.5 -15v-250q0 -69 23.5 -101.5t73.5 -32.5q72 0 131 67v317q0 9 6 15.5t15 6.5h31q8 0 14.5 -7t6.5 -15v-418q0 -9 -6.5 -15.5t-14.5 -6.5h-16q-16 0 -21 20l-9 29q-57 -60 -143 -60q-94 0 -129.5 51t-35.5 151z
M182 561l-10 22q-6 13 6 19l150 84q4 4 13.5 3.5t12.5 -6.5l18 -36q8 -16 -6 -21l-161 -67q-18 -8 -23 2z" />
    <glyph glyph-name="ucircumflex" unicode="&#xfb;" horiz-adv-x="526" 
d="M73 191v249q0 9 6.5 15.5t15.5 6.5h30q9 0 15.5 -7t6.5 -15v-250q0 -69 23.5 -101.5t73.5 -32.5q72 0 131 67v317q0 9 6 15.5t15 6.5h31q8 0 14.5 -7t6.5 -15v-418q0 -9 -6.5 -15.5t-14.5 -6.5h-16q-16 0 -21 20l-9 29q-57 -60 -143 -60q-94 0 -129.5 51t-35.5 151z
M141 555l-14 18q-7 10 6 19l120 94q5 4 13 4t13 -4l120 -94q13 -9 6 -19q-2 -2 -5.5 -8t-6 -9t-6.5 -6.5t-8.5 -3t-10.5 4.5l-102 70l-102 -68q-15 -10 -23 2z" />
    <glyph glyph-name="udieresis" unicode="&#xfc;" horiz-adv-x="526" 
d="M73 191v249q0 9 6.5 15.5t15.5 6.5h30q9 0 15.5 -7t6.5 -15v-250q0 -69 23.5 -101.5t73.5 -32.5q72 0 131 67v317q0 9 6 15.5t15 6.5h31q8 0 14.5 -7t6.5 -15v-418q0 -9 -6.5 -15.5t-14.5 -6.5h-16q-16 0 -21 20l-9 29q-57 -60 -143 -60q-94 0 -129.5 51t-35.5 151z
M361 581q-21 0 -36 15t-15 36q0 22 15 37t36 15q22 0 37 -15t15 -37q0 -21 -15 -36t-37 -15zM168 581q-21 0 -36 15t-15 36q0 22 15 37t36 15q22 0 37 -15t15 -37q0 -21 -15 -36t-37 -15z" />
    <glyph glyph-name="yacute" unicode="&#xfd;" horiz-adv-x="500" 
d="M198 1l-169 436q-10 25 18 25h42q15 0 20 -13l131 -367h2l156 367q5 13 20 13h37q13 0 18 -7.5t0 -18.5l-289 -660q-6 -14 -20 -14h-36q-13 0 -18.5 8t-0.5 20zM153 561l-10 22q-6 13 6 19l150 84q4 4 13.5 3.5t12.5 -6.5l18 -36q8 -16 -6 -21l-161 -67q-18 -8 -23 2z
" />
    <glyph glyph-name="thorn" unicode="&#xfe;" horiz-adv-x="546" 
d="M151 27v-243q0 -9 -7 -15.5t-15 -6.5h-29q-9 0 -15.5 6.5t-6.5 15.5v894q0 8 6.5 15t15.5 7h29q8 0 15 -7t7 -15v-250q5 5 15.5 12.5t44.5 19.5t71 12q97 0 156 -70t59 -172q0 -103 -61.5 -172t-156.5 -69q-34 0 -66 9.5t-47 19.5zM151 348v-250q53 -42 117 -42
q68 0 111 48t43 127q0 73 -39 123.5t-110 50.5q-33 0 -63.5 -14.5t-44.5 -28.5z" />
    <glyph glyph-name="ydieresis" unicode="&#xff;" horiz-adv-x="500" 
d="M198 1l-169 436q-10 25 18 25h42q15 0 20 -13l131 -367h2l156 367q5 13 20 13h37q13 0 18 -7.5t0 -18.5l-289 -660q-6 -14 -20 -14h-36q-13 0 -18.5 8t-0.5 20zM347 581q-21 0 -36 15t-15 36q0 22 15 37t36 15q22 0 37 -15t15 -37q0 -21 -15 -36t-37 -15zM154 581
q-21 0 -36 15t-15 36q0 22 15 37t36 15q22 0 37 -15t15 -37q0 -21 -15 -36t-37 -15z" />
    <glyph glyph-name="Amacron" unicode="&#x100;" horiz-adv-x="665" 
d="M24 0q-11 0 -16.5 8t-0.5 18l304 673q5 11 17 11h10q12 0 17 -11l302 -673q5 -10 -0.5 -18t-16.5 -8h-40q-13 0 -17 11l-74 165h-355l-73 -165q-4 -11 -17 -11h-40zM182 238h300q-24 55 -73 164t-73 164h-8zM204 821q-8 0 -13.5 5t-5.5 13v21q0 19 19 19h256q19 0 19 -19
v-21q0 -8 -5.5 -13t-13.5 -5h-256z" />
    <glyph glyph-name="amacron" unicode="&#x101;" horiz-adv-x="471" 
d="M42 140q0 68 49 110.5t136 42.5q22 0 46.5 -3.5t38.5 -7.5l14 -4q1 69 -14 98t-62 29q-56 0 -137 -27q-15 -6 -22 12l-10 27q-5 16 14 25q69 30 159 30q85 0 114 -43.5t29 -150.5v-256q0 -9 -6.5 -15.5t-15.5 -6.5h-19q-14 0 -19 17l-9 31q-59 -59 -143 -59
q-62 0 -102.5 41.5t-40.5 109.5zM115 140q0 -36 23 -60t60 -24q40 0 75.5 18.5t51.5 43.5v94q-34 18 -98 18q-50 0 -81 -23.5t-31 -66.5zM99 583q-8 0 -13.5 5t-5.5 13v21q0 19 19 19h256q19 0 19 -19v-21q0 -8 -5.5 -13t-13.5 -5h-256z" />
    <glyph glyph-name="Abreve" unicode="&#x102;" horiz-adv-x="665" 
d="M24 0q-11 0 -16.5 8t-0.5 18l304 673q5 11 17 11h10q12 0 17 -11l302 -673q5 -10 -0.5 -18t-16.5 -8h-40q-13 0 -17 11l-74 165h-355l-73 -165q-4 -11 -17 -11h-40zM182 238h300q-24 55 -73 164t-73 164h-8zM332 771q-52 0 -90 32.5t-45 81.5q-4 20 14 20h21q13 0 19 -17
q8 -29 30 -46.5t51 -17.5q27 0 48.5 18.5t30.5 45.5q6 17 19 17h23q18 0 14 -20q-8 -49 -46 -81.5t-89 -32.5z" />
    <glyph glyph-name="abreve" unicode="&#x103;" horiz-adv-x="471" 
d="M42 140q0 68 49 110.5t136 42.5q22 0 46.5 -3.5t38.5 -7.5l14 -4q1 69 -14 98t-62 29q-56 0 -137 -27q-15 -6 -22 12l-10 27q-5 16 14 25q69 30 159 30q85 0 114 -43.5t29 -150.5v-256q0 -9 -6.5 -15.5t-15.5 -6.5h-19q-14 0 -19 17l-9 31q-59 -59 -143 -59
q-62 0 -102.5 41.5t-40.5 109.5zM115 140q0 -36 23 -60t60 -24q40 0 75.5 18.5t51.5 43.5v94q-34 18 -98 18q-50 0 -81 -23.5t-31 -66.5zM238 531q-52 0 -90 32.5t-45 81.5q-4 20 14 20h21q13 0 19 -17q8 -29 30 -46.5t51 -17.5q27 0 48.5 18.5t30.5 45.5q6 17 19 17h23
q18 0 14 -20q-8 -49 -46 -81.5t-89 -32.5z" />
    <glyph glyph-name="Aogonek" unicode="&#x104;" horiz-adv-x="665" 
d="M24 0q-11 0 -16.5 8t-0.5 18l304 673q5 11 17 11h10q12 0 17 -11l300 -668q10 -22 -16 -33q-37 -15 -70 -51.5t-33 -77.5q0 -25 13.5 -39t37.5 -14q28 0 63 26q5 5 10 3.5t6 -8.5l1 -34q2 -14 -12 -24q-40 -23 -83 -23q-47 0 -73 28t-26 72q0 87 110 154l-74 166h-355
l-73 -165q-4 -11 -17 -11h-40zM182 238h300l-146 328h-8z" />
    <glyph glyph-name="aogonek" unicode="&#x105;" horiz-adv-x="471" 
d="M42 140q0 68 49 110.5t136 42.5q22 0 46.5 -3.5t38.5 -7.5l14 -4q1 69 -14 98t-62 29q-56 0 -137 -27q-15 -6 -22 12l-10 27q-5 16 14 25q69 30 159 30q85 0 114 -43.5t29 -150.5v-256q0 -13 -17 -22q-104 -59 -104 -131q0 -25 13.5 -39t37.5 -14q28 0 63 26q5 5 10 3.5
t6 -8.5l1 -34q2 -14 -12 -24q-40 -23 -83 -23q-47 0 -73 28t-26 72q0 82 124 159l-9 33q-59 -59 -143 -59q-62 0 -102.5 41.5t-40.5 109.5zM115 140q0 -36 23 -60t60 -24q40 0 75.5 18.5t51.5 43.5v94q-34 18 -98 18q-50 0 -81 -23.5t-31 -66.5z" />
    <glyph glyph-name="Cacute" unicode="&#x106;" horiz-adv-x="706" 
d="M52 349q0 150 105.5 255.5t255.5 105.5q133 0 242 -93q15 -15 1 -28l-27 -27q-11 -14 -26 1q-87 75 -191 75q-117 0 -198 -85t-81 -203q0 -117 81 -202t198 -85q61 0 104 18.5t87 56.5q14 11 26 -1l23 -23q6 -5 5.5 -13t-6.5 -14q-107 -97 -238 -97q-150 0 -255.5 104.5
t-105.5 254.5zM332 783l-10 22q-6 13 6 19l150 84q4 4 13.5 3.5t12.5 -6.5l18 -36q8 -16 -6 -21l-161 -67q-18 -8 -23 2z" />
    <glyph glyph-name="cacute" unicode="&#x107;" horiz-adv-x="500" 
d="M48 230q0 102 67 172t167 70q101 0 168 -76q15 -18 -4 -33l-16 -15q-15 -13 -33 7q-44 50 -116 50q-66 0 -112 -51t-46 -123q0 -73 45 -124t110 -51q32 0 58.5 12t38 22.5t29.5 31.5q17 20 39 -2l6 -6q16 -16 6 -32q-28 -41 -73.5 -67t-100.5 -26q-102 0 -167.5 68
t-65.5 173zM197 561l-10 22q-6 13 6 19l150 84q4 4 13.5 3.5t12.5 -6.5l18 -36q8 -16 -6 -21l-161 -67q-18 -8 -23 2z" />
    <glyph glyph-name="Ccircumflex" unicode="&#x108;" horiz-adv-x="706" 
d="M52 349q0 150 105.5 255.5t255.5 105.5q133 0 242 -93q15 -15 1 -28l-27 -27q-11 -14 -26 1q-87 75 -191 75q-117 0 -198 -85t-81 -203q0 -117 81 -202t198 -85q61 0 104 18.5t87 56.5q14 11 26 -1l23 -23q6 -5 5.5 -13t-6.5 -14q-107 -97 -238 -97q-150 0 -255.5 104.5
t-105.5 254.5zM287 775l-14 18q-7 10 6 19l120 94q5 4 13 4t13 -4l120 -94q13 -9 6 -19q-2 -2 -5.5 -8t-6 -9t-6.5 -6.5t-8.5 -3t-10.5 4.5l-102 70l-102 -68q-15 -10 -23 2z" />
    <glyph glyph-name="ccircumflex" unicode="&#x109;" horiz-adv-x="500" 
d="M48 230q0 102 67 172t167 70q101 0 168 -76q15 -18 -4 -33l-16 -15q-15 -13 -33 7q-44 50 -116 50q-66 0 -112 -51t-46 -123q0 -73 45 -124t110 -51q32 0 58.5 12t38 22.5t29.5 31.5q17 20 39 -2l6 -6q16 -16 6 -32q-28 -41 -73.5 -67t-100.5 -26q-102 0 -167.5 68
t-65.5 173zM157 555l-14 18q-7 10 6 19l120 94q5 4 13 4t13 -4l120 -94q13 -9 6 -19q-2 -2 -5.5 -8t-6 -9t-6.5 -6.5t-8.5 -3t-10.5 4.5l-102 70l-102 -68q-15 -10 -23 2z" />
    <glyph glyph-name="Cdotaccent" unicode="&#x10a;" horiz-adv-x="706" 
d="M52 349q0 150 105.5 255.5t255.5 105.5q133 0 242 -93q15 -15 1 -28l-27 -27q-11 -14 -26 1q-87 75 -191 75q-117 0 -198 -85t-81 -203q0 -117 81 -202t198 -85q61 0 104 18.5t87 56.5q14 11 26 -1l23 -23q6 -5 5.5 -13t-6.5 -14q-107 -97 -238 -97q-150 0 -255.5 104.5
t-105.5 254.5zM412 798q-22 0 -38 16t-16 38q0 24 15.5 40t38.5 16t39 -16t16 -40q0 -22 -16 -38t-39 -16z" />
    <glyph glyph-name="cdotaccent" unicode="&#x10b;" horiz-adv-x="500" 
d="M48 230q0 102 67 172t167 70q101 0 168 -76q15 -18 -4 -33l-16 -15q-15 -13 -33 7q-44 50 -116 50q-66 0 -112 -51t-46 -123q0 -73 45 -124t110 -51q32 0 58.5 12t38 22.5t29.5 31.5q17 20 39 -2l6 -6q16 -16 6 -32q-28 -41 -73.5 -67t-100.5 -26q-102 0 -167.5 68
t-65.5 173zM285 581q-22 0 -38 16t-16 38q0 24 15.5 40t38.5 16t39 -16t16 -40q0 -22 -16 -38t-39 -16z" />
    <glyph glyph-name="Ccaron" unicode="&#x10c;" horiz-adv-x="706" 
d="M52 349q0 150 105.5 255.5t255.5 105.5q133 0 242 -93q15 -15 1 -28l-27 -27q-11 -14 -26 1q-87 75 -191 75q-117 0 -198 -85t-81 -203q0 -117 81 -202t198 -85q61 0 104 18.5t87 56.5q14 11 26 -1l23 -23q6 -5 5.5 -13t-6.5 -14q-107 -97 -238 -97q-150 0 -255.5 104.5
t-105.5 254.5zM412 768q-8 0 -13 4l-120 94q-13 9 -6 19l14 18q8 12 23 2l102 -68l102 70q15 10 23 -2l14 -20q2 -3 2 -6t-1 -5.5t-4 -5.5t-5.5 -4.5t-6 -4t-4.5 -3.5l-107 -84q-5 -4 -13 -4z" />
    <glyph glyph-name="ccaron" unicode="&#x10d;" horiz-adv-x="500" 
d="M48 230q0 102 67 172t167 70q101 0 168 -76q15 -18 -4 -33l-16 -15q-15 -13 -33 7q-44 50 -116 50q-66 0 -112 -51t-46 -123q0 -73 45 -124t110 -51q32 0 58.5 12t38 22.5t29.5 31.5q17 20 39 -2l6 -6q16 -16 6 -32q-28 -41 -73.5 -67t-100.5 -26q-102 0 -167.5 68
t-65.5 173zM268 546l-120 94q-13 9 -6 19l14 18q8 12 23 2l102 -68l102 70q15 10 23 -2l14 -20q2 -3 2 -6t-1 -5.5t-4 -5.5t-5.5 -4.5t-6 -4t-4.5 -3.5l-107 -84q-5 -4 -13 -4t-13 4z" />
    <glyph glyph-name="Dcaron" unicode="&#x10e;" horiz-adv-x="742" 
d="M96 19v662q0 8 5.5 13.5t12.5 5.5h224q145 0 248 -102.5t103 -246.5q0 -145 -103 -248t-248 -103h-224q-7 0 -12.5 5.5t-5.5 13.5zM172 69h157q123 0 201 79t78 203q0 123 -78 202t-201 79h-157v-563zM335 768q-8 0 -13 4l-120 94q-13 9 -6 19l14 18q8 12 23 2l102 -68
l102 70q15 10 23 -2l14 -20q2 -3 2 -6t-1 -5.5t-4 -5.5t-5.5 -4.5t-6 -4t-4.5 -3.5l-107 -84q-5 -4 -13 -4z" />
    <glyph glyph-name="dcaron" unicode="&#x10f;" horiz-adv-x="552" 
d="M49 232q0 104 58.5 172t160.5 68q34 0 66 -7t47 -15l15 -7v235q0 8 6.5 15t15.5 7h28q9 0 16 -7t7 -15v-656q0 -9 -7 -15.5t-16 -6.5h-18q-13 0 -20 19l-6 30q-7 -7 -19 -17t-50 -26.5t-77 -16.5q-87 0 -147 71.5t-60 171.5zM124 231q0 -70 40 -122.5t101 -52.5
q37 0 69.5 18.5t47.5 37.5l14 18v249q-54 26 -118 26q-71 0 -112.5 -50.5t-41.5 -123.5zM522 663q0 22 15 35t39 13q31 0 50 -22.5t19 -62.5q0 -66 -46 -112q-6 -6 -15 0l-16 12q-8 8 0 17q29 24 29 65q0 14 -5 22q-7 -7 -25 -7q-20 0 -32.5 11.5t-12.5 28.5z" />
    <glyph glyph-name="Dcroat" unicode="&#x110;" horiz-adv-x="742" 
d="M96 19v305h-29q-7 0 -12.5 5.5t-5.5 13.5v7q0 8 5.5 13.5t12.5 5.5h29v312q0 8 5.5 13.5t12.5 5.5h224q145 0 248 -102.5t103 -246.5q0 -145 -103 -248t-248 -103h-224q-7 0 -12.5 5.5t-5.5 13.5zM172 69h150q123 0 203 79.5t80 202.5t-80 202t-203 79h-150v-263h211
q8 0 13.5 -5.5t5.5 -13.5v-8q0 -8 -5.5 -13t-13.5 -5h-211v-255z" />
    <glyph glyph-name="dcroat" unicode="&#x111;" horiz-adv-x="547" 
d="M49 232q0 104 58.5 172t160.5 68q34 0 66 -7t47 -15l15 -7v93h-155q-8 0 -13.5 5t-5.5 13v8q0 8 5.5 13.5t13.5 5.5h155v97q0 8 6.5 15t15.5 7h28q9 0 16 -7t7 -15v-97h29q7 0 12.5 -5.5t5.5 -13.5v-7q0 -8 -5.5 -13.5t-12.5 -5.5h-29v-514q0 -9 -7 -15.5t-16 -6.5h-18
q-13 0 -20 19l-6 30q-7 -7 -19 -17t-50 -26.5t-77 -16.5q-87 0 -147 71.5t-60 171.5zM124 231q0 -70 40 -122.5t101 -52.5q37 0 69.5 18.5t46.5 37.5l14 18v249q-53 26 -117 26q-71 0 -112.5 -50.5t-41.5 -123.5z" />
    <glyph glyph-name="Emacron" unicode="&#x112;" horiz-adv-x="576" 
d="M96 19v662q0 8 5.5 13.5t13.5 5.5h394q8 0 13.5 -5.5t5.5 -13.5v-29q0 -8 -5.5 -13.5t-13.5 -5.5h-336v-244h287q8 0 13.5 -5.5t5.5 -13.5v-29q0 -8 -5.5 -13.5t-13.5 -5.5h-287v-255h336q8 0 13.5 -5.5t5.5 -13.5v-29q0 -8 -5.5 -13.5t-13.5 -5.5h-394q-8 0 -13.5 5.5
t-5.5 13.5zM184 821q-8 0 -13.5 5t-5.5 13v21q0 19 19 19h256q19 0 19 -19v-21q0 -8 -5.5 -13t-13.5 -5h-256z" />
    <glyph glyph-name="emacron" unicode="&#x113;" horiz-adv-x="525" 
d="M49 231q0 101 61 171t163 70q91 0 150 -59.5t59 -150.5q0 -12 -2 -28q-2 -20 -21 -20h-336q2 -60 46 -109t105 -49q67 0 125 38q13 9 19 9.5t16 -12.5l12 -17q6 -9 7 -12t-1 -8.5t-10 -11.5q-67 -53 -169 -53t-163 69.5t-61 172.5zM124 273h284q-2 53 -40 92.5t-95 39.5
q-58 0 -100 -38.5t-49 -93.5zM146 583q-8 0 -13.5 5t-5.5 13v21q0 19 19 19h256q19 0 19 -19v-21q0 -8 -5.5 -13t-13.5 -5h-256z" />
    <glyph glyph-name="Ebreve" unicode="&#x114;" horiz-adv-x="576" 
d="M96 19v662q0 8 5.5 13.5t13.5 5.5h394q8 0 13.5 -5.5t5.5 -13.5v-29q0 -8 -5.5 -13.5t-13.5 -5.5h-336v-244h287q8 0 13.5 -5.5t5.5 -13.5v-29q0 -8 -5.5 -13.5t-13.5 -5.5h-287v-255h336q8 0 13.5 -5.5t5.5 -13.5v-29q0 -8 -5.5 -13.5t-13.5 -5.5h-394q-8 0 -13.5 5.5
t-5.5 13.5zM312 771q-52 0 -90 32.5t-45 81.5q-4 20 14 20h21q13 0 19 -17q8 -29 30 -46.5t51 -17.5q27 0 48.5 18.5t30.5 45.5q6 17 19 17h23q18 0 14 -20q-8 -49 -46 -81.5t-89 -32.5z" />
    <glyph glyph-name="ebreve" unicode="&#x115;" horiz-adv-x="525" 
d="M49 231q0 101 61 171t163 70q91 0 150 -59.5t59 -150.5q0 -12 -2 -28q-2 -20 -21 -20h-336q2 -60 46 -109t105 -49q67 0 125 38q13 9 19 9.5t16 -12.5l12 -17q6 -9 7 -12t-1 -8.5t-10 -11.5q-67 -53 -169 -53t-163 69.5t-61 172.5zM124 273h284q-2 53 -40 92.5t-95 39.5
q-58 0 -100 -38.5t-49 -93.5zM276 531q-52 0 -90 32.5t-45 81.5q-4 20 14 20h21q13 0 19 -17q8 -29 30 -46.5t51 -17.5q27 0 48.5 18.5t30.5 45.5q6 17 19 17h23q18 0 14 -20q-8 -49 -46 -81.5t-89 -32.5z" />
    <glyph glyph-name="Edotaccent" unicode="&#x116;" horiz-adv-x="576" 
d="M96 19v662q0 8 5.5 13.5t13.5 5.5h394q8 0 13.5 -5.5t5.5 -13.5v-29q0 -8 -5.5 -13.5t-13.5 -5.5h-336v-244h287q8 0 13.5 -5.5t5.5 -13.5v-29q0 -8 -5.5 -13.5t-13.5 -5.5h-287v-255h336q8 0 13.5 -5.5t5.5 -13.5v-29q0 -8 -5.5 -13.5t-13.5 -5.5h-394q-8 0 -13.5 5.5
t-5.5 13.5zM314 798q-22 0 -38 16t-16 38q0 24 15.5 40t38.5 16t39 -16t16 -40q0 -22 -16 -38t-39 -16z" />
    <glyph glyph-name="edotaccent" unicode="&#x117;" horiz-adv-x="525" 
d="M49 231q0 101 61 171t163 70q91 0 150 -59.5t59 -150.5q0 -12 -2 -28q-2 -20 -21 -20h-336q2 -60 46 -109t105 -49q67 0 125 38q13 9 19 9.5t16 -12.5l12 -17q6 -9 7 -12t-1 -8.5t-10 -11.5q-67 -53 -169 -53t-163 69.5t-61 172.5zM124 273h284q-2 53 -40 92.5t-95 39.5
q-58 0 -100 -38.5t-49 -93.5zM277 581q-22 0 -38 16t-16 38q0 24 15.5 40t38.5 16t39 -16t16 -40q0 -22 -16 -38t-39 -16z" />
    <glyph glyph-name="Eogonek" unicode="&#x118;" horiz-adv-x="576" 
d="M96 19v662q0 8 5.5 13.5t13.5 5.5h394q8 0 13.5 -5.5t5.5 -13.5v-29q0 -8 -5.5 -13.5t-13.5 -5.5h-336v-244h287q8 0 13.5 -5.5t5.5 -13.5v-29q0 -8 -5.5 -13.5t-13.5 -5.5h-287v-255h336q8 0 13.5 -5.5t5.5 -13.5v-25q0 -15 -13 -22q-105 -62 -105 -132q0 -25 13.5 -39
t37.5 -14q28 0 63 26q5 5 10 3.5t6 -8.5l1 -34q2 -14 -12 -24q-40 -23 -83 -23q-47 0 -73 28t-26 72q0 81 98 144h-330q-8 0 -13.5 5.5t-5.5 13.5z" />
    <glyph glyph-name="eogonek" unicode="&#x119;" horiz-adv-x="525" 
d="M49 231q0 101 61 171t163 70q91 0 150 -59.5t59 -150.5q0 -12 -2 -28q-2 -20 -21 -20h-336q2 -60 46 -109t105 -49q67 0 125 38q13 9 19 9.5t16 -12.5l12 -17q6 -9 7 -12t-1 -8.5t-10 -11.5q-35 -28 -88 -42q-103 -61 -103 -131q0 -25 13.5 -39t37.5 -14q28 0 63 26
q5 5 10 3.5t6 -8.5l1 -34q2 -14 -12 -24q-40 -23 -83 -23q-47 0 -73 28t-26 72q0 74 82 133q-101 1 -161 70.5t-60 171.5zM124 273h284q-2 53 -40 92.5t-95 39.5q-58 0 -100 -38.5t-49 -93.5z" />
    <glyph glyph-name="Ecaron" unicode="&#x11a;" horiz-adv-x="576" 
d="M96 19v662q0 8 5.5 13.5t13.5 5.5h394q8 0 13.5 -5.5t5.5 -13.5v-29q0 -8 -5.5 -13.5t-13.5 -5.5h-336v-244h287q8 0 13.5 -5.5t5.5 -13.5v-29q0 -8 -5.5 -13.5t-13.5 -5.5h-287v-255h336q8 0 13.5 -5.5t5.5 -13.5v-29q0 -8 -5.5 -13.5t-13.5 -5.5h-394q-8 0 -13.5 5.5
t-5.5 13.5zM311 768q-8 0 -13 4l-120 94q-13 9 -6 19l14 18q8 12 23 2l102 -68l102 70q15 10 23 -2l14 -20q2 -3 2 -6t-1 -5.5t-4 -5.5t-5.5 -4.5t-6 -4t-4.5 -3.5l-107 -84q-5 -4 -13 -4z" />
    <glyph glyph-name="ecaron" unicode="&#x11b;" horiz-adv-x="525" 
d="M49 231q0 101 61 171t163 70q91 0 150 -59.5t59 -150.5q0 -12 -2 -28q-2 -20 -21 -20h-336q2 -60 46 -109t105 -49q67 0 125 38q13 9 19 9.5t16 -12.5l12 -17q6 -9 7 -12t-1 -8.5t-10 -11.5q-67 -53 -169 -53t-163 69.5t-61 172.5zM124 273h284q-2 53 -40 92.5t-95 39.5
q-58 0 -100 -38.5t-49 -93.5zM259 546l-120 94q-13 9 -6 19l14 18q8 12 23 2l102 -68l102 70q15 10 23 -2l14 -20q2 -3 2 -6t-1 -5.5t-4 -5.5t-5.5 -4.5t-6 -4t-4.5 -3.5l-107 -84q-5 -4 -13 -4t-13 4z" />
    <glyph glyph-name="Gcircumflex" unicode="&#x11c;" horiz-adv-x="734" 
d="M52 349q0 150 105.5 255.5t255.5 105.5q133 0 242 -93q15 -15 1 -28l-28 -28q-11 -12 -26 1q-40 35 -90.5 56.5t-99.5 21.5q-117 0 -197.5 -84.5t-80.5 -202.5q0 -117 80.5 -203t197.5 -86q49 0 94 10.5t66 21.5l20 10v140h-115q-8 0 -13.5 5t-5.5 13v37q0 19 19 19h173
q7 0 12.5 -5.5t5.5 -13.5v-229q0 -10 -8 -16q-11 -7 -32 -18t-86 -29.5t-129 -18.5q-150 0 -255.5 104.5t-105.5 254.5zM287 775l-14 18q-7 10 6 19l120 94q5 4 13 4t13 -4l120 -94q13 -9 6 -19q-2 -2 -5.5 -8t-6 -9t-6.5 -6.5t-8.5 -3t-10.5 4.5l-102 70l-102 -68
q-15 -10 -23 2z" />
    <glyph glyph-name="gcircumflex" unicode="&#x11d;" horiz-adv-x="547" 
d="M160 555l-14 18q-7 10 6 19l120 94q5 4 13 4t13 -4l120 -94q13 -9 6 -19q-2 -2 -5.5 -8t-6 -9t-6.5 -6.5t-8.5 -3t-10.5 4.5l-102 70l-102 -68q-15 -10 -23 2zM124 232q0 -75 44 -125t110 -50q28 0 57.5 9.5t44.5 19.5l15 9v253q-5 6 -15 15.5t-42 25t-65 15.5
q-67 0 -108 -51t-41 -121zM469 440v-443q0 -111 -57.5 -163.5t-144.5 -52.5q-49 0 -93.5 19.5t-67.5 40.5q-15 13 -5 27l20 29q11 18 30 1q58 -49 116 -49q59 0 94 35.5t35 112.5v33q-52 -41 -128 -41q-94 0 -156.5 70t-62.5 172q0 101 61.5 171t154.5 70q37 0 71.5 -12
t50.5 -24l16 -11l7 21q9 16 22 16h14q9 0 16 -7t7 -15z" />
    <glyph glyph-name="Gbreve" unicode="&#x11e;" horiz-adv-x="734" 
d="M52 349q0 150 105.5 255.5t255.5 105.5q133 0 242 -93q15 -15 1 -28l-28 -28q-11 -12 -26 1q-40 35 -90.5 56.5t-99.5 21.5q-117 0 -197.5 -84.5t-80.5 -202.5q0 -117 80.5 -203t197.5 -86q49 0 94 10.5t66 21.5l20 10v140h-115q-8 0 -13.5 5t-5.5 13v37q0 19 19 19h173
q7 0 12.5 -5.5t5.5 -13.5v-229q0 -10 -8 -16q-11 -7 -32 -18t-86 -29.5t-129 -18.5q-150 0 -255.5 104.5t-105.5 254.5zM413 771q-52 0 -90 32.5t-45 81.5q-4 20 14 20h21q13 0 19 -17q8 -29 30 -46.5t51 -17.5q27 0 48.5 18.5t30.5 45.5q6 17 19 17h23q18 0 14 -20
q-8 -49 -46 -81.5t-89 -32.5z" />
    <glyph glyph-name="gbreve" unicode="&#x11f;" horiz-adv-x="547" 
d="M287 531q-52 0 -90 32.5t-45 81.5q-4 20 14 20h21q13 0 19 -17q8 -29 30 -46.5t51 -17.5q27 0 48.5 18.5t30.5 45.5q6 17 19 17h23q18 0 14 -20q-8 -49 -46 -81.5t-89 -32.5zM124 232q0 -75 44 -125t110 -50q28 0 57.5 9.5t44.5 19.5l15 9v253q-5 6 -15 15.5t-42 25
t-65 15.5q-67 0 -108 -51t-41 -121zM469 440v-443q0 -111 -57.5 -163.5t-144.5 -52.5q-49 0 -93.5 19.5t-67.5 40.5q-15 13 -5 27l20 29q11 18 30 1q58 -49 116 -49q59 0 94 35.5t35 112.5v33q-52 -41 -128 -41q-94 0 -156.5 70t-62.5 172q0 101 61.5 171t154.5 70
q37 0 71.5 -12t50.5 -24l16 -11l7 21q9 16 22 16h14q9 0 16 -7t7 -15z" />
    <glyph glyph-name="Gdotaccent" unicode="&#x120;" horiz-adv-x="734" 
d="M52 349q0 150 105.5 255.5t255.5 105.5q133 0 242 -93q15 -15 1 -28l-28 -28q-11 -12 -26 1q-40 35 -90.5 56.5t-99.5 21.5q-117 0 -197.5 -84.5t-80.5 -202.5q0 -117 80.5 -203t197.5 -86q49 0 94 10.5t66 21.5l20 10v140h-115q-8 0 -13.5 5t-5.5 13v37q0 19 19 19h173
q7 0 12.5 -5.5t5.5 -13.5v-229q0 -10 -8 -16q-11 -7 -32 -18t-86 -29.5t-129 -18.5q-150 0 -255.5 104.5t-105.5 254.5zM412 798q-22 0 -38 16t-16 38q0 24 15.5 40t38.5 16t39 -16t16 -40q0 -22 -16 -38t-39 -16z" />
    <glyph glyph-name="gdotaccent" unicode="&#x121;" horiz-adv-x="547" 
d="M288 581q-22 0 -38 16t-16 38q0 24 15.5 40t38.5 16t39 -16t16 -40q0 -22 -16 -38t-39 -16zM124 232q0 -75 44 -125t110 -50q28 0 57.5 9.5t44.5 19.5l15 9v253q-5 6 -15 15.5t-42 25t-65 15.5q-67 0 -108 -51t-41 -121zM469 440v-443q0 -111 -57.5 -163.5t-144.5 -52.5
q-49 0 -93.5 19.5t-67.5 40.5q-15 13 -5 27l20 29q11 18 30 1q58 -49 116 -49q59 0 94 35.5t35 112.5v33q-52 -41 -128 -41q-94 0 -156.5 70t-62.5 172q0 101 61.5 171t154.5 70q37 0 71.5 -12t50.5 -24l16 -11l7 21q9 16 22 16h14q9 0 16 -7t7 -15z" />
    <glyph glyph-name="Gcommaaccent" unicode="&#x122;" horiz-adv-x="734" 
d="M52 349q0 150 105.5 255.5t255.5 105.5q133 0 242 -93q15 -15 1 -28l-28 -28q-11 -12 -26 1q-40 35 -90.5 56.5t-99.5 21.5q-117 0 -197.5 -84.5t-80.5 -202.5q0 -117 80.5 -203t197.5 -86q49 0 94 10.5t66 21.5l20 10v140h-115q-8 0 -13.5 5t-5.5 13v37q0 19 19 19h173
q7 0 12.5 -5.5t5.5 -13.5v-229q0 -10 -8 -16q-11 -7 -32 -18t-86 -29.5t-129 -18.5q-150 0 -255.5 104.5t-105.5 254.5zM357 -119q0 22 15 35t39 13q31 0 50 -22.5t19 -62.5q0 -66 -46 -112q-6 -6 -15 0l-16 12q-9 8 0 17q29 24 29 65q0 14 -5 22q-7 -7 -25 -7
q-20 0 -32.5 11.5t-12.5 28.5z" />
    <glyph glyph-name="gcommaaccent" unicode="&#x123;" horiz-adv-x="547" 
d="M124 232q0 -75 44 -125t110 -50q28 0 57.5 9.5t44.5 19.5l15 9v253q-5 6 -15 15.5t-42 25t-65 15.5q-67 0 -108 -51t-41 -121zM469 440v-443q0 -111 -57.5 -163.5t-144.5 -52.5q-49 0 -93.5 19.5t-67.5 40.5q-15 13 -5 27l20 29q11 18 30 1q58 -49 116 -49q59 0 94 35.5
t35 112.5v33q-52 -41 -128 -41q-94 0 -156.5 70t-62.5 172q0 101 61.5 171t154.5 70q37 0 71.5 -12t50.5 -24l16 -11l7 21q9 16 22 16h14q9 0 16 -7t7 -15zM348 600q0 -22 -15 -35t-39 -13q-31 0 -50 22.5t-19 62.5q0 66 46 112q6 6 15 0l16 -12q8 -9 0 -17q-29 -24 -29 -65
q0 -14 5 -22q7 7 25 7q20 0 32.5 -11.5t12.5 -28.5z" />
    <glyph glyph-name="Hcircumflex" unicode="&#x124;" horiz-adv-x="752" 
d="M96 19v662q0 7 6 13t13 6h39q8 0 13.5 -5.5t5.5 -13.5v-292h406v292q0 8 5.5 13.5t13.5 5.5h39q7 0 13 -6t6 -13v-662q0 -7 -6 -13t-13 -6h-39q-8 0 -13.5 5.5t-5.5 13.5v303h-406v-303q0 -8 -5.5 -13.5t-13.5 -5.5h-39q-7 0 -13 6t-6 13zM253 775l-14 18q-7 10 6 19
l120 94q5 4 13 4t13 -4l120 -94q13 -9 6 -19q-2 -2 -5.5 -8t-6 -9t-6.5 -6.5t-8.5 -3t-10.5 4.5l-102 70l-102 -68q-15 -10 -23 2z" />
    <glyph glyph-name="hcircumflex" unicode="&#x125;" horiz-adv-x="539" 
d="M78 22v656q0 8 6.5 15t15.5 7h30q8 0 15 -7t7 -15v-265q6 7 17.5 16.5t50 26t79.5 16.5q167 0 167 -206v-244q0 -9 -7 -15.5t-15 -6.5h-31q-9 0 -15.5 6.5t-6.5 15.5v244q0 139 -97 139q-39 0 -74.5 -16.5t-51.5 -32.5l-16 -17v-317q0 -9 -7 -15.5t-15 -6.5h-30
q-9 0 -15.5 6.5t-6.5 15.5zM-15 772l-14 18q-7 10 6 19l120 94q5 4 13 4t13 -4l120 -94q13 -9 6 -19q-2 -2 -5.5 -8t-6 -9t-6.5 -6.5t-8.5 -3t-10.5 4.5l-102 70l-102 -68q-15 -10 -23 2z" />
    <glyph glyph-name="Hbar" unicode="&#x126;" horiz-adv-x="752" 
d="M96 19v517h-22q-7 0 -12.5 5.5t-5.5 13.5v7q0 8 5.5 13.5t12.5 5.5h22v100q0 7 6 13t13 6h39q8 0 13.5 -5.5t5.5 -13.5v-100h406v100q0 8 5.5 13.5t13.5 5.5h39q7 0 13 -6t6 -13v-100h21q8 0 13.5 -5.5t5.5 -13.5v-8q0 -8 -5.5 -13t-13.5 -5h-21v-517q0 -7 -6 -13t-13 -6
h-39q-8 0 -13.5 5.5t-5.5 13.5v303h-406v-303q0 -8 -5.5 -13.5t-13.5 -5.5h-39q-7 0 -13 6t-6 13zM173 389h406v147h-406v-147z" />
    <glyph glyph-name="hbar" unicode="&#x127;" horiz-adv-x="559" 
d="M78 22v514h-32q-7 0 -12.5 5.5t-5.5 13.5v7q0 8 5.5 13.5t12.5 5.5h32v97q0 8 6.5 15t15.5 7h30q8 0 15 -7t7 -15v-97h151q8 0 13.5 -5.5t5.5 -13.5v-8q0 -8 -5.5 -13t-13.5 -5h-151v-123q7 7 20.5 16.5t54.5 26t82 16.5q86 0 131.5 -52.5t45.5 -153.5v-244
q0 -9 -7 -15.5t-15 -6.5h-31q-9 0 -15.5 6.5t-6.5 15.5v244q0 67 -27 103t-80 36q-39 0 -77 -16.5t-57 -32.5l-18 -17v-317q0 -9 -7 -15.5t-15 -6.5h-30q-9 0 -15.5 6.5t-6.5 15.5z" />
    <glyph glyph-name="Itilde" unicode="&#x128;" horiz-adv-x="270" 
d="M96 19v662q0 7 6 13t13 6h40q7 0 13 -6t6 -13v-662q0 -7 -6 -13t-13 -6h-40q-7 0 -13 6t-6 13zM10 795l-18 9q-11 6 -4 22q0 1 6 15t11.5 23t15.5 21t25 18.5t34 6.5q26 0 46.5 -18.5t36 -37t27.5 -18.5q30 0 45 51q5 16 23 8l16 -8q10 -5 4 -26q-28 -81 -89 -81
q-24 0 -45.5 19t-37.5 37.5t-27 18.5q-12 0 -22 -9t-13.5 -17.5t-8.5 -23.5q-6 -20 -25 -10z" />
    <glyph glyph-name="itilde" unicode="&#x129;" horiz-adv-x="230" 
d="M78 22v418q0 8 6.5 15t15.5 7h30q8 0 15 -7t7 -15v-418q0 -9 -7 -15.5t-15 -6.5h-30q-9 0 -15.5 6.5t-6.5 15.5zM-7 575l-18 9q-11 6 -4 22q0 1 6 15t11.5 23t15.5 21t25 18.5t34 6.5q26 0 46.5 -18.5t36 -37t27.5 -18.5q30 0 45 51q5 16 23 8l16 -8q10 -5 4 -26
q-28 -81 -89 -81q-24 0 -45.5 19t-37.5 37.5t-27 18.5q-12 0 -22 -9t-13.5 -17.5t-8.5 -23.5q-6 -20 -25 -10z" />
    <glyph glyph-name="Imacron" unicode="&#x12a;" horiz-adv-x="270" 
d="M96 19v662q0 7 6 13t13 6h40q7 0 13 -6t6 -13v-662q0 -7 -6 -13t-13 -6h-40q-7 0 -13 6t-6 13zM8 821q-8 0 -13.5 5t-5.5 13v21q0 19 19 19h256q19 0 19 -19v-21q0 -8 -5.5 -13t-13.5 -5h-256z" />
    <glyph glyph-name="imacron" unicode="&#x12b;" horiz-adv-x="230" 
d="M78 22v418q0 8 6.5 15t15.5 7h30q8 0 15 -7t7 -15v-418q0 -9 -7 -15.5t-15 -6.5h-30q-9 0 -15.5 6.5t-6.5 15.5zM-10 583q-8 0 -13.5 5t-5.5 13v21q0 19 19 19h256q19 0 19 -19v-21q0 -8 -5.5 -13t-13.5 -5h-256z" />
    <glyph glyph-name="Ibreve" unicode="&#x12c;" horiz-adv-x="270" 
d="M96 19v662q0 7 6 13t13 6h40q7 0 13 -6t6 -13v-662q0 -7 -6 -13t-13 -6h-40q-7 0 -13 6t-6 13zM136 771q-52 0 -90 32.5t-45 81.5q-4 20 14 20h21q13 0 19 -17q8 -29 30 -46.5t51 -17.5q27 0 48.5 18.5t30.5 45.5q6 17 19 17h23q18 0 14 -20q-8 -49 -46 -81.5t-89 -32.5z
" />
    <glyph glyph-name="ibreve" unicode="&#x12d;" horiz-adv-x="230" 
d="M78 22v418q0 8 6.5 15t15.5 7h30q8 0 15 -7t7 -15v-418q0 -9 -7 -15.5t-15 -6.5h-30q-9 0 -15.5 6.5t-6.5 15.5zM118 531q-52 0 -90 32.5t-45 81.5q-4 20 14 20h21q13 0 19 -17q8 -29 30 -46.5t51 -17.5q27 0 48.5 18.5t30.5 45.5q6 17 19 17h23q18 0 14 -20
q-8 -49 -46 -81.5t-89 -32.5z" />
    <glyph glyph-name="Iogonek" unicode="&#x12e;" horiz-adv-x="270" 
d="M96 19v662q0 7 6 13t13 6h40q7 0 13 -6t6 -13v-660q0 -15 -15 -21q-38 -19 -71 -54.5t-33 -76.5q0 -25 13.5 -39t37.5 -14q28 0 63 26q5 5 10 3.5t6 -8.5l1 -34q2 -14 -12 -24q-40 -23 -83 -23q-47 0 -73 28t-26 72q0 83 108 151q-4 4 -4 12z" />
    <glyph glyph-name="iogonek" unicode="&#x12f;" horiz-adv-x="231" 
d="M79 16v424q0 8 6.5 15t15.5 7h30q8 0 15 -7t7 -15v-415q0 -14 -16 -24q-105 -65 -105 -132q0 -25 13.5 -39t37.5 -14q28 0 63 26q5 5 10 3.5t6 -8.5l1 -34q2 -14 -12 -24q-40 -23 -83 -23q-47 0 -73 28t-26 72q0 86 110 160zM114 581q-22 0 -38 16t-16 38q0 24 15.5 40
t38.5 16t39 -16t16 -40q0 -22 -16 -38t-39 -16z" />
    <glyph glyph-name="Idotaccent" unicode="&#x130;" horiz-adv-x="270" 
d="M96 19v662q0 7 6 13t13 6h40q7 0 13 -6t6 -13v-662q0 -7 -6 -13t-13 -6h-40q-7 0 -13 6t-6 13zM135 798q-22 0 -38 16t-16 38q0 24 15.5 40t38.5 16t39 -16t16 -40q0 -22 -16 -38t-39 -16z" />
    <glyph glyph-name="dotlessi" unicode="&#x131;" horiz-adv-x="230" 
d="M78 22v418q0 8 6.5 15t15.5 7h30q8 0 15 -7t7 -15v-418q0 -9 -7 -15.5t-15 -6.5h-30q-9 0 -15.5 6.5t-6.5 15.5z" />
    <glyph glyph-name="IJ" unicode="&#x132;" horiz-adv-x="711" 
d="M96 19v662q0 7 6 13t13 6h40q7 0 13 -6t6 -13v-662q0 -7 -6 -13t-13 -6h-40q-7 0 -13 6t-6 13zM268 64q-9 14 1 25l20 23q15 18 34 -3q47 -52 106 -52q47 0 81 33.5t34 106.5v484q0 8 5.5 13.5t13.5 5.5h39q8 0 13.5 -5.5t5.5 -13.5v-482q0 -101 -53.5 -155t-138.5 -54
q-101 0 -161 74z" />
    <glyph glyph-name="ij" unicode="&#x133;" horiz-adv-x="467" 
d="M113 581q-22 0 -38 16t-16 38q0 24 15.5 40t38.5 16t39 -16t16 -40q0 -22 -16 -38t-39 -16zM78 22v418q0 8 6.5 15t15.5 7h30q8 0 15 -7t7 -15v-418q0 -9 -7 -15.5t-15 -6.5h-30q-9 0 -15.5 6.5t-6.5 15.5zM351 581q-23 0 -39 16t-16 38q0 24 16 40t39 16t38.5 -16
t15.5 -40q0 -22 -16 -38t-38 -16zM389 440v-490q0 -170 -131 -198q-16 -3 -21 12l-10 30q-7 19 14 27q39 14 56.5 40t17.5 82v497q0 10 6.5 16t15.5 6h30q9 0 15.5 -6.5t6.5 -15.5z" />
    <glyph glyph-name="Jcircumflex" unicode="&#x134;" horiz-adv-x="464" 
d="M21 64q-9 14 1 25l20 23q15 18 34 -3q47 -52 106 -52q47 0 81 33.5t34 106.5v484q0 8 5.5 13.5t13.5 5.5h39q8 0 13.5 -5.5t5.5 -13.5v-482q0 -101 -53.5 -155t-138.5 -54q-101 0 -161 74zM210 775l-14 18q-7 10 6 19l120 94q5 4 13 4t13 -4l120 -94q13 -9 6 -19
q-2 -2 -5.5 -8t-6 -9t-6.5 -6.5t-8.5 -3t-10.5 4.5l-102 70l-102 -68q-15 -10 -23 2z" />
    <glyph glyph-name="jcircumflex" unicode="&#x135;" horiz-adv-x="230" 
d="M152 440v-490q0 -170 -131 -198q-17 -3 -21 12l-10 30q-7 19 14 27q39 14 56.5 40t17.5 82v497q0 10 6.5 16t15.5 6h30q9 0 15.5 -6.5t6.5 -15.5zM-10 555l-14 18q-7 10 6 19l120 94q5 4 13 4t13 -4l120 -94q13 -9 6 -19q-2 -2 -5.5 -8t-6 -9t-6.5 -6.5t-8.5 -3
t-10.5 4.5l-102 70l-102 -68q-15 -10 -23 2z" />
    <glyph glyph-name="Kcommaaccent" unicode="&#x136;" horiz-adv-x="601" 
d="M96 24v652q0 10 7 17t17 7h29q10 0 17 -7t7 -17v-289l312 303q8 10 19 10h49q14 0 18.5 -12t-6.5 -23l-316 -301l331 -333q7 -5 2.5 -18t-19.5 -13h-51q-13 0 -18 7l-321 329v-312q0 -10 -7 -17t-17 -7h-29q-10 0 -17 7t-7 17zM253 -119q0 22 15 35t39 13q31 0 50 -22.5
t19 -62.5q0 -66 -46 -112q-6 -6 -15 0l-16 12q-9 8 0 17q29 24 29 65q0 14 -5 22q-7 -7 -25 -7q-20 0 -32.5 11.5t-12.5 28.5z" />
    <glyph glyph-name="kcommaaccent" unicode="&#x137;" horiz-adv-x="484" 
d="M78 22v656q0 8 6.5 15t15.5 7h30q8 0 15 -7t7 -15v-391l192 161q16 14 28 14h56q14 0 16 -12t-5 -16l-213 -177l229 -228q8 -6 5 -17.5t-17 -11.5h-57q-12 0 -23 9l-211 223v-210q0 -9 -7 -15.5t-15 -6.5h-30q-9 0 -15.5 6.5t-6.5 15.5zM200 -119q0 22 15 35t39 13
q31 0 50 -22.5t19 -62.5q0 -66 -46 -112q-6 -6 -15 0l-16 12q-8 8 0 17q29 24 29 65q0 14 -5 22q-7 -7 -25 -7q-20 0 -32.5 11.5t-12.5 28.5z" />
    <glyph glyph-name="kgreenlandic" unicode="&#x138;" horiz-adv-x="504" 
d="M78 22v418q0 8 6.5 15t15.5 7h30q8 0 15 -7t7 -15v-191l206 199q14 14 27 14h55q14 0 16 -12t-6 -16l-226 -205l256 -200q8 -6 5 -17.5t-17 -11.5h-59q-12 0 -23 9l-234 191v-178q0 -9 -7 -15.5t-15 -6.5h-30q-9 0 -15.5 6.5t-6.5 15.5z" />
    <glyph glyph-name="Lacute" unicode="&#x139;" horiz-adv-x="494" 
d="M96 19v662q0 8 5.5 13.5t13.5 5.5h39q8 0 13.5 -6t5.5 -13v-614h288q8 0 13.5 -5.5t5.5 -13.5v-29q0 -8 -5.5 -13.5t-13.5 -5.5h-346q-8 0 -13.5 5.5t-5.5 13.5zM45 783l-10 22q-6 13 6 19l150 84q4 4 13.5 3.5t12.5 -6.5l18 -36q8 -16 -6 -21l-161 -67q-18 -8 -23 2z
" />
    <glyph glyph-name="lacute" unicode="&#x13a;" horiz-adv-x="240" 
d="M83 22v656q0 8 6.5 15t15.5 7h30q8 0 15 -7t7 -15v-656q0 -9 -7 -15.5t-15 -6.5h-30q-9 0 -15.5 6.5t-6.5 15.5zM36 778l-10 22q-6 13 6 19l150 84q4 4 13.5 3.5t12.5 -6.5l18 -36q8 -16 -6 -21l-161 -67q-18 -8 -23 2z" />
    <glyph glyph-name="Lcommaaccent" unicode="&#x13b;" horiz-adv-x="494" 
d="M96 19v662q0 8 5.5 13.5t13.5 5.5h39q8 0 13.5 -6t5.5 -13v-614h288q8 0 13.5 -5.5t5.5 -13.5v-29q0 -8 -5.5 -13.5t-13.5 -5.5h-346q-8 0 -13.5 5.5t-5.5 13.5zM235 -119q0 22 15 35t39 13q31 0 50 -22.5t19 -62.5q0 -66 -46 -112q-6 -6 -15 0l-16 12q-9 8 0 17
q29 24 29 65q0 14 -5 22q-7 -7 -25 -7q-20 0 -32.5 11.5t-12.5 28.5z" />
    <glyph glyph-name="lcommaaccent" unicode="&#x13c;" horiz-adv-x="240" 
d="M83 22v656q0 8 6.5 15t15.5 7h30q8 0 15 -7t7 -15v-656q0 -9 -7 -15.5t-15 -6.5h-30q-9 0 -15.5 6.5t-6.5 15.5zM64 -119q0 22 15 35t39 13q31 0 50 -22.5t19 -62.5q0 -66 -46 -112q-6 -6 -15 0l-16 12q-8 8 0 17q29 24 29 65q0 14 -5 22q-7 -7 -25 -7q-20 0 -32.5 11.5
t-12.5 28.5z" />
    <glyph glyph-name="Lcaron" unicode="&#x13d;" horiz-adv-x="502" 
d="M96 19v662q0 8 5.5 13.5t13.5 5.5h39q8 0 13.5 -6t5.5 -13v-614h288q8 0 13.5 -5.5t5.5 -13.5v-29q0 -8 -5.5 -13.5t-13.5 -5.5h-346q-8 0 -13.5 5.5t-5.5 13.5zM334 662q0 22 15 35t39 13q31 0 50 -22.5t19 -62.5q0 -66 -46 -112q-6 -6 -15 0l-16 12q-8 9 0 17
q29 24 29 65q0 14 -5 22q-7 -7 -25 -7q-20 0 -32.5 11.5t-12.5 28.5z" />
    <glyph glyph-name="lcaron" unicode="&#x13e;" horiz-adv-x="240" 
d="M83 22v656q0 8 6.5 15t15.5 7h30q8 0 15 -7t7 -15v-656q0 -9 -7 -15.5t-15 -6.5h-30q-9 0 -15.5 6.5t-6.5 15.5zM210 663q0 22 15 35t39 13q31 0 50 -22.5t19 -62.5q0 -66 -46 -112q-6 -6 -15 0l-16 12q-8 8 0 17q29 24 29 65q0 14 -5 22q-7 -7 -25 -7q-20 0 -32.5 11.5
t-12.5 28.5z" />
    <glyph glyph-name="Ldot" unicode="&#x13f;" horiz-adv-x="516" 
d="M96 19v662q0 8 5.5 13.5t13.5 5.5h39q8 0 13.5 -6t5.5 -13v-614h288q8 0 13.5 -5.5t5.5 -13.5v-29q0 -8 -5.5 -13.5t-13.5 -5.5h-346q-8 0 -13.5 5.5t-5.5 13.5zM438 292q-23 0 -40 17t-17 40q0 24 17 40.5t40 16.5q24 0 40.5 -16.5t16.5 -40.5q0 -23 -16.5 -40
t-40.5 -17z" />
    <glyph glyph-name="ldot" unicode="&#x140;" horiz-adv-x="345" 
d="M83 22v656q0 8 6.5 15t15.5 7h30q8 0 15 -7t7 -15v-656q0 -9 -7 -15.5t-15 -6.5h-30q-9 0 -15.5 6.5t-6.5 15.5zM292 288q-23 0 -40 17t-17 40q0 24 17 40.5t40 16.5q24 0 40.5 -16.5t16.5 -40.5q0 -23 -16.5 -40t-40.5 -17z" />
    <glyph glyph-name="Lslash" unicode="&#x141;" horiz-adv-x="494" 
d="M96 19v292l-21 -12q-16 -10 -25 7l-4 8q-8 16 7 24l43 24v319q0 8 5.5 13.5t13.5 5.5h39q8 0 13.5 -6t5.5 -13v-274l111 64q17 10 26 -7l3 -6q9 -16 -7 -26l-133 -76v-289h288q8 0 13.5 -5.5t5.5 -13.5v-29q0 -8 -5.5 -13.5t-13.5 -5.5h-346q-8 0 -13.5 5.5t-5.5 13.5z
" />
    <glyph glyph-name="lslash" unicode="&#x142;" horiz-adv-x="290" 
d="M93 22v298l-48 -27q-6 -4 -13.5 -2t-11.5 9l-3 6q-10 16 6 26l70 40v306q0 8 6.5 15t15.5 7h30q8 0 15 -7t7 -15v-263l87 50q16 9 26 -7l3 -6q9 -16 -7 -26l-109 -63v-341q0 -9 -7 -15.5t-15 -6.5h-30q-9 0 -15.5 6.5t-6.5 15.5z" />
    <glyph glyph-name="Nacute" unicode="&#x143;" horiz-adv-x="762" 
d="M96 19v673q0 7 5.5 12.5t13.5 5.5h15q11 0 16 -8l445 -554h2v533q0 8 5.5 13.5t13.5 5.5h35q7 0 13 -6t6 -13v-673q0 -7 -5.5 -12.5t-13.5 -5.5h-8q-11 0 -16 8l-453 565h-1v-544q0 -8 -5.5 -13.5t-13.5 -5.5h-35q-7 0 -13 6t-6 13zM303 783l-10 22q-6 13 6 19l150 84
q4 4 13.5 3.5t12.5 -6.5l18 -36q8 -16 -6 -21l-161 -67q-18 -8 -23 2z" />
    <glyph glyph-name="nacute" unicode="&#x144;" horiz-adv-x="539" 
d="M78 22v418q0 8 6.5 15t15.5 7h16q15 0 18 -14l10 -35q7 7 19.5 16.5t52.5 26t83 16.5q94 0 130.5 -53.5t36.5 -152.5v-244q0 -9 -7 -15.5t-15 -6.5h-30q-9 0 -15.5 6.5t-6.5 15.5v254q0 66 -23.5 97.5t-74.5 31.5q-39 0 -74.5 -16t-51.5 -32l-16 -16v-319q0 -9 -7 -15.5
t-15 -6.5h-30q-9 0 -15.5 6.5t-6.5 15.5zM185 561l-10 22q-6 13 6 19l150 84q4 4 13.5 3.5t12.5 -6.5l18 -36q8 -16 -6 -21l-161 -67q-18 -8 -23 2z" />
    <glyph glyph-name="Ncommaaccent" unicode="&#x145;" horiz-adv-x="762" 
d="M96 19v673q0 7 5.5 12.5t13.5 5.5h15q11 0 16 -8l445 -554h2v533q0 8 5.5 13.5t13.5 5.5h35q7 0 13 -6t6 -13v-673q0 -7 -5.5 -12.5t-13.5 -5.5h-8q-11 0 -16 8l-453 565h-1v-544q0 -8 -5.5 -13.5t-13.5 -5.5h-35q-7 0 -13 6t-6 13zM329 -119q0 22 15 35t39 13
q31 0 50 -22.5t19 -62.5q0 -66 -46 -112q-6 -6 -15 0l-16 12q-9 8 0 17q29 24 29 65q0 14 -5 22q-7 -7 -25 -7q-20 0 -32.5 11.5t-12.5 28.5z" />
    <glyph glyph-name="ncommaaccent" unicode="&#x146;" horiz-adv-x="539" 
d="M78 22v418q0 8 6.5 15t15.5 7h16q15 0 18 -14l10 -35q7 7 19.5 16.5t52.5 26t83 16.5q94 0 130.5 -53.5t36.5 -152.5v-244q0 -9 -7 -15.5t-15 -6.5h-30q-9 0 -15.5 6.5t-6.5 15.5v254q0 66 -23.5 97.5t-74.5 31.5q-39 0 -74.5 -16t-51.5 -32l-16 -16v-319q0 -9 -7 -15.5
t-15 -6.5h-30q-9 0 -15.5 6.5t-6.5 15.5zM217 -119q0 22 15 35t39 13q31 0 50 -22.5t19 -62.5q0 -66 -46 -112q-6 -6 -15 0l-16 12q-9 8 0 17q29 24 29 65q0 14 -5 22q-7 -7 -25 -7q-20 0 -32.5 11.5t-12.5 28.5z" />
    <glyph glyph-name="Ncaron" unicode="&#x147;" horiz-adv-x="762" 
d="M96 19v673q0 7 5.5 12.5t13.5 5.5h15q11 0 16 -8l445 -554h2v533q0 8 5.5 13.5t13.5 5.5h35q7 0 13 -6t6 -13v-673q0 -7 -5.5 -12.5t-13.5 -5.5h-8q-11 0 -16 8l-453 565h-1v-544q0 -8 -5.5 -13.5t-13.5 -5.5h-35q-7 0 -13 6t-6 13zM386 768q-8 0 -13 4l-120 94
q-13 9 -6 19l14 18q8 12 23 2l102 -68l102 70q15 10 23 -2l14 -20q2 -3 2 -6t-1 -5.5t-4 -5.5t-5.5 -4.5t-6 -4t-4.5 -3.5l-107 -84q-5 -4 -13 -4z" />
    <glyph glyph-name="ncaron" unicode="&#x148;" horiz-adv-x="539" 
d="M78 22v418q0 8 6.5 15t15.5 7h16q15 0 18 -14l10 -35q7 7 19.5 16.5t52.5 26t83 16.5q94 0 130.5 -53.5t36.5 -152.5v-244q0 -9 -7 -15.5t-15 -6.5h-30q-9 0 -15.5 6.5t-6.5 15.5v254q0 66 -23.5 97.5t-74.5 31.5q-39 0 -74.5 -16t-51.5 -32l-16 -16v-319q0 -9 -7 -15.5
t-15 -6.5h-30q-9 0 -15.5 6.5t-6.5 15.5zM261 546l-120 94q-13 9 -6 19l14 18q8 12 23 2l102 -68l102 70q15 10 23 -2l14 -20q2 -3 2 -6t-1 -5.5t-4 -5.5t-5.5 -4.5t-6 -4t-4.5 -3.5l-107 -84q-5 -4 -13 -4t-13 4z" />
    <glyph glyph-name="napostrophe" unicode="&#x149;" horiz-adv-x="539" 
d="M-41 663q0 22 15 35t39 13q31 0 50 -22.5t19 -62.5q0 -66 -46 -112q-6 -6 -15 0l-16 12q-9 8 0 17q29 24 29 65q0 14 -5 22q-7 -7 -25 -7q-20 0 -32.5 11.5t-12.5 28.5zM78 22v418q0 8 6.5 15t15.5 7h16q15 0 18 -14l10 -35q7 7 19.5 16.5t52.5 26t83 16.5
q94 0 130.5 -53.5t36.5 -152.5v-244q0 -9 -7 -15.5t-15 -6.5h-30q-9 0 -15.5 6.5t-6.5 15.5v254q0 66 -23.5 97.5t-74.5 31.5q-39 0 -74.5 -16t-51.5 -32l-16 -16v-319q0 -9 -7 -15.5t-15 -6.5h-30q-9 0 -15.5 6.5t-6.5 15.5z" />
    <glyph glyph-name="Eng" unicode="&#x14a;" horiz-adv-x="763" 
d="M667 681v-731q0 -170 -131 -198q-16 -3 -21 12l-10 30q-7 19 14 27q39 14 56.5 40t17.5 82v89l-423 531h-1v-544q0 -8 -5.5 -13.5t-13.5 -5.5h-35q-7 0 -13 6t-6 13v673q0 7 5.5 12.5t13.5 5.5h25l451 -562h2v533q0 8 5.5 13.5t13.5 5.5h36q8 0 13.5 -6t5.5 -13z" />
    <glyph glyph-name="eng" unicode="&#x14b;" horiz-adv-x="540" 
d="M392 276q0 66 -23.5 97.5t-74.5 31.5q-39 0 -74.5 -16t-51.5 -32l-16 -16v-319q0 -9 -7 -15.5t-15 -6.5h-30q-9 0 -15.5 6.5t-6.5 15.5v418q0 8 6.5 15t15.5 7h16q15 0 18 -14l10 -35q7 7 19.5 16.5t52.5 26t83 16.5q94 0 130.5 -53.5t36.5 -152.5v-316q0 -170 -131 -198
q-17 -3 -21 12l-10 30q-7 19 14 27q39 14 56.5 40t17.5 82v333z" />
    <glyph glyph-name="Omacron" unicode="&#x14c;" horiz-adv-x="823" 
d="M52 349q0 150 104.5 255.5t254.5 105.5t255 -105.5t105 -255.5t-105 -254.5t-255 -104.5t-254.5 104.5t-104.5 254.5zM122 349q0 -119 85 -204t204 -85t204.5 85t85.5 204t-85.5 205t-204.5 86t-204 -86t-85 -205zM284 821q-8 0 -13.5 5t-5.5 13v21q0 19 19 19h256
q19 0 19 -19v-21q0 -8 -5.5 -13t-13.5 -5h-256z" />
    <glyph glyph-name="omacron" unicode="&#x14d;" horiz-adv-x="560" 
d="M48 232q0 98 68 169t164 71t164 -71t68 -169q0 -99 -68 -171t-164 -72t-164 72t-68 171zM121 232q0 -73 45.5 -124.5t113.5 -51.5q67 0 112.5 51.5t45.5 124.5q0 71 -45.5 122t-112.5 51t-113 -51t-46 -122zM151 583q-8 0 -13.5 5t-5.5 13v21q0 19 19 19h256q19 0 19 -19
v-21q0 -8 -5.5 -13t-13.5 -5h-256z" />
    <glyph glyph-name="Obreve" unicode="&#x14e;" horiz-adv-x="823" 
d="M52 349q0 150 104.5 255.5t254.5 105.5t255 -105.5t105 -255.5t-105 -254.5t-255 -104.5t-254.5 104.5t-104.5 254.5zM122 349q0 -119 85 -204t204 -85t204.5 85t85.5 204t-85.5 205t-204.5 86t-204 -86t-85 -205zM412 771q-52 0 -90 32.5t-45 81.5q-4 20 14 20h21
q13 0 19 -17q8 -29 30 -46.5t51 -17.5q27 0 48.5 18.5t30.5 45.5q6 17 19 17h23q18 0 14 -20q-8 -49 -46 -81.5t-89 -32.5z" />
    <glyph glyph-name="obreve" unicode="&#x14f;" horiz-adv-x="560" 
d="M48 232q0 98 68 169t164 71t164 -71t68 -169q0 -99 -68 -171t-164 -72t-164 72t-68 171zM121 232q0 -73 45.5 -124.5t113.5 -51.5q67 0 112.5 51.5t45.5 124.5q0 71 -45.5 122t-112.5 51t-113 -51t-46 -122zM278 531q-52 0 -90 32.5t-45 81.5q-4 20 14 20h21q13 0 19 -17
q8 -29 30 -46.5t51 -17.5q27 0 48.5 18.5t30.5 45.5q6 17 19 17h23q18 0 14 -20q-8 -49 -46 -81.5t-89 -32.5z" />
    <glyph glyph-name="Ohungarumlaut" unicode="&#x150;" horiz-adv-x="823" 
d="M52 349q0 150 104.5 255.5t254.5 105.5t255 -105.5t105 -255.5t-105 -254.5t-255 -104.5t-254.5 104.5t-104.5 254.5zM122 349q0 -119 85 -204t204 -85t204.5 85t85.5 204t-85.5 205t-204.5 86t-204 -86t-85 -205zM508 769q-8 0 -14.5 6t-4.5 13l50 141q6 19 19 19h39
q14 0 19 -7.5t-1 -17.5l-78 -139q-7 -15 -18 -15h-11zM342 769q-8 0 -14.5 6t-4.5 13l50 141q6 19 19 19h39q14 0 19 -7.5t-1 -17.5l-78 -139q-7 -15 -18 -15h-11z" />
    <glyph glyph-name="ohungarumlaut" unicode="&#x151;" horiz-adv-x="560" 
d="M48 232q0 98 68 169t164 71t164 -71t68 -169q0 -99 -68 -171t-164 -72t-164 72t-68 171zM121 232q0 -73 45.5 -124.5t113.5 -51.5q67 0 112.5 51.5t45.5 124.5q0 71 -45.5 122t-112.5 51t-113 -51t-46 -122zM359 521q-7 0 -10 5.5t-1 13.5l50 141q6 19 19 19h39
q14 0 19 -7.5t-1 -17.5l-78 -139q-8 -15 -18 -15h-19zM193 521q-7 0 -10 5.5t-1 13.5l50 141q6 19 19 19h39q14 0 19 -7.5t-1 -17.5l-78 -139q-8 -15 -18 -15h-19z" />
    <glyph glyph-name="OE" unicode="&#x152;" horiz-adv-x="958" 
d="M52 349q0 150 104.5 255.5t254.5 105.5q20 0 41.5 -2.5t33.5 -5.5l11 -2h394q8 0 13.5 -5.5t5.5 -13.5v-29q0 -8 -5.5 -13.5t-13.5 -5.5h-336v-244h287q8 0 13.5 -5.5t5.5 -13.5v-29q0 -8 -5.5 -13.5t-13.5 -5.5h-287v-255h336q8 0 13.5 -5.5t5.5 -13.5v-29
q0 -8 -5.5 -13.5t-13.5 -5.5h-394q-41 -10 -86 -10q-150 0 -254.5 104.5t-104.5 254.5zM122 349q0 -119 85 -204t204 -85q36 0 67 7v564q-35 8 -67 8q-119 0 -204 -85.5t-85 -204.5z" />
    <glyph glyph-name="oe" unicode="&#x153;" horiz-adv-x="900" 
d="M48 233q0 98 67 168.5t162 70.5q57 0 107 -26.5t82 -72.5q64 99 182 99q88 0 148.5 -58t60.5 -152q0 -12 -2 -28q-2 -20 -21 -20h-332q3 -66 49.5 -112t104.5 -46q39 0 65 9t59 29q19 12 29 -3l13 -20q9 -14 5 -20q-2 -4 -9 -9q-67 -53 -170 -53q-113 0 -182 105
q-32 -47 -82.5 -76t-106.5 -29q-95 0 -162 72t-67 172zM504 272h279q-2 58 -40 95.5t-95 37.5t-98 -39t-46 -94zM119 232q0 -73 46 -124.5t114 -51.5q67 0 112 51.5t45 124.5q0 72 -45 122.5t-112 50.5q-68 0 -114 -51t-46 -122z" />
    <glyph glyph-name="Racute" unicode="&#x154;" horiz-adv-x="650" 
d="M96 19v662q0 8 5.5 13.5t13.5 5.5h259q90 0 154 -62t64 -151q0 -68 -40.5 -122.5t-107.5 -81.5l137 -254q6 -10 0.5 -19.5t-17.5 -9.5h-48q-14 0 -22 15l-130 259h-191v-255q0 -7 -5.5 -13t-13.5 -6h-39q-8 0 -13.5 5.5t-5.5 13.5zM175 340h194q58 0 101 42.5t43 103.5
q0 57 -43 99t-101 42h-194v-287zM220 783l-10 22q-6 13 6 19l150 84q4 4 13.5 3.5t12.5 -6.5l18 -36q8 -16 -6 -21l-161 -67q-18 -8 -23 2z" />
    <glyph glyph-name="racute" unicode="&#x155;" horiz-adv-x="386" 
d="M78 22v418q0 8 6.5 15t15.5 7h16q16 0 20 -16l8 -33q5 7 15.5 16.5t47 26t79.5 16.5q16 0 29.5 -1.5t28 -5t21 -11.5t2.5 -19l-13 -36q-7 -20 -27 -11q-29 13 -50 13q-25 0 -47 -6t-35.5 -14.5t-24 -17.5t-14.5 -15l-4 -6v-320q0 -9 -7 -15.5t-15 -6.5h-30
q-9 0 -15.5 6.5t-6.5 15.5zM123 561l-10 22q-6 13 6 19l150 84q4 4 13.5 3.5t12.5 -6.5l18 -36q8 -16 -6 -21l-161 -67q-18 -8 -23 2z" />
    <glyph glyph-name="Rcommaaccent" unicode="&#x156;" horiz-adv-x="650" 
d="M96 19v662q0 8 5.5 13.5t13.5 5.5h259q90 0 154 -62t64 -151q0 -68 -40.5 -122.5t-107.5 -81.5l137 -254q6 -10 0.5 -19.5t-17.5 -9.5h-48q-14 0 -22 15l-130 259h-191v-255q0 -7 -5.5 -13t-13.5 -6h-39q-8 0 -13.5 5.5t-5.5 13.5zM175 340h194q58 0 101 42.5t43 103.5
q0 57 -43 99t-101 42h-194v-287zM256 -119q0 22 15 35t39 13q31 0 50 -22.5t19 -62.5q0 -66 -46 -112q-6 -6 -15 0l-16 12q-8 8 0 17q29 24 29 65q0 14 -5 22q-7 -7 -25 -7q-20 0 -32.5 11.5t-12.5 28.5z" />
    <glyph glyph-name="rcommaaccent" unicode="&#x157;" horiz-adv-x="386" 
d="M78 22v418q0 8 6.5 15t15.5 7h16q16 0 20 -16l8 -33q5 7 15.5 16.5t47 26t79.5 16.5q16 0 29.5 -1.5t28 -5t21 -11.5t2.5 -19l-13 -36q-7 -20 -27 -11q-29 13 -50 13q-25 0 -47 -6t-35.5 -14.5t-24 -17.5t-14.5 -15l-4 -6v-320q0 -9 -7 -15.5t-15 -6.5h-30
q-9 0 -15.5 6.5t-6.5 15.5zM63 -119q0 22 15 35t39 13q31 0 50 -22.5t19 -62.5q0 -66 -46 -112q-6 -6 -15 0l-16 12q-9 8 0 17q29 24 29 65q0 14 -5 22q-7 -7 -25 -7q-20 0 -32.5 11.5t-12.5 28.5z" />
    <glyph glyph-name="Rcaron" unicode="&#x158;" horiz-adv-x="650" 
d="M96 19v662q0 8 5.5 13.5t13.5 5.5h259q90 0 154 -62t64 -151q0 -68 -40.5 -122.5t-107.5 -81.5l137 -254q6 -10 0.5 -19.5t-17.5 -9.5h-48q-14 0 -22 15l-130 259h-191v-255q0 -7 -5.5 -13t-13.5 -6h-39q-8 0 -13.5 5.5t-5.5 13.5zM175 340h194q58 0 101 42.5t43 103.5
q0 57 -43 99t-101 42h-194v-287zM300 768q-8 0 -13 4l-120 94q-13 9 -6 19l14 18q8 12 23 2l102 -68l102 70q15 10 23 -2l14 -20q2 -3 2 -6t-1 -5.5t-4 -5.5t-5.5 -4.5t-6 -4t-4.5 -3.5l-107 -84q-5 -4 -13 -4z" />
    <glyph glyph-name="rcaron" unicode="&#x159;" horiz-adv-x="386" 
d="M78 22v418q0 8 6.5 15t15.5 7h16q16 0 20 -16l8 -33q5 7 15.5 16.5t47 26t79.5 16.5q16 0 29.5 -1.5t28 -5t21 -11.5t2.5 -19l-13 -36q-7 -20 -27 -11q-29 13 -50 13q-25 0 -47 -6t-35.5 -14.5t-24 -17.5t-14.5 -15l-4 -6v-320q0 -9 -7 -15.5t-15 -6.5h-30
q-9 0 -15.5 6.5t-6.5 15.5zM184 546l-120 94q-13 9 -6 19l14 18q8 12 23 2l102 -68l102 70q15 10 23 -2l14 -20q2 -3 2 -6t-1 -5.5t-4 -5.5t-5.5 -4.5t-6 -4t-4.5 -3.5l-107 -84q-5 -4 -13 -4t-13 4z" />
    <glyph glyph-name="Sacute" unicode="&#x15a;" horiz-adv-x="532" 
d="M63 71q-19 17 -6 34l15 19q15 20 32 6q85 -73 172 -73q60 0 97 33t37 81q0 49 -41 84t-134 74q-46 20 -74.5 36t-54 39.5t-36.5 54.5t-11 73q0 28 11.5 57t35 57t67 46t99.5 18q44 0 86.5 -13t63.5 -25l21 -13q20 -10 6 -34l-10 -17q-11 -19 -35 -5q-67 40 -133 40
q-71 0 -104.5 -35t-33.5 -75q0 -49 32 -78.5t103 -58.5q115 -47 168.5 -94t53.5 -128q0 -77 -63.5 -130.5t-152.5 -53.5q-53 0 -104.5 19.5t-72 34t-34.5 27.5zM193 783l-10 22q-6 13 6 19l150 84q4 4 13.5 3.5t12.5 -6.5l18 -36q8 -16 -6 -21l-161 -67q-18 -8 -23 2z" />
    <glyph glyph-name="sacute" unicode="&#x15b;" horiz-adv-x="406" 
d="M207 -11q-92 0 -153 56q-9 9 -3 20l14 26q10 18 27 6q55 -41 115 -41q36 0 57.5 15.5t21.5 42.5q0 30 -22 48t-81 47q-32 16 -47.5 25t-39 27t-34 40t-10.5 50q0 44 35.5 82.5t107.5 38.5q83 0 132 -36q15 -12 5 -31l-10 -19q-5 -9 -15 -11t-17 3q-45 27 -95 27
q-35 0 -51.5 -15.5t-16.5 -35.5q0 -28 19 -43.5t69 -38.5q34 -16 47.5 -22.5t38 -22t35 -28.5t19.5 -33.5t9 -44.5q0 -56 -44 -94t-113 -38zM127 561l-10 22q-6 13 6 19l150 84q4 4 13.5 3.5t12.5 -6.5l18 -36q8 -16 -6 -21l-161 -67q-18 -8 -23 2z" />
    <glyph glyph-name="Scircumflex" unicode="&#x15c;" horiz-adv-x="532" 
d="M63 71q-19 17 -6 34l15 19q15 20 32 6q85 -73 172 -73q60 0 97 33t37 81q0 49 -41 84t-134 74q-46 20 -74.5 36t-54 39.5t-36.5 54.5t-11 73q0 28 11.5 57t35 57t67 46t99.5 18q44 0 86.5 -13t63.5 -25l21 -13q20 -10 6 -34l-10 -17q-11 -19 -35 -5q-67 40 -133 40
q-71 0 -104.5 -35t-33.5 -75q0 -49 32 -78.5t103 -58.5q115 -47 168.5 -94t53.5 -128q0 -77 -63.5 -130.5t-152.5 -53.5q-53 0 -104.5 19.5t-72 34t-34.5 27.5zM148 775l-14 18q-7 10 6 19l120 94q5 4 13 4t13 -4l120 -94q13 -9 6 -19q-2 -2 -5.5 -8t-6 -9t-6.5 -6.5
t-8.5 -3t-10.5 4.5l-102 70l-102 -68q-15 -10 -23 2z" />
    <glyph glyph-name="scircumflex" unicode="&#x15d;" horiz-adv-x="405" 
d="M207 -11q-92 0 -153 56q-9 9 -3 20l14 26q10 18 27 6q55 -41 115 -41q36 0 57.5 15.5t21.5 42.5q0 30 -22 48t-81 47q-32 16 -47.5 25t-39 27t-34 40t-10.5 50q0 44 35.5 82.5t107.5 38.5q83 0 132 -36q15 -12 5 -31l-10 -19q-5 -9 -15 -11t-17 3q-45 27 -95 27
q-35 0 -51.5 -15.5t-16.5 -35.5q0 -28 19 -43.5t69 -38.5q34 -16 47.5 -22.5t38 -22t35 -28.5t19.5 -33.5t9 -44.5q0 -56 -44 -94t-113 -38zM83 555l-14 18q-7 10 6 19l120 94q5 4 13 4t13 -4l120 -94q13 -9 6 -19q-2 -2 -5.5 -8t-6 -9t-6.5 -6.5t-8.5 -3t-10.5 4.5l-102 70
l-102 -68q-15 -10 -23 2z" />
    <glyph glyph-name="Scedilla" unicode="&#x15e;" horiz-adv-x="532" 
d="M63 71q-18 15 -6 34l15 19q18 24 35 9q89 -76 169 -76q59 0 96.5 32t37.5 78q0 49 -41 84t-134 74q-92 39 -134 83t-42 124q0 28 11.5 57t35 57t67 46t99.5 18q44 0 86.5 -13t63.5 -25l21 -13q7 -3 10 -11t-4 -23l-12 -19q-14 -21 -35 -9q-81 46 -131 46
q-71 0 -104.5 -35t-33.5 -75q0 -48 33.5 -80.5t101.5 -60.5q115 -47 168.5 -94t53.5 -128q0 -74 -59.5 -125t-144.5 -55l-37 -57q12 4 25 4q36 0 62 -20.5t26 -62.5q0 -41 -33.5 -67.5t-79.5 -26.5q-52 0 -82 28q-7 7 0 21l8 15q7 14 21 5q20 -20 50 -20q56 0 56 41t-53 41
q-28 0 -48 -10q-5 -2 -9.5 3t-2.5 10l48 99q-44 5 -86 23.5t-60 31.5t-28 23z" />
    <glyph glyph-name="scedilla" unicode="&#x15f;" horiz-adv-x="406" 
d="M364 121q0 -54 -41.5 -92t-107.5 -40l-36 -56q12 4 25 4q36 0 61.5 -20.5t25.5 -62.5q0 -41 -33 -67.5t-79 -26.5q-52 0 -82 28q-7 7 0 21l8 15q7 14 21 5q20 -20 50 -20q56 0 56 41t-53 41q-28 0 -48 -10q-5 -2 -9.5 3t-2.5 10l47 98q-64 9 -109 48q-12 12 -6 25l14 26
q10 19 32 4q52 -39 110 -39q36 0 57.5 15.5t21.5 42.5q0 30 -22 48t-81 47q-32 16 -47.5 25t-39 27t-34 40t-10.5 50q0 44 35.5 82.5t107.5 38.5q82 0 129 -34q18 -14 8 -33l-10 -19q-5 -9 -15 -11t-17 3q-45 27 -95 27q-34 0 -51 -15t-17 -33q0 -30 19 -46t69 -39
q34 -16 47.5 -22.5t38 -22t35 -28.5t19.5 -33.5t9 -44.5z" />
    <glyph glyph-name="Scaron" unicode="&#x160;" horiz-adv-x="532" 
d="M63 71q-19 17 -6 34l15 19q15 20 32 6q85 -73 172 -73q60 0 97 33t37 81q0 49 -41 84t-134 74q-46 20 -74.5 36t-54 39.5t-36.5 54.5t-11 73q0 28 11.5 57t35 57t67 46t99.5 18q44 0 86.5 -13t63.5 -25l21 -13q20 -10 6 -34l-10 -17q-11 -19 -35 -5q-67 40 -133 40
q-71 0 -104.5 -35t-33.5 -75q0 -49 32 -78.5t103 -58.5q115 -47 168.5 -94t53.5 -128q0 -77 -63.5 -130.5t-152.5 -53.5q-53 0 -104.5 19.5t-72 34t-34.5 27.5zM273 768q-8 0 -13 4l-120 94q-13 9 -6 19l14 18q8 12 23 2l102 -68l102 70q15 10 23 -2l14 -20q2 -3 2 -6
t-1 -5.5t-4 -5.5t-5.5 -4.5t-6 -4t-4.5 -3.5l-107 -84q-5 -4 -13 -4z" />
    <glyph glyph-name="scaron" unicode="&#x161;" horiz-adv-x="406" 
d="M207 -11q-92 0 -153 56q-9 9 -3 20l14 26q10 18 27 6q55 -41 115 -41q36 0 57.5 15.5t21.5 42.5q0 30 -22 48t-81 47q-32 16 -47.5 25t-39 27t-34 40t-10.5 50q0 44 35.5 82.5t107.5 38.5q83 0 132 -36q15 -12 5 -31l-10 -19q-5 -9 -15 -11t-17 3q-45 27 -95 27
q-35 0 -51.5 -15.5t-16.5 -35.5q0 -28 19 -43.5t69 -38.5q34 -16 47.5 -22.5t38 -22t35 -28.5t19.5 -33.5t9 -44.5q0 -56 -44 -94t-113 -38zM196 546l-120 94q-13 9 -6 19l14 18q8 12 23 2l102 -68l102 70q15 10 23 -2l14 -20q2 -3 2 -6t-1 -5.5t-4 -5.5t-5.5 -4.5t-6 -4
t-4.5 -3.5l-107 -84q-5 -4 -13 -4t-13 4z" />
    <glyph glyph-name="Tcommaaccent" unicode="&#x162;" horiz-adv-x="514" 
d="M219 19v614h-174q-8 0 -13.5 5.5t-5.5 13.5v29q0 8 5.5 13.5t13.5 5.5h424q8 0 13.5 -5.5t5.5 -13.5v-29q0 -8 -5.5 -13.5t-13.5 -5.5h-174v-614q0 -13 -12 -18l-44 -68q12 4 25 4q35 0 59.5 -20.5t24.5 -62.5t-31.5 -68t-77.5 -26q-52 0 -82 28q-7 7 0 21l8 15
q7 14 21 5q20 -20 50 -20q25 0 40.5 12.5t15.5 32.5q0 45 -53 45q-24 0 -44 -10q-5 -2 -9.5 3t-2.5 10l48 99q-12 5 -12 18z" />
    <glyph glyph-name="tcommaaccent" unicode="&#x163;" horiz-adv-x="380" 
d="M109 398h-61q-10 0 -16.5 6.5t-6.5 15.5v20q0 22 23 22h61v128q0 9 6.5 15t15.5 7l31 2q9 1 15 -6t6 -16v-130h136q10 0 16.5 -6t6.5 -16v-20q0 -9 -6.5 -15.5t-16.5 -6.5h-136v-276q0 -66 41 -66q39 0 90 32q19 12 29 -9l10 -23q8 -19 -8 -30q-38 -27 -100 -35l-37 -58
q12 4 25 4q35 0 59.5 -20.5t24.5 -62.5t-31.5 -68t-77.5 -26q-52 0 -82 28q-7 7 0 21l8 15q7 14 21 5q20 -20 50 -20q25 0 40.5 12.5t15.5 32.5q0 45 -53 45q-24 0 -44 -10q-5 -2 -9.5 3t-2.5 10l43 88q-49 6 -67.5 38.5t-18.5 88.5v281z" />
    <glyph glyph-name="Tcaron" unicode="&#x164;" horiz-adv-x="514" 
d="M219 19v614h-174q-8 0 -13.5 5.5t-5.5 13.5v29q0 8 5.5 13.5t13.5 5.5h424q8 0 13.5 -5.5t5.5 -13.5v-29q0 -8 -5.5 -13.5t-13.5 -5.5h-174v-614q0 -7 -5.5 -13t-13.5 -6h-38q-8 0 -13.5 6t-5.5 13zM256 768q-8 0 -13 4l-120 94q-13 9 -6 19l14 18q8 12 23 2l102 -68
l102 70q15 10 23 -2l14 -20q2 -3 2 -6t-1 -5.5t-4 -5.5t-5.5 -4.5t-6 -4t-4.5 -3.5l-107 -84q-5 -4 -13 -4z" />
    <glyph glyph-name="tcaron" unicode="&#x165;" horiz-adv-x="379" 
d="M108 398h-61q-10 0 -16.5 6.5t-6.5 15.5v20q0 22 23 22h61v128q0 9 6.5 15t15.5 7l31 2q9 1 15 -6t6 -16v-130h136q10 0 16.5 -6t6.5 -16v-20q0 -9 -6.5 -15.5t-16.5 -6.5h-136v-276q0 -66 41 -66q43 0 91 30q19 12 29 -9l9 -21q8 -19 -8 -30q-53 -37 -130 -37
q-61 0 -83.5 33.5t-22.5 94.5v281zM329 663q0 22 15 35t39 13q31 0 50 -22.5t19 -62.5q0 -66 -46 -112q-6 -6 -15 0l-16 12q-9 8 0 17q29 24 29 65q0 14 -5 22q-7 -7 -25 -7q-20 0 -32.5 11.5t-12.5 28.5z" />
    <glyph glyph-name="Tbar" unicode="&#x166;" horiz-adv-x="514" 
d="M219 19v276h-104q-7 0 -12.5 5.5t-5.5 13.5v7q0 8 5.5 13.5t12.5 5.5h104v293h-174q-8 0 -13.5 5.5t-5.5 13.5v29q0 8 5.5 13.5t13.5 5.5h424q8 0 13.5 -5.5t5.5 -13.5v-29q0 -8 -5.5 -13.5t-13.5 -5.5h-174v-293h104q8 0 13.5 -5.5t5.5 -13.5v-8q0 -8 -5.5 -13t-13.5 -5
h-104v-276q0 -7 -5.5 -13t-13.5 -6h-38q-8 0 -13.5 6t-5.5 13z" />
    <glyph glyph-name="tbar" unicode="&#x167;" horiz-adv-x="381" 
d="M110 117v87h-50q-8 0 -14.5 6.5t-6.5 15.5v8q0 9 6.5 15.5t14.5 6.5h50v142h-61q-10 0 -16.5 6.5t-6.5 15.5v20q0 22 23 22h61v128q0 9 6.5 15t15.5 7l31 2q9 1 15 -6t6 -16v-130h136q10 0 16.5 -6t6.5 -16v-20q0 -9 -6.5 -15.5t-16.5 -6.5h-136v-142h111q10 0 16 -6.5
t6 -15.5v-9q0 -9 -6 -15t-16 -6h-111v-88q0 -60 41 -60q39 0 90 32q19 12 29 -9l10 -23q8 -19 -8 -30q-53 -37 -130 -37q-61 0 -83.5 33.5t-22.5 94.5z" />
    <glyph glyph-name="Utilde" unicode="&#x168;" horiz-adv-x="708" 
d="M89 254v427q0 7 5.5 13t13.5 6h38q8 0 13.5 -5.5t5.5 -13.5v-421q0 -87 51 -143t137 -56q87 0 138.5 55t51.5 142v423q0 8 5.5 13.5t13.5 5.5h38q8 0 13.5 -6t5.5 -13v-427q0 -115 -74 -189.5t-192 -74.5q-117 0 -190.5 74.5t-73.5 189.5zM233 795l-18 9q-11 6 -4 22
q0 1 6 15t11.5 23t15.5 21t25 18.5t34 6.5q26 0 46.5 -18.5t36 -37t27.5 -18.5q30 0 45 51q5 16 23 8l16 -8q10 -5 4 -26q-28 -81 -89 -81q-24 0 -45.5 19t-37.5 37.5t-27 18.5q-12 0 -22 -9t-13.5 -17.5t-8.5 -23.5q-6 -20 -25 -10z" />
    <glyph glyph-name="utilde" unicode="&#x169;" horiz-adv-x="526" 
d="M73 191v249q0 9 6.5 15.5t15.5 6.5h30q9 0 15.5 -7t6.5 -15v-250q0 -69 23.5 -101.5t73.5 -32.5q72 0 131 67v317q0 9 6 15.5t15 6.5h31q8 0 14.5 -7t6.5 -15v-418q0 -9 -6.5 -15.5t-14.5 -6.5h-16q-16 0 -21 20l-9 29q-57 -60 -143 -60q-94 0 -129.5 51t-35.5 151z
M139 575l-18 9q-11 6 -4 22q0 1 6 15t11.5 23t15.5 21t25 18.5t34 6.5q26 0 46.5 -18.5t36 -37t27.5 -18.5q30 0 45 51q5 16 23 8l16 -8q10 -5 4 -26q-28 -81 -89 -81q-24 0 -45.5 19t-37.5 37.5t-27 18.5q-12 0 -22 -9t-13.5 -17.5t-8.5 -23.5q-6 -20 -25 -10z" />
    <glyph glyph-name="Umacron" unicode="&#x16a;" horiz-adv-x="708" 
d="M89 254v427q0 7 5.5 13t13.5 6h38q8 0 13.5 -5.5t5.5 -13.5v-421q0 -87 51 -143t137 -56q87 0 138.5 55t51.5 142v423q0 8 5.5 13.5t13.5 5.5h38q8 0 13.5 -6t5.5 -13v-427q0 -115 -74 -189.5t-192 -74.5q-117 0 -190.5 74.5t-73.5 189.5zM225 821q-8 0 -13.5 5t-5.5 13
v21q0 19 19 19h256q19 0 19 -19v-21q0 -8 -5.5 -13t-13.5 -5h-256z" />
    <glyph glyph-name="umacron" unicode="&#x16b;" horiz-adv-x="526" 
d="M73 191v249q0 9 6.5 15.5t15.5 6.5h30q9 0 15.5 -7t6.5 -15v-250q0 -69 23.5 -101.5t73.5 -32.5q72 0 131 67v317q0 9 6 15.5t15 6.5h31q8 0 14.5 -7t6.5 -15v-418q0 -9 -6.5 -15.5t-14.5 -6.5h-16q-16 0 -21 20l-9 29q-57 -60 -143 -60q-94 0 -129.5 51t-35.5 151z
M136 583q-8 0 -13.5 5t-5.5 13v21q0 19 19 19h256q19 0 19 -19v-21q0 -8 -5.5 -13t-13.5 -5h-256z" />
    <glyph glyph-name="Ubreve" unicode="&#x16c;" horiz-adv-x="708" 
d="M89 254v427q0 7 5.5 13t13.5 6h38q8 0 13.5 -5.5t5.5 -13.5v-421q0 -87 51 -143t137 -56q87 0 138.5 55t51.5 142v423q0 8 5.5 13.5t13.5 5.5h38q8 0 13.5 -6t5.5 -13v-427q0 -115 -74 -189.5t-192 -74.5q-117 0 -190.5 74.5t-73.5 189.5zM352 771q-52 0 -90 32.5
t-45 81.5q-4 20 14 20h21q13 0 19 -17q8 -29 30 -46.5t51 -17.5q27 0 48.5 18.5t30.5 45.5q6 17 19 17h23q18 0 14 -20q-8 -49 -46 -81.5t-89 -32.5z" />
    <glyph glyph-name="ubreve" unicode="&#x16d;" horiz-adv-x="526" 
d="M73 191v249q0 9 6.5 15.5t15.5 6.5h30q9 0 15.5 -7t6.5 -15v-250q0 -69 23.5 -101.5t73.5 -32.5q72 0 131 67v317q0 9 6 15.5t15 6.5h31q8 0 14.5 -7t6.5 -15v-418q0 -9 -6.5 -15.5t-14.5 -6.5h-16q-16 0 -21 20l-9 29q-57 -60 -143 -60q-94 0 -129.5 51t-35.5 151z
M265 531q-52 0 -90 32.5t-45 81.5q-4 20 14 20h21q13 0 19 -17q8 -29 30 -46.5t51 -17.5q27 0 48.5 18.5t30.5 45.5q6 17 19 17h23q18 0 14 -20q-8 -49 -46 -81.5t-89 -32.5z" />
    <glyph glyph-name="Uring" unicode="&#x16e;" horiz-adv-x="708" 
d="M89 254v427q0 7 5.5 13t13.5 6h38q8 0 13.5 -5.5t5.5 -13.5v-421q0 -87 51 -143t137 -56q87 0 138.5 55t51.5 142v423q0 8 5.5 13.5t13.5 5.5h38q8 0 13.5 -6t5.5 -13v-427q0 -115 -74 -189.5t-192 -74.5q-117 0 -190.5 74.5t-73.5 189.5zM352 758q-46 0 -77.5 31.5
t-31.5 77.5t31.5 77.5t77.5 31.5q45 0 77 -31.5t32 -77.5t-32 -77.5t-77 -31.5zM352 806q24 0 41.5 18.5t17.5 42.5t-17.5 41.5t-41.5 17.5t-42.5 -17.5t-18.5 -41.5t18.5 -42.5t42.5 -18.5z" />
    <glyph glyph-name="uring" unicode="&#x16f;" horiz-adv-x="526" 
d="M73 191v249q0 9 6.5 15.5t15.5 6.5h30q9 0 15.5 -7t6.5 -15v-250q0 -69 23.5 -101.5t73.5 -32.5q72 0 131 67v317q0 9 6 15.5t15 6.5h31q8 0 14.5 -7t6.5 -15v-418q0 -9 -6.5 -15.5t-14.5 -6.5h-16q-16 0 -21 20l-9 29q-57 -60 -143 -60q-94 0 -129.5 51t-35.5 151z
M266 513q-46 0 -77.5 31.5t-31.5 77.5t31.5 77.5t77.5 31.5q45 0 77 -31.5t32 -77.5t-32 -77.5t-77 -31.5zM266 561q24 0 41.5 18.5t17.5 42.5t-17.5 41.5t-41.5 17.5t-42.5 -17.5t-18.5 -41.5t18.5 -42.5t42.5 -18.5z" />
    <glyph glyph-name="Uhungarumlaut" unicode="&#x170;" horiz-adv-x="708" 
d="M89 254v427q0 7 5.5 13t13.5 6h38q8 0 13.5 -5.5t5.5 -13.5v-421q0 -87 51 -143t137 -56q87 0 138.5 55t51.5 142v423q0 8 5.5 13.5t13.5 5.5h38q8 0 13.5 -6t5.5 -13v-427q0 -115 -74 -189.5t-192 -74.5q-117 0 -190.5 74.5t-73.5 189.5zM441 769q-8 0 -14.5 6t-4.5 13
l50 141q6 19 19 19h39q14 0 19 -7.5t-1 -17.5l-78 -139q-8 -15 -18 -15h-11zM275 769q-8 0 -14.5 6t-4.5 13l50 141q6 19 19 19h39q14 0 19 -7.5t-1 -17.5l-78 -139q-8 -15 -18 -15h-11z" />
    <glyph glyph-name="uhungarumlaut" unicode="&#x171;" horiz-adv-x="526" 
d="M73 191v249q0 9 6.5 15.5t15.5 6.5h30q9 0 15.5 -7t6.5 -15v-250q0 -69 23.5 -101.5t73.5 -32.5q72 0 131 67v317q0 9 6 15.5t15 6.5h31q8 0 14.5 -7t6.5 -15v-418q0 -9 -6.5 -15.5t-14.5 -6.5h-16q-16 0 -21 20l-9 29q-57 -60 -143 -60q-94 0 -129.5 51t-35.5 151z
M340 521q-7 0 -10 5.5t-1 13.5l50 141q6 19 19 19h39q14 0 19 -7.5t-1 -17.5l-78 -139q-7 -15 -18 -15h-19zM174 521q-7 0 -10 5.5t-1 13.5l50 141q6 19 19 19h39q14 0 19 -7.5t-1 -17.5l-78 -139q-7 -15 -18 -15h-19z" />
    <glyph glyph-name="Uogonek" unicode="&#x172;" horiz-adv-x="708" 
d="M89 258v423q0 7 5.5 13t13.5 6h38q8 0 13.5 -5.5t5.5 -13.5v-417q0 -88 51 -145.5t137 -57.5q87 0 138.5 57t51.5 144v419q0 8 5.5 13.5t13.5 5.5h38q8 0 13.5 -6t5.5 -13v-423q0 -96 -53.5 -167t-141.5 -92q-101 -62 -101 -130q0 -25 13.5 -39t37.5 -14q28 0 63 26
q5 5 10 3.5t6 -8.5l1 -34q2 -14 -12 -24q-40 -23 -83 -23q-47 0 -73 28t-26 72q0 74 83 134q-113 4 -183.5 79.5t-70.5 188.5z" />
    <glyph glyph-name="uogonek" unicode="&#x173;" horiz-adv-x="526" 
d="M73 197v243q0 9 6.5 15.5t15.5 6.5h30q9 0 15.5 -7t6.5 -15v-244q0 -140 97 -140q25 0 47.5 7t37 16.5t25.5 19.5t16 17l5 7v317q0 9 6 15.5t15 6.5h31q8 0 14.5 -7t6.5 -15v-418q0 -18 -17 -22q-104 -59 -104 -131q0 -25 13.5 -39t37.5 -14q28 0 63 26q5 5 10 3.5
t6 -8.5l1 -34q2 -14 -12 -24q-40 -23 -83 -23q-47 0 -73 28t-26 72q0 83 126 163l-9 30q-2 -2 -5.5 -6.5t-17 -14.5t-28.5 -18t-40 -14.5t-52 -6.5q-93 0 -129 53.5t-36 154.5z" />
    <glyph glyph-name="Wcircumflex" unicode="&#x174;" horiz-adv-x="886" 
d="M218 4l-189 672q-3 10 2 17t16 7h42q14 0 18 -14l139 -518h4l167 531q4 11 17 11h18q13 0 17 -11l170 -531h4l136 518q4 14 18 14h42q11 0 16 -7t2 -17l-189 -672q-4 -14 -18 -14h-16q-12 0 -17 11l-173 541h-5l-170 -541q-5 -11 -17 -11h-16q-14 0 -18 14zM317 775
l-14 18q-7 10 6 19l120 94q5 4 13 4t13 -4l120 -94q13 -9 6 -19q-2 -2 -5.5 -8t-6 -9t-6.5 -6.5t-8.5 -3t-10.5 4.5l-102 70l-102 -68q-15 -10 -23 2z" />
    <glyph glyph-name="wcircumflex" unicode="&#x175;" horiz-adv-x="702" 
d="M351 348h-2l-136 -347q-4 -12 -19 -12h-6q-15 0 -20 12l-128 435q-7 26 18 26h34q18 0 21 -13l85 -314h2l130 326q4 11 20 11h6q15 0 19 -11l129 -327h2l85 315q3 13 19 13h35q25 0 16 -26l-126 -435q-3 -12 -19 -12h-6q-14 0 -20 12zM225 555l-14 18q-7 10 6 19l120 94
q5 4 13 4t13 -4l120 -94q13 -9 6 -19q-2 -2 -5.5 -8t-6 -9t-6.5 -6.5t-8.5 -3t-10.5 4.5l-102 70l-102 -68q-15 -10 -23 2z" />
    <glyph glyph-name="Ycircumflex" unicode="&#x176;" horiz-adv-x="574" 
d="M248 19v318l-241 334q-6 10 -1 19.5t17 9.5h47q9 0 16 -9l202 -279l202 279q7 9 16 9h47q12 0 17 -9.5t-1 -19.5l-244 -333v-319q0 -7 -5.5 -13t-13.5 -6h-39q-8 0 -13.5 5.5t-5.5 13.5zM163 775l-14 18q-7 10 6 19l120 94q5 4 13 4t13 -4l120 -94q13 -9 6 -19
q-2 -2 -5.5 -8t-6 -9t-6.5 -6.5t-8.5 -3t-10.5 4.5l-102 70l-102 -68q-15 -10 -23 2z" />
    <glyph glyph-name="ycircumflex" unicode="&#x177;" horiz-adv-x="500" 
d="M198 1l-169 436q-10 25 18 25h42q15 0 20 -13l131 -367h2l156 367q5 13 20 13h37q13 0 18 -7.5t0 -18.5l-289 -660q-6 -14 -20 -14h-36q-13 0 -18.5 8t-0.5 20zM125 555l-14 18q-7 10 6 19l120 94q5 4 13 4t13 -4l120 -94q13 -9 6 -19q-2 -2 -5.5 -8t-6 -9t-6.5 -6.5
t-8.5 -3t-10.5 4.5l-102 70l-102 -68q-15 -10 -23 2z" />
    <glyph glyph-name="Ydieresis" unicode="&#x178;" horiz-adv-x="574" 
d="M248 19v318l-241 334q-6 10 -1 19.5t17 9.5h47q9 0 16 -9l202 -279l202 279q7 9 16 9h47q12 0 17 -9.5t-1 -19.5l-244 -333v-319q0 -7 -5.5 -13t-13.5 -6h-39q-8 0 -13.5 5.5t-5.5 13.5zM393 788q-21 0 -36 15t-15 36q0 22 15 37t36 15q22 0 37 -15t15 -37q0 -21 -15 -36
t-37 -15zM182 788q-21 0 -36 15t-15 36q0 22 15 37t36 15q22 0 37 -15t15 -37q0 -21 -15 -36t-37 -15z" />
    <glyph glyph-name="Zacute" unicode="&#x179;" horiz-adv-x="528" 
d="M27 19v8q0 9 5 19l358 581v3h-315q-7 0 -13 6t-6 13v32q0 7 6 13t13 6h405q8 0 13.5 -6t5.5 -13v-3q0 -9 -5 -19l-364 -588v-1h330q8 0 13.5 -5.5t5.5 -13.5v-32q0 -8 -5.5 -13.5t-13.5 -5.5h-414q-8 0 -13.5 6t-5.5 13zM202 783l-10 22q-6 13 6 19l150 84q4 4 13.5 3.5
t12.5 -6.5l18 -36q8 -16 -6 -21l-161 -67q-18 -8 -23 2z" />
    <glyph glyph-name="zacute" unicode="&#x17a;" horiz-adv-x="414" 
d="M38 22v2q0 9 6 18l234 354v3h-209q-8 0 -13.5 6.5t-5.5 15.5v19q0 22 19 22h293q21 0 21 -20q0 -7 -4 -12l-236 -364v-3h193q22 0 22 -22v-19q0 -22 -22 -22h-276q-9 0 -15.5 6.5t-6.5 15.5zM119 561l-10 22q-6 13 6 19l150 84q4 4 13.5 3.5t12.5 -6.5l18 -36
q8 -16 -6 -21l-161 -67q-18 -8 -23 2z" />
    <glyph glyph-name="Zdotaccent" unicode="&#x17b;" horiz-adv-x="528" 
d="M27 19v8q0 9 5 19l358 581v3h-315q-7 0 -13 6t-6 13v32q0 7 6 13t13 6h405q8 0 13.5 -6t5.5 -13v-3q0 -9 -5 -19l-364 -588v-1h330q8 0 13.5 -5.5t5.5 -13.5v-32q0 -8 -5.5 -13.5t-13.5 -5.5h-414q-8 0 -13.5 6t-5.5 13zM282 798q-22 0 -38 16t-16 38q0 24 15.5 40
t38.5 16t39 -16t16 -40q0 -22 -16 -38t-39 -16z" />
    <glyph glyph-name="zdotaccent" unicode="&#x17c;" horiz-adv-x="414" 
d="M38 22v2q0 9 6 18l234 354v3h-209q-8 0 -13.5 6.5t-5.5 15.5v19q0 22 19 22h293q21 0 21 -20q0 -7 -4 -12l-236 -364v-3h193q22 0 22 -22v-19q0 -22 -22 -22h-276q-9 0 -15.5 6.5t-6.5 15.5zM216 581q-22 0 -38 16t-16 38q0 24 15.5 40t38.5 16t39 -16t16 -40
q0 -22 -16 -38t-39 -16z" />
    <glyph glyph-name="Zcaron" unicode="&#x17d;" horiz-adv-x="528" 
d="M27 19v8q0 9 5 19l358 581v3h-315q-7 0 -13 6t-6 13v32q0 7 6 13t13 6h405q8 0 13.5 -6t5.5 -13v-3q0 -9 -5 -19l-364 -588v-1h330q8 0 13.5 -5.5t5.5 -13.5v-32q0 -8 -5.5 -13.5t-13.5 -5.5h-414q-8 0 -13.5 6t-5.5 13zM282 768q-8 0 -13 4l-120 94q-13 9 -6 19l14 18
q8 12 23 2l102 -68l102 70q15 10 23 -2l14 -20q2 -3 2 -6t-1 -5.5t-4 -5.5t-5.5 -4.5t-6 -4t-4.5 -3.5l-107 -84q-5 -4 -13 -4z" />
    <glyph glyph-name="zcaron" unicode="&#x17e;" horiz-adv-x="414" 
d="M38 22v2q0 9 6 18l234 354v3h-209q-8 0 -13.5 6.5t-5.5 15.5v19q0 22 19 22h293q21 0 21 -20q0 -7 -4 -12l-236 -364v-3h193q22 0 22 -22v-19q0 -22 -22 -22h-276q-9 0 -15.5 6.5t-6.5 15.5zM201 546l-120 94q-13 9 -6 19l14 18q8 12 23 2l102 -68l102 70q15 10 23 -2
l14 -20q2 -3 2 -6t-1 -5.5t-4 -5.5t-5.5 -4.5t-6 -4t-4.5 -3.5l-107 -84q-5 -4 -13 -4t-13 4z" />
    <glyph glyph-name="florin" unicode="&#x192;" horiz-adv-x="343" 
d="M111 -79v419h-61q-8 0 -13.5 5.5t-5.5 13.5v22q0 19 19 19h61v140q0 83 42.5 126.5t110.5 43.5q67 0 110 -41q12 -10 4 -23l-16 -26q-9 -15 -26 -1q-38 29 -73 29q-37 0 -60 -26.5t-23 -81.5v-140h116q19 0 19 -19v-22q0 -8 -5.5 -13.5t-13.5 -5.5h-116v-419
q0 -83 -42.5 -126.5t-110.5 -43.5q-67 0 -110 41q-12 10 -4 23l16 26q9 15 26 1q38 -29 73 -29q37 0 60 26.5t23 81.5z" />
    <glyph glyph-name="Aringacute" unicode="&#x1fa;" horiz-adv-x="665" 
d="M242 903l-10 22q-6 13 6 19l150 84q4 4 13.5 3.5t12.5 -6.5l18 -36q8 -16 -6 -21l-161 -67q-18 -8 -23 2zM24 0q-11 0 -16.5 8t-0.5 18l290 643q-33 11 -53.5 39.5t-20.5 64.5q0 46 31.5 77.5t77.5 31.5q45 0 77 -31.5t32 -77.5q0 -36 -20.5 -64t-52.5 -39l289 -644
q5 -10 -0.5 -18t-16.5 -8h-40q-13 0 -17 11l-74 165h-355l-73 -165q-4 -11 -17 -11h-40zM332 712q24 0 41.5 18.5t17.5 42.5t-17.5 41.5t-41.5 17.5t-42.5 -17.5t-18.5 -41.5t18.5 -42.5t42.5 -18.5zM182 238h300l-146 328h-8z" />
    <glyph glyph-name="aringacute" unicode="&#x1fb;" horiz-adv-x="471" 
d="M227 510q-47 0 -78 26t-31 70t31 70t78 26t78 -26t31 -70t-31 -70t-78 -26zM227 558q25 0 42 12.5t17 35.5t-16.5 34.5t-42.5 11.5t-43.5 -11.5t-17.5 -34.5t17.5 -35.5t43.5 -12.5zM133 717l-10 22q-6 13 6 19l150 65q19 8 26 -4l18 -36q3 -6 1.5 -13t-7.5 -8l-161 -49
q-18 -6 -23 4zM42 140q0 68 49 110.5t136 42.5q22 0 46.5 -3.5t38.5 -7.5l14 -4q1 69 -14 98t-62 29q-56 0 -137 -27q-15 -6 -22 12l-10 27q-5 16 14 25q69 30 159 30q85 0 114 -43.5t29 -150.5v-256q0 -9 -6.5 -15.5t-15.5 -6.5h-19q-14 0 -19 17l-9 31q-59 -59 -143 -59
q-62 0 -102.5 41.5t-40.5 109.5zM115 140q0 -36 23 -60t60 -24q40 0 75.5 18.5t51.5 43.5v94q-34 18 -98 18q-50 0 -81 -23.5t-31 -66.5z" />
    <glyph glyph-name="AEacute" unicode="&#x1fc;" horiz-adv-x="889" 
d="M8 0q-11 0 -14.5 8t2.5 18l401 643q11 17 20 24t27 7h378q8 0 13.5 -5.5t5.5 -13.5v-29q0 -8 -5.5 -13.5t-13.5 -5.5h-342v-244h293q7 0 13 -5.5t6 -13.5v-29q0 -8 -5.5 -13.5t-13.5 -5.5h-293v-255h342q8 0 13.5 -5.5t5.5 -13.5v-29q0 -8 -5.5 -13.5t-13.5 -5.5h-394
q-8 0 -13.5 5.5t-5.5 13.5v157h-237l-104 -165q-9 -11 -19 -11h-41zM208 238h201v328zM527 784l-10 22q-6 13 6 19l150 84q4 4 13.5 3.5t12.5 -6.5l18 -36q8 -16 -6 -21l-161 -67q-18 -8 -23 2z" />
    <glyph glyph-name="aeacute" unicode="&#x1fd;" horiz-adv-x="790" 
d="M43 142q0 66 46 108t125 42l111 -6q2 66 -13 92.5t-57 26.5q-20 0 -40 -2t-37.5 -6t-28.5 -7t-25 -7t-16 -5q-8 -3 -15 2t-9 14l-6 28q-3 16 19 23q73 27 162 27q55 0 83.5 -16t42.5 -47q63 63 154 63q88 0 148 -58t60 -152q0 -48 -23 -48h-327v-75q22 -37 62 -60t87 -23
q61 0 118 38q13 9 18 9.5t15 -9.5l16 -23q7 -7 7 -13.5t-12 -15.5q-70 -53 -170 -53q-112 0 -174 82q-27 -34 -72 -58t-97 -24q-68 0 -110 41.5t-42 111.5zM399 274h269q0 55 -38.5 93t-91.5 38q-42 0 -80.5 -22.5t-58.5 -55.5v-53zM117 141q0 -42 27 -63.5t66 -21.5
q35 0 67.5 18t47.5 42v106q-37 9 -99 9q-46 0 -77.5 -24.5t-31.5 -65.5zM339 561l-10 22q-6 13 6 19l150 84q4 4 13.5 3.5t12.5 -6.5l18 -36q8 -16 -6 -21l-161 -67q-18 -8 -23 2z" />
    <glyph glyph-name="Oslashacute" unicode="&#x1fe;" horiz-adv-x="823" 
d="M82 22q-14 14 -1 26l61 61q-90 103 -90 240q0 150 104.5 255.5t254.5 105.5q136 0 240 -91l63 63q13 13 26 0l5 -5q13 -13 0 -26l-63 -63q89 -104 89 -239q0 -150 -105 -254.5t-255 -104.5q-137 0 -238 88l-61 -61q-12 -13 -26 1zM193 160l408 409q-82 71 -190 71
q-119 0 -204 -86t-85 -205q0 -107 71 -189zM224 129q80 -69 187 -69q119 0 204.5 85t85.5 204q0 108 -70 188zM331 783l-10 22q-6 13 6 19l150 84q4 4 13.5 3.5t12.5 -6.5l18 -36q8 -16 -6 -21l-161 -67q-18 -8 -23 2z" />
    <glyph glyph-name="oslashacute" unicode="&#x1ff;" horiz-adv-x="559" 
d="M48 232q0 98 68 169t164 71q84 0 148 -56l24 24q18 16 32 0l5 -5q17 -15 0 -31l-26 -26q49 -65 49 -146q0 -99 -68 -171t-164 -72q-82 0 -147 55l-17 -17q-14 -14 -29 1l-6 6q-16 16 -1 30l18 18q-50 64 -50 150zM120 232q0 -56 27 -100l233 235q-45 38 -100 38
q-68 0 -114 -51t-46 -122zM439 232q0 50 -26 95l-232 -234q43 -37 99 -37q68 0 113.5 51.5t45.5 124.5zM188 561l-10 22q-6 13 6 19l150 84q4 4 13.5 3.5t12.5 -6.5l18 -36q8 -16 -6 -21l-161 -67q-18 -8 -23 2z" />
    <glyph glyph-name="Scommaaccent" unicode="&#x218;" horiz-adv-x="532" 
d="M63 71q-19 17 -6 34l15 19q15 20 32 6q85 -73 172 -73q60 0 97 33t37 81q0 49 -41 84t-134 74q-46 20 -74.5 36t-54 39.5t-36.5 54.5t-11 73q0 28 11.5 57t35 57t67 46t99.5 18q44 0 86.5 -13t63.5 -25l21 -13q20 -10 6 -34l-10 -17q-11 -19 -35 -5q-67 40 -133 40
q-71 0 -104.5 -35t-33.5 -75q0 -49 32 -78.5t103 -58.5q115 -47 168.5 -94t53.5 -128q0 -77 -63.5 -130.5t-152.5 -53.5q-53 0 -104.5 19.5t-72 34t-34.5 27.5zM222 -119q0 22 15 35t39 13q31 0 50 -22.5t19 -62.5q0 -66 -46 -112q-6 -6 -15 0l-16 12q-8 8 0 17q29 24 29 65
q0 14 -5 22q-7 -7 -25 -7q-20 0 -32.5 11.5t-12.5 28.5z" />
    <glyph glyph-name="scommaaccent" unicode="&#x219;" horiz-adv-x="406" 
d="M207 -11q-92 0 -153 56q-9 9 -3 20l14 26q10 18 27 6q55 -41 115 -41q36 0 57.5 15.5t21.5 42.5q0 30 -22 48t-81 47q-32 16 -47.5 25t-39 27t-34 40t-10.5 50q0 44 35.5 82.5t107.5 38.5q83 0 132 -36q15 -12 5 -31l-10 -19q-5 -9 -15 -11t-17 3q-45 27 -95 27
q-35 0 -51.5 -15.5t-16.5 -35.5q0 -28 19 -43.5t69 -38.5q34 -16 47.5 -22.5t38 -22t35 -28.5t19.5 -33.5t9 -44.5q0 -56 -44 -94t-113 -38zM151 -119q0 22 15 35t39 13q31 0 50 -22.5t19 -62.5q0 -66 -46 -112q-6 -6 -15 0l-16 12q-9 8 0 17q29 24 29 65q0 14 -5 22
q-7 -7 -25 -7q-20 0 -32.5 11.5t-12.5 28.5z" />
    <glyph glyph-name="uni021A" unicode="&#x21a;" horiz-adv-x="514" 
d="M219 19v614h-174q-8 0 -13.5 5.5t-5.5 13.5v29q0 8 5.5 13.5t13.5 5.5h424q8 0 13.5 -5.5t5.5 -13.5v-29q0 -8 -5.5 -13.5t-13.5 -5.5h-174v-614q0 -7 -5.5 -13t-13.5 -6h-38q-8 0 -13.5 6t-5.5 13zM202 -119q0 22 15 35t39 13q31 0 50 -22.5t19 -62.5q0 -66 -46 -112
q-6 -6 -15 0l-16 12q-8 8 0 17q29 24 29 65q0 14 -5 22q-7 -7 -25 -7q-20 0 -32.5 11.5t-12.5 28.5z" />
    <glyph glyph-name="uni021B" unicode="&#x21b;" horiz-adv-x="379" 
d="M108 398h-61q-10 0 -16.5 6.5t-6.5 15.5v20q0 22 23 22h61v128q0 9 6.5 15t15.5 7l31 2q9 1 15 -6t6 -16v-130h136q10 0 16.5 -6t6.5 -16v-20q0 -9 -6.5 -15.5t-16.5 -6.5h-136v-276q0 -66 41 -66q43 0 91 30q19 12 29 -9l9 -21q8 -19 -8 -30q-53 -37 -130 -37
q-61 0 -83.5 33.5t-22.5 94.5v281zM161 -119q0 22 15 35t39 13q31 0 50 -22.5t19 -62.5q0 -66 -46 -112q-6 -6 -15 0l-16 12q-9 8 0 17q29 24 29 65q0 14 -5 22q-7 -7 -25 -7q-20 0 -32.5 11.5t-12.5 28.5z" />
    <glyph glyph-name="dotlessj" unicode="&#x237;" horiz-adv-x="230" 
d="M152 440v-490q0 -170 -131 -198q-17 -3 -21 12l-10 30q-7 19 14 27q39 14 56.5 40t17.5 82v497q0 10 6.5 16t15.5 6h30q9 0 15.5 -6.5t6.5 -15.5z" />
    <glyph glyph-name="circumflex" unicode="&#x2c6;" horiz-adv-x="373" 
d="M60 555l-14 18q-7 10 6 19l120 94q5 4 13 4t13 -4l120 -94q13 -9 6 -19q-2 -2 -5.5 -8t-6 -9t-6.5 -6.5t-8.5 -3t-10.5 4.5l-102 70l-102 -68q-15 -10 -23 2z" />
    <glyph glyph-name="caron" unicode="&#x2c7;" horiz-adv-x="373" 
d="M172 546l-120 94q-13 9 -6 19l14 18q8 12 23 2l102 -68l102 70q15 10 23 -2l14 -20q2 -3 2 -6t-1 -5.5t-4 -5.5t-5.5 -4.5t-6 -4t-4.5 -3.5l-107 -84q-5 -4 -13 -4t-13 4z" />
    <glyph glyph-name="uni02C9" unicode="&#x2c9;" horiz-adv-x="414" 
d="M79 583q-8 0 -13.5 5t-5.5 13v21q0 19 19 19h256q19 0 19 -19v-21q0 -8 -5.5 -13t-13.5 -5h-256z" />
    <glyph glyph-name="breve" unicode="&#x2d8;" horiz-adv-x="346" 
d="M173 531q-52 0 -90 32.5t-45 81.5q-4 20 14 20h21q13 0 19 -17q8 -29 30 -46.5t51 -17.5q27 0 48.5 18.5t30.5 45.5q6 17 19 17h23q18 0 14 -20q-8 -49 -46 -81.5t-89 -32.5z" />
    <glyph glyph-name="dotaccent" unicode="&#x2d9;" horiz-adv-x="219" 
d="M108 568q-22 0 -38 16t-16 38q0 24 15.5 40t38.5 16t39 -16t16 -40q0 -22 -16 -38t-39 -16z" />
    <glyph glyph-name="ring" unicode="&#x2da;" horiz-adv-x="290" 
d="M145 492q-46 0 -77.5 31.5t-31.5 77.5t31.5 77.5t77.5 31.5q45 0 77 -31.5t32 -77.5t-32 -77.5t-77 -31.5zM145 540q24 0 41.5 18.5t17.5 42.5t-17.5 41.5t-41.5 17.5t-42.5 -17.5t-18.5 -41.5t18.5 -42.5t42.5 -18.5z" />
    <glyph glyph-name="ogonek" unicode="&#x2db;" horiz-adv-x="276" 
d="M199 3q-109 -63 -109 -134q0 -25 13.5 -39t37.5 -14q28 0 63 26q5 5 10 3.5t6 -8.5l1 -34q2 -14 -12 -24q-40 -23 -83 -23q-47 0 -73 28t-26 72q0 28 10.5 53t31 44.5t35 30.5t35.5 25z" />
    <glyph glyph-name="tilde" unicode="&#x2dc;" horiz-adv-x="380" 
d="M64 575l-18 9q-11 6 -4 22q0 1 6 15t11.5 23t15.5 21t25 18.5t34 6.5q26 0 46.5 -18.5t36 -37t27.5 -18.5q30 0 45 51q5 16 23 8l16 -8q10 -5 4 -26q-28 -81 -89 -81q-24 0 -45.5 19t-37.5 37.5t-27 18.5q-12 0 -22 -9t-13.5 -17.5t-8.5 -23.5q-6 -20 -25 -10z" />
    <glyph glyph-name="hungarumlaut" unicode="&#x2dd;" horiz-adv-x="392" 
d="M233 521q-7 0 -10 5.5t-1 13.5l50 141q6 19 19 19h39q14 0 19 -7.5t-1 -17.5l-78 -139q-8 -15 -18 -15h-19zM67 521q-7 0 -10 5.5t-1 13.5l50 141q6 19 19 19h39q14 0 19 -7.5t-1 -17.5l-78 -139q-8 -15 -18 -15h-19z" />
    <glyph glyph-name="uni0394" unicode="&#x394;" horiz-adv-x="717" 
d="M63 0q-37 0 -18 39l298 662q5 9 14 9h5q10 0 14 -9l297 -664q17 -37 -18 -37h-592zM138 71h439l-217 502h-2z" />
    <glyph glyph-name="uni03A9" unicode="&#x3a9;" horiz-adv-x="835" 
d="M77 15v41q0 6 4.5 10.5t10.5 4.5h111q-68 40 -107 116t-39 165q0 150 105 254t255 104t255 -104t105 -254q0 -89 -39 -165t-106 -116h111q6 0 10.5 -4.5t4.5 -10.5v-41q0 -6 -4.5 -10.5t-10.5 -4.5h-249q-14 0 -14 15v29q0 14 17 22q92 29 151 108t59 175q0 118 -86 204
t-204 86t-203.5 -86t-85.5 -204q0 -96 59 -175t151 -108q16 -8 16 -22v-29q0 -15 -14 -15h-248q-6 0 -10.5 4.5t-4.5 10.5z" />
    <glyph glyph-name="uni03BC" unicode="&#x3bc;" horiz-adv-x="531" 
d="M90 -216v656q0 9 6.5 15.5t15.5 6.5h30q9 0 15.5 -7t6.5 -15v-244q0 -140 97 -140q25 0 47.5 7t37 16.5t25.5 19.5t16 17l5 7v317q0 9 6 15.5t15 6.5h31q8 0 14.5 -7t6.5 -15v-418q0 -9 -6.5 -15.5t-14.5 -6.5h-16q-16 0 -21 20l-9 29q-2 -2 -5.5 -6.5t-17 -14.5
t-28.5 -18t-40 -14.5t-52 -6.5q-56 0 -91 20v-225q0 -9 -7 -15.5t-15 -6.5h-30q-9 0 -15.5 6.5t-6.5 15.5z" />
    <glyph glyph-name="pi" unicode="&#x3c0;" horiz-adv-x="680" 
d="M157 17v381h-117q-8 0 -12.5 5t-4.5 11v31q0 7 5 12t12 5h599q18 0 18 -16v-33q0 -15 -18 -15h-117v-381q0 -17 -16 -17h-41q-7 0 -12 5t-5 12v381h-218v-381q0 -7 -5.5 -12t-12.5 -5h-39q-6 0 -11 5t-5 12z" />
    <glyph glyph-name="Wgrave" unicode="&#x1e80;" horiz-adv-x="886" 
d="M218 4l-189 672q-3 10 2 17t16 7h42q14 0 18 -14l139 -518h4l167 531q4 11 17 11h18q13 0 17 -11l170 -531h4l136 518q4 14 18 14h42q11 0 16 -7t2 -17l-189 -672q-4 -14 -18 -14h-16q-12 0 -17 11l-173 541h-5l-170 -541q-5 -11 -17 -11h-16q-14 0 -18 14zM509 781
l-161 67q-14 5 -6 21l18 36q3 6 12.5 6.5t13.5 -3.5l150 -84q12 -6 6 -19l-10 -22q-5 -10 -23 -2z" />
    <glyph glyph-name="wgrave" unicode="&#x1e81;" horiz-adv-x="702" 
d="M351 348h-2l-136 -347q-4 -12 -19 -12h-6q-15 0 -20 12l-128 435q-7 26 18 26h34q18 0 21 -13l85 -314h2l130 326q4 11 20 11h6q15 0 19 -11l129 -327h2l85 315q3 13 19 13h35q25 0 16 -26l-126 -435q-3 -12 -19 -12h-6q-14 0 -20 12zM417 559l-161 67q-14 5 -6 21l18 36
q3 6 12.5 6.5t13.5 -3.5l150 -84q12 -6 6 -19l-10 -22q-5 -10 -23 -2z" />
    <glyph glyph-name="Wacute" unicode="&#x1e82;" horiz-adv-x="886" 
d="M218 4l-189 672q-3 10 2 17t16 7h42q14 0 18 -14l139 -518h4l167 531q4 11 17 11h18q13 0 17 -11l170 -531h4l136 518q4 14 18 14h42q11 0 16 -7t2 -17l-189 -672q-4 -14 -18 -14h-16q-12 0 -17 11l-173 541h-5l-170 -541q-5 -11 -17 -11h-16q-14 0 -18 14zM352 783
l-10 22q-6 13 6 19l150 84q4 4 13.5 3.5t12.5 -6.5l18 -36q8 -16 -6 -21l-161 -67q-18 -8 -23 2z" />
    <glyph glyph-name="wacute" unicode="&#x1e83;" horiz-adv-x="702" 
d="M351 348h-2l-136 -347q-4 -12 -19 -12h-6q-15 0 -20 12l-128 435q-7 26 18 26h34q18 0 21 -13l85 -314h2l130 326q4 11 20 11h6q15 0 19 -11l129 -327h2l85 315q3 13 19 13h35q25 0 16 -26l-126 -435q-3 -12 -19 -12h-6q-14 0 -20 12zM260 561l-10 22q-6 13 6 19l150 84
q4 4 13.5 3.5t12.5 -6.5l18 -36q8 -16 -6 -21l-161 -67q-18 -8 -23 2z" />
    <glyph glyph-name="Wdieresis" unicode="&#x1e84;" horiz-adv-x="886" 
d="M218 4l-189 672q-3 10 2 17t16 7h42q14 0 18 -14l139 -518h4l167 531q4 11 17 11h18q13 0 17 -11l170 -531h4l136 518q4 14 18 14h42q11 0 16 -7t2 -17l-189 -672q-4 -14 -18 -14h-16q-12 0 -17 11l-173 541h-5l-170 -541q-5 -11 -17 -11h-16q-14 0 -18 14zM547 788
q-21 0 -36 15t-15 36q0 22 15 37t36 15q22 0 37 -15t15 -37q0 -21 -15 -36t-37 -15zM336 788q-21 0 -36 15t-15 36q0 22 15 37t36 15q22 0 37 -15t15 -37q0 -21 -15 -36t-37 -15z" />
    <glyph glyph-name="wdieresis" unicode="&#x1e85;" horiz-adv-x="702" 
d="M351 348h-2l-136 -347q-4 -12 -19 -12h-6q-15 0 -20 12l-128 435q-7 26 18 26h34q18 0 21 -13l85 -314h2l130 326q4 11 20 11h6q15 0 19 -11l129 -327h2l85 315q3 13 19 13h35q25 0 16 -26l-126 -435q-3 -12 -19 -12h-6q-14 0 -20 12zM446 581q-21 0 -36 15t-15 36
q0 22 15 37t36 15q22 0 37 -15t15 -37q0 -21 -15 -36t-37 -15zM253 581q-21 0 -36 15t-15 36q0 22 15 37t36 15q22 0 37 -15t15 -37q0 -21 -15 -36t-37 -15z" />
    <glyph glyph-name="Ygrave" unicode="&#x1ef2;" horiz-adv-x="574" 
d="M248 19v318l-241 334q-6 10 -1 19.5t17 9.5h47q9 0 16 -9l202 -279l202 279q7 9 16 9h47q12 0 17 -9.5t-1 -19.5l-244 -333v-319q0 -7 -5.5 -13t-13.5 -6h-39q-8 0 -13.5 5.5t-5.5 13.5zM355 781l-161 67q-14 5 -6 21l18 36q3 6 12.5 6.5t13.5 -3.5l150 -84q12 -6 6 -19
l-10 -22q-5 -10 -23 -2z" />
    <glyph glyph-name="ygrave" unicode="&#x1ef3;" horiz-adv-x="500" 
d="M198 1l-169 436q-10 25 18 25h42q15 0 20 -13l131 -367h2l156 367q5 13 20 13h37q13 0 18 -7.5t0 -18.5l-289 -660q-6 -14 -20 -14h-36q-13 0 -18.5 8t-0.5 20zM310 559l-161 67q-14 5 -6 21l18 36q3 6 12.5 6.5t13.5 -3.5l150 -84q12 -6 6 -19l-10 -22q-5 -10 -23 -2z
" />
    <glyph glyph-name="endash" unicode="&#x2013;" horiz-adv-x="540" 
d="M85 223q-8 0 -13.5 5t-5.5 13v11q0 19 19 19h369q19 0 19 -19v-11q0 -8 -5.5 -13t-13.5 -5h-369z" />
    <glyph glyph-name="emdash" unicode="&#x2014;" horiz-adv-x="760" 
d="M85 223q-8 0 -13.5 5t-5.5 13v11q0 19 19 19h589q19 0 19 -19v-11q0 -8 -5.5 -13t-13.5 -5h-589z" />
    <glyph glyph-name="quoteleft" unicode="&#x2018;" horiz-adv-x="233" 
d="M184 489q0 -27 -15 -44t-41 -17q-35 0 -55 31t-20 79q0 93 68 167q8 8 16 1l19 -17q8 -9 -1 -18q-56 -60 -56 -119q0 -12 4 -23q13 9 33 9q22 0 35 -15t13 -34z" />
    <glyph glyph-name="quoteright" unicode="&#x2019;" horiz-adv-x="230" 
d="M48 650q0 27 15 44t41 17q35 0 55 -31t20 -79q0 -93 -68 -167q-8 -8 -16 -1l-19 17q-8 8 1 18q56 60 56 119q0 12 -4 23q-13 -9 -33 -9q-22 0 -35 15.5t-13 33.5z" />
    <glyph glyph-name="quotesinglbase" unicode="&#x201a;" horiz-adv-x="241" 
d="M57 49q0 27 15 44t41 17q35 0 55 -31t20 -79q0 -93 -68 -167q-8 -8 -16 -1l-19 17q-9 9 1 18q56 60 56 119q0 12 -4 23q-13 -9 -33 -9q-22 0 -35 15t-13 34z" />
    <glyph glyph-name="quotedblleft" unicode="&#x201c;" horiz-adv-x="413" 
d="M184 489q0 -27 -15 -44t-41 -17q-35 0 -55 31t-20 79q0 93 68 167q8 8 16 1l19 -17q8 -9 -1 -18q-56 -60 -56 -119q0 -12 4 -23q13 9 33 9q22 0 35 -15t13 -34zM364 489q0 -27 -15 -44t-41 -17q-35 0 -55 31t-20 79q0 93 68 167q8 8 16 1l19 -17q8 -9 -1 -18
q-56 -60 -56 -119q0 -12 4 -23q13 9 33 9q22 0 35 -15t13 -34z" />
    <glyph glyph-name="quotedblright" unicode="&#x201d;" horiz-adv-x="410" 
d="M48 650q0 27 15 44t41 17q35 0 55 -31t20 -79q0 -93 -68 -167q-8 -8 -16 -1l-19 17q-8 8 1 18q56 60 56 119q0 12 -4 23q-13 -9 -33 -9q-22 0 -35 15.5t-13 33.5zM228 650q0 27 15 44t41 17q35 0 55 -31t20 -79q0 -93 -68 -167q-8 -8 -16 -1l-19 17q-8 8 1 18
q56 60 56 119q0 12 -4 23q-13 -9 -33 -9q-22 0 -35 15.5t-13 33.5z" />
    <glyph glyph-name="quotedblbase" unicode="&#x201e;" horiz-adv-x="420" 
d="M57 49q0 27 15 44t41 17q35 0 55 -31t20 -79q0 -93 -68 -167q-8 -8 -16 -1l-19 17q-9 9 1 18q56 60 56 119q0 12 -4 23q-13 -9 -33 -9q-22 0 -35 15t-13 34zM236 49q0 27 15 44t41 17q35 0 55 -31t20 -79q0 -93 -68 -167q-8 -8 -16 -1l-19 17q-8 9 1 18q56 60 56 119
q0 12 -4 23q-13 -9 -33 -9q-22 0 -35 15t-13 34z" />
    <glyph glyph-name="dagger" unicode="&#x2020;" horiz-adv-x="596" 
d="M58 334q-8 0 -13.5 6t-5.5 13v28q0 7 5.5 13t13.5 6h195v281q0 7 5.5 13t13.5 6h50q8 0 13.5 -6t5.5 -13v-281h198q7 0 12.5 -5.5t5.5 -13.5v-28q0 -8 -5.5 -13.5t-12.5 -5.5h-200l-17 -556q0 -6 -6 -11t-13 -5h-12q-7 0 -13 5t-6 11l-17 556h-197z" />
    <glyph glyph-name="daggerdbl" unicode="&#x2021;" horiz-adv-x="612" 
d="M77 19v28q0 7 5.5 13t13.5 6h174l-9 334h-195q-8 0 -13.5 6t-5.5 13v28q0 7 5.5 13t13.5 6h195v215q0 7 5.5 13t13.5 6h50q8 0 13.5 -6t5.5 -13v-215h198q7 0 12.5 -5.5t5.5 -13.5v-28q0 -8 -5.5 -13.5t-12.5 -5.5h-198l-9 -334h177q7 0 12.5 -5.5t5.5 -13.5v-28
q0 -8 -5.5 -13.5t-12.5 -5.5h-179l-8 -222q0 -6 -6 -11t-13 -5h-12q-7 0 -13 5t-6 11l-8 222h-176q-8 0 -13.5 6t-5.5 13z" />
    <glyph glyph-name="bullet" unicode="&#x2022;" horiz-adv-x="372" 
d="M184 149q-43 0 -74 31t-31 74q0 45 31 77t74 32q45 0 77 -32t32 -77q0 -43 -32 -74t-77 -31z" />
    <glyph glyph-name="ellipsis" unicode="&#x2026;" horiz-adv-x="618" 
d="M447 47q0 24 17 40.5t40 16.5q24 0 40.5 -16.5t16.5 -40.5q0 -23 -16.5 -40t-40.5 -17q-23 0 -40 17t-17 40zM250 47q0 24 17 40.5t40 16.5q24 0 40.5 -16.5t16.5 -40.5q0 -23 -16.5 -40t-40.5 -17q-23 0 -40 17t-17 40zM57 47q0 24 17 40.5t40 16.5q24 0 40.5 -16.5
t16.5 -40.5q0 -23 -16.5 -40t-40.5 -17q-23 0 -40 17t-17 40z" />
    <glyph glyph-name="perthousand" unicode="&#x2030;" horiz-adv-x="988" 
d="M184 441q-56 0 -95.5 39.5t-39.5 95.5t39.5 95.5t95.5 39.5t95.5 -39.5t39.5 -95.5t-39.5 -95.5t-95.5 -39.5zM142 27l343 663q6 10 17 10h16q11 0 16.5 -8.5t0.5 -18.5l-345 -663q-5 -10 -17 -10h-14q-11 0 -16.5 8.5t-0.5 18.5zM184 498q31 0 53.5 22.5t22.5 55.5
q0 31 -22.5 53.5t-53.5 22.5q-33 0 -55.5 -22.5t-22.5 -53.5q0 -33 22.5 -55.5t55.5 -22.5zM675 124q0 56 39.5 95.5t95.5 39.5t95.5 -39.5t39.5 -95.5t-39.5 -95.5t-95.5 -39.5t-95.5 39.5t-39.5 95.5zM365 124q0 56 39.5 95.5t95.5 39.5t95.5 -39.5t39.5 -95.5
t-39.5 -95.5t-95.5 -39.5t-95.5 39.5t-39.5 95.5zM732 124q0 -33 22.5 -55.5t55.5 -22.5q31 0 53.5 22.5t22.5 55.5q0 31 -22.5 53.5t-53.5 22.5q-33 0 -55.5 -22.5t-22.5 -53.5zM422 124q0 -33 22.5 -55.5t55.5 -22.5q31 0 53.5 22.5t22.5 55.5q0 31 -22.5 53.5t-53.5 22.5
q-33 0 -55.5 -22.5t-22.5 -53.5z" />
    <glyph glyph-name="guilsinglleft" unicode="&#x2039;" horiz-adv-x="270" 
d="M156 69l-104 155q-8 11 0 24l109 148q9 12 18 12h14q13 0 17 -9.5t-2 -21.5l-74 -139l71 -147q6 -12 1.5 -21t-16.5 -9h-19q-9 0 -15 8z" />
    <glyph glyph-name="guilsinglright" unicode="&#x203a;" horiz-adv-x="270" 
d="M79 61q-12 0 -16.5 9t1.5 21l71 147l-74 139q-6 12 -2 21.5t17 9.5h14q10 0 18 -12l109 -148q8 -13 0 -24l-104 -155q-6 -8 -15 -8h-19z" />
    <glyph glyph-name="fraction" unicode="&#x2044;" horiz-adv-x="120" 
d="M-88 10q-5 -10 -17 -10h-14q-11 0 -16.5 8.5t-0.5 18.5l343 663q6 10 17 10h16q11 0 16.5 -8.5t0.5 -18.5z" />
    <glyph glyph-name="zerosuperior" unicode="&#x2070;" horiz-adv-x="326" 
d="M163 494q-59 0 -91.5 41.5t-32.5 115.5q0 75 32.5 116.5t91.5 41.5t91.5 -41.5t32.5 -116.5q0 -74 -32.5 -115.5t-91.5 -41.5zM163 542q33 0 51 28.5t18 80.5q0 53 -18 81.5t-51 28.5t-51 -28.5t-18 -81.5q0 -52 18 -80.5t51 -28.5z" />
    <glyph glyph-name="foursuperior" unicode="&#x2074;" horiz-adv-x="316" 
d="M194 504q-10 0 -10 9v50h-150q-9 0 -9 9v32l169 193q3 3 8 3h24q10 0 10 -9v-185h41q9 0 9 -8v-26q0 -8 -9 -8h-41v-51q0 -9 -10 -9h-32zM80 607h106v118z" />
    <glyph glyph-name="fivesuperior" unicode="&#x2075;" horiz-adv-x="290" 
d="M141 494q-63 0 -98 38q-8 9 -1 15l21 20q7 5 12 0q3 -3 10.5 -8.5t24.5 -12t33 -6.5q28 0 46 17t18 40q0 24 -17 39t-49 15h-77q-15 0 -15 16v124q0 9 9 9h156q9 0 9 -9v-27q0 -8 -9 -8h-117v-60h48q54 0 84.5 -26.5t30.5 -71.5q0 -43 -34 -73.5t-85 -30.5z" />
    <glyph glyph-name="sixsuperior" unicode="&#x2076;" horiz-adv-x="291" 
d="M150 494q-54 0 -84 38.5t-30 95.5q0 42 19 77.5t48 57.5t52 34t42 18q8 3 12 -6l10 -23q5 -10 -9 -13q-29 -9 -67 -34.5t-49 -59.5q28 17 64 17q41 0 71.5 -26t30.5 -72q0 -43 -32.5 -73.5t-77.5 -30.5zM151 541q25 0 42.5 17t17.5 40t-18 39.5t-44 16.5q-22 0 -40 -11
t-26 -23q1 -29 19 -54t49 -25z" />
    <glyph glyph-name="sevensuperior" unicode="&#x2077;" horiz-adv-x="268" 
d="M59 504q-9 0 -9 7v7l132 237h-143q-9 0 -9 9v27q0 9 9 9h201q9 0 9 -9v-11l-143 -267q-5 -9 -13 -9h-34z" />
    <glyph glyph-name="eightsuperior" unicode="&#x2078;" horiz-adv-x="297" 
d="M147 494q-49 0 -79 23.5t-30 60.5q0 26 20 48.5t37 29.5v2q-18 8 -33.5 27t-15.5 43q0 37 29 59.5t73 22.5t73.5 -22.5t29.5 -59.5q0 -23 -15.5 -42t-34.5 -28v-2q21 -9 39.5 -30.5t18.5 -47.5q0 -37 -30.5 -60.5t-81.5 -23.5zM148 680q50 9 50 45q0 18 -14.5 30
t-36.5 12q-20 0 -34 -12t-14 -30q0 -36 49 -45zM148 537q24 0 40.5 12t16.5 32q0 17 -15 31.5t-42 19.5q-26 -5 -41 -19.5t-15 -31.5q0 -20 16.5 -32t39.5 -12z" />
    <glyph glyph-name="ninesuperior" unicode="&#x2079;" horiz-adv-x="292" 
d="M94 487q-8 -3 -12 6l-10 23q-5 10 9 13q29 9 67 34.5t49 59.5q-28 -17 -64 -17q-41 0 -71.5 26t-30.5 72q0 43 32.5 73.5t77.5 30.5q54 0 84 -38.5t30 -95.5q0 -42 -19 -77.5t-48 -57.5t-52 -34t-42 -18zM142 648q22 0 40 11t26 23q-1 29 -19 54t-49 25q-25 0 -42.5 -17
t-17.5 -40t18 -39.5t44 -16.5z" />
    <glyph glyph-name="zeroinferior" unicode="&#x2080;" horiz-adv-x="326" 
d="M39 -3q0 75 32.5 116.5t91.5 41.5t91.5 -41.5t32.5 -116.5q0 -74 -32.5 -115.5t-91.5 -41.5t-91.5 41.5t-32.5 115.5zM94 -3q0 -52 18 -80.5t51 -28.5t51 28.5t18 80.5q0 53 -18 81.5t-51 28.5t-51 -28.5t-18 -81.5z" />
    <glyph glyph-name="oneinferior" unicode="&#x2081;" horiz-adv-x="184" 
d="M30 62l-5 17q-1 7 3 11l70 56h28q9 0 9 -9v-278q0 -9 -9 -9h-35q-10 0 -10 9v210l-41 -11q-9 -2 -10 4z" />
    <glyph glyph-name="twoinferior" unicode="&#x2082;" horiz-adv-x="286" 
d="M61 79l-20 21q-6 6 0 11q4 5 12 12.5t33.5 20t51.5 12.5q52 0 80 -25t28 -64t-49 -90l-81 -83h121q9 0 9 -10v-25q0 -9 -9 -9h-194q-10 0 -10 9v14l127 133q32 35 32 56q0 18 -14.5 32.5t-42.5 14.5q-32 0 -62 -30q-6 -6 -12 0z" />
    <glyph glyph-name="threeinferior" unicode="&#x2083;" horiz-adv-x="289" 
d="M81 12q0 9 10 9h31q32 0 48.5 12.5t16.5 31.5q0 20 -16 32.5t-38 12.5q-32 0 -56 -24q-6 -6 -13 0l-20 18q-8 6 0 12q38 40 93 40q45 0 75 -23t30 -60q0 -24 -14 -43.5t-33 -26.5v-2q21 -8 38.5 -28t17.5 -47q0 -37 -31.5 -61.5t-82.5 -24.5q-65 0 -103 41q-6 6 1 11
l21 20q7 4 13 -1q39 -26 66 -26q24 0 42 12.5t18 32.5t-18.5 34t-54.5 14h-31q-10 0 -10 9v25z" />
    <glyph glyph-name="fourinferior" unicode="&#x2084;" horiz-adv-x="316" 
d="M25 -50l169 193q3 3 8 3h24q10 0 10 -9v-185h41q9 0 9 -8v-26q0 -8 -9 -8h-41v-51q0 -9 -10 -9h-32q-10 0 -10 9v50h-150q-9 0 -9 9v32zM80 -47h106v118z" />
    <glyph glyph-name="fiveinferior" unicode="&#x2085;" horiz-adv-x="290" 
d="M49 13v124q0 9 9 9h156q9 0 9 -9v-27q0 -8 -9 -8h-117v-60h48q54 0 84.5 -26.5t30.5 -71.5q0 -43 -34 -73.5t-85 -30.5q-63 0 -98 38q-8 9 -1 15l21 20q7 5 12 0q3 -3 10.5 -8.5t24.5 -12t33 -6.5q28 0 46 17t18 40q0 24 -17 39t-49 15h-77q-15 0 -15 16z" />
    <glyph glyph-name="sixinferior" unicode="&#x2086;" horiz-adv-x="292" 
d="M37 -26q0 42 19 77.5t48 57.5t52 34t42 18q8 3 12 -6l10 -23q5 -10 -9 -13q-29 -9 -67 -34.5t-49 -59.5q28 17 64 17q41 0 71.5 -26t30.5 -72q0 -43 -32.5 -73.5t-77.5 -30.5q-54 0 -84 38.5t-30 95.5zM84 -34q1 -29 19 -54t49 -25q25 0 42.5 17t17.5 40t-18 39.5
t-44 16.5q-22 0 -40 -11t-26 -23z" />
    <glyph glyph-name="seveninferior" unicode="&#x2087;" horiz-adv-x="270" 
d="M40 101q-9 0 -9 9v27q0 9 9 9h201q9 0 9 -9v-11l-143 -267q-5 -9 -13 -9h-34q-9 0 -9 7v7l132 237h-143z" />
    <glyph glyph-name="eightinferior" unicode="&#x2088;" horiz-adv-x="299" 
d="M39 -76q0 26 20 48.5t37 29.5v2q-18 8 -33.5 27t-15.5 43q0 37 29 59.5t73 22.5t73.5 -22.5t29.5 -59.5q0 -23 -15.5 -42t-34.5 -28v-2q21 -9 39.5 -30.5t18.5 -47.5q0 -37 -30.5 -60.5t-81.5 -23.5q-49 0 -79 23.5t-30 60.5zM100 71q0 -36 49 -45q50 9 50 45
q0 18 -14.5 30t-36.5 12q-20 0 -34 -12t-14 -30zM93 -73q0 -20 16.5 -32t39.5 -12q24 0 40.5 12t16.5 32q0 17 -15 31.5t-42 19.5q-26 -5 -41 -19.5t-15 -31.5z" />
    <glyph glyph-name="nineinferior" unicode="&#x2089;" horiz-adv-x="291" 
d="M31 50q0 43 32.5 73.5t77.5 30.5q54 0 84 -38.5t30 -95.5q0 -42 -19 -77.5t-48 -57.5t-52 -34t-42 -18q-8 -3 -12 6l-10 23q-5 10 9 13q29 9 67 34.5t49 59.5q-28 -17 -64 -17q-41 0 -71.5 26t-30.5 72zM80 50q0 -23 18 -39.5t44 -16.5q22 0 40 11t26 23q-1 29 -19 54
t-49 25q-25 0 -42.5 -17t-17.5 -40z" />
    <glyph glyph-name="Euro" unicode="&#x20ac;" 
d="M413 253h-230q18 -87 63 -138.5t110 -51.5q52 0 84.5 13.5t70.5 46.5q14 12 24 0l24 -27q12 -14 -1 -27q-83 -79 -201 -79q-98 0 -167 71t-89 192h-55q-7 0 -12.5 5.5t-5.5 13.5v7q0 8 5.5 13.5t12.5 5.5h49q-2 32 -2 51v24h-47q-7 0 -12.5 5.5t-5.5 13.5v7q0 8 5.5 13.5
t12.5 5.5h51q16 126 86.5 209t183.5 83q62 0 105 -19.5t80 -58.5q13 -13 2 -28l-20 -27q-14 -18 -33 1q-31 31 -59.5 45.5t-75.5 14.5q-76 0 -124.5 -62.5t-62.5 -157.5h274q8 0 13.5 -5.5t5.5 -13.5v-8q0 -8 -5.5 -13t-13.5 -5h-279v-23q0 -18 2 -52h237q8 0 13.5 -5.5
t5.5 -13.5v-8q0 -8 -5.5 -13t-13.5 -5z" />
    <glyph glyph-name="afii61289" unicode="&#x2113;" horiz-adv-x="474" 
d="M104 148q0 30 7 72q-29 -9 -52 -13q-13 -1 -16 9l-4 22q-5 16 13 19q46 8 70 16q12 62 18 94q34 171 82 257.5t120 86.5q51 0 79.5 -35.5t28.5 -96.5q0 -84 -42.5 -154t-103.5 -113.5t-140 -73.5q-11 -48 -11 -88q0 -110 87 -110q83 0 157 45q14 9 20 -3l10 -16
q6 -11 -3 -20q-8 -7 -27 -18t-64.5 -24.5t-92.5 -13.5q-72 0 -104 44.5t-32 113.5zM174 289q100 43 163.5 116.5t63.5 173.5q0 38 -15.5 59.5t-43.5 21.5q-52 0 -88 -75.5t-66 -225.5z" />
    <glyph glyph-name="uni2117" unicode="&#x2117;" horiz-adv-x="845" 
d="M63 350q0 149 105.5 254.5t253.5 105.5t254 -106t106 -254t-105.5 -253.5t-254.5 -105.5q-148 0 -253.5 105.5t-105.5 253.5zM123 350q0 -124 87.5 -211.5t211.5 -87.5t211.5 87.5t87.5 211.5t-87.5 211.5t-211.5 87.5t-211.5 -87.5t-87.5 -211.5zM311 187v328
q0 8 5.5 13.5t13.5 5.5h142q50 0 86.5 -29.5t36.5 -82.5q0 -55 -34 -85t-89 -30h-97v-120q0 -8 -5.5 -13.5t-13.5 -5.5h-26q-8 0 -13.5 5.5t-5.5 13.5zM375 365h97q27 0 43.5 16.5t16.5 40.5q0 26 -16 41.5t-44 15.5h-97v-114z" />
    <glyph glyph-name="trademark" unicode="&#x2122;" horiz-adv-x="758" 
d="M351 398q-10 0 -15.5 7t-3.5 16l52 269q4 15 19 15h4q13 0 17 -11l81 -212l82 212q4 11 17 11h4q15 0 19 -15l53 -270q1 -9 -4.5 -15.5t-14.5 -6.5h-12q-15 0 -19 17l-34 165l-72 -176q-4 -9 -16 -9h-6q-14 0 -17 10l-70 175l-35 -166q-4 -16 -19 -16h-10zM178 398
q-8 0 -13.5 5.5t-5.5 13.5v234h-70q-8 0 -13.5 5.5t-5.5 13.5v11q0 7 6 13t13 6h191q8 0 13.5 -5.5t5.5 -13.5v-11q0 -19 -19 -19h-70v-234q0 -7 -6 -13t-13 -6h-13z" />
    <glyph glyph-name="Omega" unicode="&#x2126;" horiz-adv-x="835" 
d="M77 15v41q0 6 4.5 10.5t10.5 4.5h111q-68 40 -107 116t-39 165q0 150 105 254t255 104t255 -104t105 -254q0 -89 -39 -165t-106 -116h111q6 0 10.5 -4.5t4.5 -10.5v-41q0 -6 -4.5 -10.5t-10.5 -4.5h-249q-14 0 -14 15v29q0 14 17 22q92 29 151 108t59 175q0 118 -86 204
t-204 86t-203.5 -86t-85.5 -204q0 -96 59 -175t151 -108q16 -8 16 -22v-29q0 -15 -14 -15h-248q-6 0 -10.5 4.5t-4.5 10.5z" />
    <glyph glyph-name="estimated" unicode="&#x212e;" horiz-adv-x="839" 
d="M175 158q39 -57 108 -89.5t145 -32.5q115 0 214 86q11 11 23 1l12 -14q8 -10 -4 -22q-104 -98 -245 -98q-153 0 -258 104t-105 256t105.5 257t257.5 105t257.5 -105t106.5 -257q0 -24 -19 -24h-598v-167zM175 371h508v168q-42 58 -109 91t-146 33q-78 0 -144 -32
t-109 -90v-170z" />
    <glyph glyph-name="onethird" unicode="&#x2153;" horiz-adv-x="626" 
d="M98 27l343 663q6 10 17 10h16q11 0 16.5 -8.5t0.5 -18.5l-345 -663q-5 -10 -17 -10h-14q-11 0 -16.5 8.5t-0.5 18.5zM112 404q-10 0 -10 9v210l-41 -11q-9 -2 -10 4l-5 17q-1 7 3 11l70 56h28q9 0 9 -9v-278q0 -9 -9 -9h-35zM358 31q-6 6 1 11l21 20q8 4 13 -1
q39 -26 66 -26q24 0 42 12.5t18 32.5t-18.5 34t-54.5 14h-31q-10 0 -10 9v25q0 9 10 9h31q32 0 48.5 12.5t16.5 31.5q0 20 -16 32.5t-38 12.5q-32 0 -56 -24q-6 -6 -13 0l-20 18q-8 6 0 12q38 40 93 40q45 0 75 -23t30 -60q0 -24 -14 -43.5t-33 -26.5v-2q21 -8 38.5 -28
t17.5 -47q0 -37 -31.5 -61.5t-82.5 -24.5q-65 0 -103 41z" />
    <glyph glyph-name="twothirds" unicode="&#x2154;" horiz-adv-x="680" 
d="M61 404q-10 0 -10 9v14l127 133q32 35 32 56q0 18 -14.5 32.5t-42.5 14.5q-32 0 -62 -30q-6 -6 -12 0l-20 21q-6 6 0 11q4 5 12 12.5t33.5 20t51.5 12.5q52 0 80 -25t28 -64t-49 -90l-81 -83h121q9 0 9 -10v-25q0 -9 -9 -9h-194zM154 27l343 663q6 10 17 10h16
q11 0 16.5 -8.5t0.5 -18.5l-345 -663q-5 -10 -17 -10h-14q-11 0 -16.5 8.5t-0.5 18.5zM414 31q-6 6 1 11l21 20q7 4 13 -1q39 -26 66 -26q24 0 42 12.5t18 32.5t-18.5 34t-54.5 14h-31q-10 0 -10 9v25q0 9 10 9h31q32 0 48.5 12.5t16.5 31.5q0 20 -16 32.5t-38 12.5
q-32 0 -56 -24q-6 -6 -13 0l-20 18q-8 6 0 12q38 40 93 40q45 0 75 -23t30 -60q0 -24 -14 -43.5t-33 -26.5v-2q21 -8 38.5 -28t17.5 -47q0 -37 -31.5 -61.5t-82.5 -24.5q-65 0 -103 41z" />
    <glyph glyph-name="oneeighth" unicode="&#x215b;" horiz-adv-x="644" 
d="M98 27l343 663q6 10 17 10h16q11 0 16.5 -8.5t0.5 -18.5l-345 -663q-5 -10 -17 -10h-14q-11 0 -16.5 8.5t-0.5 18.5zM112 404q-10 0 -10 9v210l-41 -11q-9 -2 -10 4l-5 17q-1 7 3 11l70 56h28q9 0 9 -9v-278q0 -9 -9 -9h-35zM373 74q0 26 20 48.5t37 29.5v2
q-18 8 -33.5 27t-15.5 43q0 37 29 59.5t73 22.5t73.5 -22.5t29.5 -59.5q0 -23 -15.5 -42t-34.5 -28v-2q21 -9 39.5 -30.5t18.5 -47.5q0 -37 -30.5 -60.5t-81.5 -23.5q-49 0 -79 23.5t-30 60.5zM434 221q0 -36 49 -45q50 9 50 45q0 18 -14.5 30t-36.5 12q-20 0 -34 -12
t-14 -30zM427 77q0 -20 16.5 -32t39.5 -12q24 0 40.5 12t16.5 32q0 17 -15 31.5t-42 19.5q-26 -5 -41 -19.5t-15 -31.5z" />
    <glyph glyph-name="threeeighths" unicode="&#x215c;" horiz-adv-x="685" 
d="M154 394q-65 0 -103 41q-6 6 1 11l21 20q7 4 13 -1q39 -26 66 -26q24 0 42 12.5t18 32.5t-18.5 34t-54.5 14h-31q-10 0 -10 9v25q0 9 10 9h31q32 0 48.5 12.5t16.5 31.5q0 20 -16 32.5t-38 12.5q-32 0 -56 -24q-6 -6 -13 0l-20 18q-8 6 0 12q38 40 93 40q45 0 75 -23
t30 -60q0 -24 -14 -43.5t-33 -26.5v-2q21 -8 38.5 -28t17.5 -47q0 -37 -31.5 -61.5t-82.5 -24.5zM141 27l343 663q6 10 17 10h16q11 0 16.5 -8.5t0.5 -18.5l-345 -663q-5 -10 -17 -10h-14q-11 0 -16.5 8.5t-0.5 18.5zM416 74q0 26 20 48.5t37 29.5v2q-18 8 -33.5 27
t-15.5 43q0 37 29 59.5t73 22.5t73.5 -22.5t29.5 -59.5q0 -23 -15.5 -42t-34.5 -28v-2q21 -9 39.5 -30.5t18.5 -47.5q0 -37 -30.5 -60.5t-81.5 -23.5q-49 0 -79 23.5t-30 60.5zM477 221q0 -36 49 -45q50 9 50 45q0 18 -14.5 30t-36.5 12q-20 0 -34 -12t-14 -30zM470 77
q0 -20 16.5 -32t39.5 -12q24 0 40.5 12t16.5 32q0 17 -15 31.5t-42 19.5q-26 -5 -41 -19.5t-15 -31.5z" />
    <glyph glyph-name="fiveeighths" unicode="&#x215d;" horiz-adv-x="687" 
d="M144 27l343 663q6 10 17 10h16q11 0 16.5 -8.5t0.5 -18.5l-345 -663q-5 -10 -17 -10h-14q-11 0 -16.5 8.5t-0.5 18.5zM155 394q-63 0 -98 38q-8 9 -1 15l21 20q7 5 12 0q3 -3 10.5 -8.5t24.5 -12t33 -6.5q28 0 46 17t18 40q0 24 -17 39t-49 15h-77q-15 0 -15 16v124
q0 9 9 9h156q9 0 9 -9v-27q0 -8 -9 -8h-117v-60h48q54 0 84.5 -26.5t30.5 -71.5q0 -43 -34 -73.5t-85 -30.5zM419 74q0 26 20 48.5t37 29.5v2q-18 8 -33.5 27t-15.5 43q0 37 29 59.5t73 22.5t73.5 -22.5t29.5 -59.5q0 -23 -15.5 -42t-34.5 -28v-2q21 -9 39.5 -30.5
t18.5 -47.5q0 -37 -30.5 -60.5t-81.5 -23.5q-49 0 -79 23.5t-30 60.5zM480 221q0 -36 49 -45q50 9 50 45q0 18 -14.5 30t-36.5 12q-20 0 -34 -12t-14 -30zM473 77q0 -20 16.5 -32t39.5 -12q24 0 40.5 12t16.5 32q0 17 -15 31.5t-42 19.5q-26 -5 -41 -19.5t-15 -31.5z" />
    <glyph glyph-name="seveneighths" unicode="&#x215e;" horiz-adv-x="655" 
d="M111 27l343 663q6 10 17 10h16q11 0 16.5 -8.5t0.5 -18.5l-345 -663q-5 -10 -17 -10h-14q-11 0 -16.5 8.5t-0.5 18.5zM77 404q-9 0 -9 7v7l132 237h-143q-9 0 -9 9v27q0 9 9 9h201q9 0 9 -9v-11l-143 -267q-5 -9 -13 -9h-34zM386 74q0 26 20 48.5t37 29.5v2
q-18 8 -33.5 27t-15.5 43q0 37 29 59.5t73 22.5t73.5 -22.5t29.5 -59.5q0 -23 -15.5 -42t-34.5 -28v-2q21 -9 39.5 -30.5t18.5 -47.5q0 -37 -30.5 -60.5t-81.5 -23.5q-49 0 -79 23.5t-30 60.5zM447 221q0 -36 49 -45q50 9 50 45q0 18 -14.5 30t-36.5 12q-20 0 -34 -12
t-14 -30zM440 77q0 -20 16.5 -32t39.5 -12q24 0 40.5 12t16.5 32q0 17 -15 31.5t-42 19.5q-26 -5 -41 -19.5t-15 -31.5z" />
    <glyph glyph-name="partialdiff" unicode="&#x2202;" horiz-adv-x="579" 
d="M48 226q0 99 65 161t156 62q40 0 79 -11.5t58 -23.5l20 -11q-13 48 -49.5 95.5t-80 80t-79 53t-56.5 27.5q-28 8 -19 30l12 25q7 16 22 10q38 -15 76 -35t88 -59t86.5 -85t62.5 -115t26 -147q0 -131 -60 -212t-180 -81q-93 0 -160 69.5t-67 166.5zM121 221q0 -67 45 -115
t109 -48q57 0 96.5 33t55.5 79t16 98q0 27 -4 47q-8 8 -21.5 19t-56 29.5t-85.5 18.5q-65 0 -110 -47t-45 -114z" />
    <glyph glyph-name="Delta" unicode="&#x2206;" horiz-adv-x="717" 
d="M63 0q-37 0 -18 39l298 662q5 9 14 9h5q10 0 14 -9l297 -664q17 -37 -18 -37h-592zM138 71h439l-217 502h-2z" />
    <glyph glyph-name="product" unicode="&#x220f;" horiz-adv-x="771" 
d="M106 15v670q0 6 4.5 10.5t10.5 4.5h529q15 0 15 -15v-670q0 -15 -15 -15h-48q-6 0 -10.5 4.5t-4.5 10.5v614h-403v-614q0 -15 -15 -15h-48q-6 0 -10.5 4.5t-4.5 10.5z" />
    <glyph glyph-name="summation" unicode="&#x2211;" horiz-adv-x="547" 
d="M48 15v20l310 322l-310 310v18q0 15 14 15h405q6 0 10.5 -4.5t4.5 -10.5v-42q0 -6 -4.5 -10.5t-10.5 -4.5h-289l240 -231q15 -15 15 -26v-27q0 -7 -15 -25l-240 -248h289q15 0 15 -14v-42q0 -6 -4.5 -10.5t-10.5 -4.5h-405q-14 0 -14 15z" />
    <glyph glyph-name="minus" unicode="&#x2212;" 
d="M110 314q-8 0 -13.5 6t-5.5 13v28q0 7 5.5 13t13.5 6h381q7 0 12.5 -5.5t5.5 -13.5v-28q0 -8 -5.5 -13.5t-12.5 -5.5h-381z" />
    <glyph glyph-name="uni2215" unicode="&#x2215;" horiz-adv-x="120" 
d="M-88 10q-5 -10 -17 -10h-14q-11 0 -16.5 8.5t-0.5 18.5l343 663q6 10 17 10h16q11 0 16.5 -8.5t0.5 -18.5z" />
    <glyph glyph-name="uni2219" unicode="&#x2219;" horiz-adv-x="241" 
d="M120 204q-23 0 -40 17t-17 40q0 24 17 40.5t40 16.5q24 0 40.5 -16.5t16.5 -40.5q0 -23 -16.5 -40t-40.5 -17z" />
    <glyph glyph-name="radical" unicode="&#x221a;" horiz-adv-x="660" 
d="M202 0l-169 383q-9 17 10 17h51q10 0 13 -8l111 -261h3l248 559q4 10 15 10h149q14 0 14 -15v-35q0 -15 -14 -15h-111l-287 -635q-3 -10 -14 -10h-6q-8 0 -13 10z" />
    <glyph glyph-name="infinity" unicode="&#x221e;" horiz-adv-x="650" 
d="M210 157q-58 0 -98.5 41t-40.5 98q0 58 40.5 98.5t98.5 40.5q34 0 64.5 -18.5t49.5 -47.5q42 66 116 66q57 0 98 -40.5t41 -98.5q0 -57 -41 -98t-98 -41q-35 0 -66 18.5t-50 47.5q-19 -29 -49.5 -47.5t-64.5 -18.5zM355 296q0 -35 24 -59t59 -24q34 0 58.5 24.5
t24.5 58.5t-24.5 58.5t-58.5 24.5q-35 0 -59 -24t-24 -59zM211 213q34 0 58.5 24.5t24.5 58.5t-24.5 58.5t-58.5 24.5q-35 0 -59 -24.5t-24 -58.5t24 -58.5t59 -24.5z" />
    <glyph glyph-name="integral" unicode="&#x222b;" horiz-adv-x="482" 
d="M206 -79v619q0 83 42.5 126.5t110.5 43.5q67 0 110 -41q12 -10 4 -23l-16 -26q-9 -15 -26 -1q-38 29 -73 29q-37 0 -60 -26.5t-23 -81.5v-619q0 -83 -42.5 -126.5t-110.5 -43.5q-67 0 -110 41q-12 10 -4 23l16 26q9 15 26 1q38 -29 73 -29q37 0 60 26.5t23 81.5z" />
    <glyph glyph-name="approxequal" unicode="&#x2248;" 
d="M147 326l-21 16q-12 8 -2 22q2 3 5 8.5t13.5 20t22 25t30.5 19.5t39 9q39 0 82 -36q31 -25 53 -25q40 0 64 51q7 15 22 4l22 -16q12 -8 2 -22q-2 -3 -5 -8.5t-13.5 -20t-22 -25t-30.5 -19.5t-39 -9q-40 0 -82 35q-31 26 -53 26q-41 0 -65 -51q-7 -15 -22 -4zM148 122
l-22 16q-12 8 -2 22q2 3 5 8.5t13.5 20t22 25t30.5 19.5t39 9q39 0 82 -36q31 -25 53 -25q40 0 64 51q7 15 22 4l22 -16q12 -8 2 -22q-2 -3 -5 -8.5t-13.5 -20t-22 -25t-30.5 -19.5t-39 -9q-40 0 -82 35q-31 26 -53 26q-40 0 -64 -51q-7 -15 -22 -4z" />
    <glyph glyph-name="notequal" unicode="&#x2260;" 
d="M203 57q-19 8 -10 24l27 59h-70q-8 0 -13.5 5.5t-5.5 13.5v31q0 8 5.5 13.5t13.5 5.5h102l67 142h-169q-8 0 -13.5 5.5t-5.5 13.5v30q0 8 5.5 13.5t13.5 5.5h200l36 76q3 7 10.5 10t14.5 -1l6 -3q8 -3 10.5 -10t-1.5 -14l-27 -58h50q8 0 13.5 -5.5t5.5 -13.5v-30
q0 -8 -5.5 -13.5t-13.5 -5.5h-82l-66 -142h148q8 0 13.5 -5.5t5.5 -13.5v-31q0 -8 -5.5 -13.5t-13.5 -5.5h-180l-36 -77q-5 -17 -25 -9z" />
    <glyph glyph-name="lessequal" unicode="&#x2264;" 
d="M97 382q-10 7 -10 17v5q0 9 10 16l384 194q18 9 18 -12v-41q0 -10 -8 -15l-303 -144l303 -141q8 -5 8 -15v-41q0 -9 -5.5 -12.5t-12.5 0.5zM103 61q-7 0 -13 5.5t-6 13.5v28q0 8 6 13.5t13 5.5h381q7 0 12.5 -5.5t5.5 -13.5v-28q0 -8 -5.5 -13.5t-12.5 -5.5h-381z" />
    <glyph glyph-name="greaterequal" unicode="&#x2265;" 
d="M118 193q-7 -4 -12.5 -0.5t-5.5 12.5v41q0 10 8 15l303 141l-303 144q-8 5 -8 15v41q0 21 18 12l384 -194q10 -7 10 -16v-5q0 -10 -10 -17zM115 61q-7 0 -12.5 5.5t-5.5 13.5v28q0 8 5.5 13.5t12.5 5.5h381q8 0 13.5 -5.5t5.5 -13.5v-28q0 -8 -5.5 -13.5t-13.5 -5.5h-381
z" />
    <glyph glyph-name="lozenge" unicode="&#x25ca;" horiz-adv-x="620" 
d="M71 306q-14 19 -18 29.5t-2 25.5q1 19 22 47l221 293q5 9 14 9h5q9 0 14 -9l220 -292q23 -33 22 -56q-1 -18 -22 -50l-220 -306q-4 -8 -14 -8h-5q-8 0 -14 8zM309 85h2l188 271l-188 259h-2l-188 -259z" />
    <glyph glyph-name="commaaccent" unicode="&#xf6c3;" horiz-adv-x="292" 
d="M84 -119q0 22 15 35t39 13q31 0 50 -22.5t19 -62.5q0 -66 -46 -112q-6 -6 -15 0l-16 12q-8 8 0 17q29 24 29 65q0 14 -5 22q-7 -7 -25 -7q-20 0 -32.5 11.5t-12.5 28.5z" />
    <glyph glyph-name="uniF8FF" unicode="&#xf8ff;" horiz-adv-x="599" 
d="M50 30v640q0 30 30 30h439q30 0 30 -30v-640q0 -30 -30 -30h-439q-30 0 -30 30zM262 314q0 -12 14 -12h36q15 0 15 13v26q0 16 16.5 32t36 28.5t36 36.5t16.5 53q0 48 -35.5 79.5t-89.5 31.5q-24 0 -46.5 -6.5t-37 -15t-25.5 -17.5t-16 -15l-5 -7q-8 -12 0 -18l22 -22
q8 -6 17 0q1 1 7.5 7t9.5 9t11.5 8.5t15.5 8.5t18 5.5t22 2.5q29 0 45 -15t16 -37q0 -21 -15.5 -39t-34 -30t-34 -32.5t-15.5 -45.5v-29zM245 156q0 -20 14.5 -34t33.5 -14q20 0 34.5 14t14.5 34t-14.5 34t-34.5 14q-19 0 -33.5 -14t-14.5 -34z" />
    <glyph glyph-name="g.alt" horiz-adv-x="532" 
d="M41 71q0 39 18.5 67t36.5 36l19 9q-36 37 -36 104q0 80 53 132.5t141 52.5h195q22 0 22 -22v-15q0 -17 -12 -18l-62 -13q2 -1 5.5 -3t12.5 -11.5t15.5 -21.5t12 -33.5t5.5 -47.5q0 -80 -52.5 -130t-141.5 -50q-33 0 -61 7t-40 14l-11 8q-6 -1 -14.5 -3.5t-22.5 -16.5
t-14 -34q0 -48 63 -48h169q81 0 126 -28t45 -99q0 -65 -66.5 -110.5t-169.5 -45.5q-109 0 -163.5 37t-54.5 92q0 66 63 89v3q-31 8 -56 32t-25 67zM275 173q53 0 85.5 31t32.5 87q0 55 -32.5 84.5t-85.5 29.5q-55 0 -90 -30t-35 -84q0 -56 35 -87t90 -31zM134 -108
q0 -33 40 -51t102 -18q63 0 110 21t47 61q0 59 -91 59h-128q-3 0 -8.5 -1t-19.5 -5t-24.5 -11t-19 -21.5t-8.5 -33.5z" />
    <glyph glyph-name="grave.cap" horiz-adv-x="302" 
d="M227 781l-161 67q-14 5 -6 21l18 36q3 6 12.5 6.5t13.5 -3.5l150 -84q12 -6 6 -19l-10 -22q-5 -10 -23 -2z" />
    <glyph glyph-name="acute.cap" horiz-adv-x="302" 
d="M70 783l-10 22q-6 13 6 19l150 84q4 4 13.5 3.5t12.5 -6.5l18 -36q8 -16 -6 -21l-161 -67q-18 -8 -23 2z" />
    <glyph glyph-name="circumflex.cap" horiz-adv-x="373" 
d="M60 775l-14 18q-7 10 6 19l120 94q5 4 13 4t13 -4l120 -94q13 -9 6 -19q-2 -2 -5.5 -8t-6 -9t-6.5 -6.5t-8.5 -3t-10.5 4.5l-102 70l-102 -68q-15 -10 -23 2z" />
    <glyph glyph-name="caron.cap" horiz-adv-x="373" 
d="M185 768q-8 0 -13 4l-120 94q-13 9 -6 19l14 18q8 12 23 2l102 -68l102 70q15 10 23 -2l14 -20q2 -3 2 -6t-1 -5.5t-4 -5.5t-5.5 -4.5t-6 -4t-4.5 -3.5l-107 -84q-5 -4 -13 -4z" />
    <glyph glyph-name="caron.alt" horiz-adv-x="373" 
d="M121 663q0 22 15 35t39 13q31 0 50 -22.5t19 -62.5q0 -66 -46 -112q-6 -6 -15 0l-16 12q-9 8 0 17q29 24 29 65q0 14 -5 22q-7 -7 -25 -7q-20 0 -32.5 11.5t-12.5 28.5z" />
    <glyph glyph-name="tilde.cap" horiz-adv-x="380" 
d="M64 795l-18 9q-11 6 -4 22q0 1 6 15t11.5 23t15.5 21t25 18.5t34 6.5q26 0 46.5 -18.5t36 -37t27.5 -18.5q30 0 45 51q5 16 23 8l16 -8q10 -5 4 -26q-28 -81 -89 -81q-24 0 -45.5 19t-37.5 37.5t-27 18.5q-12 0 -22 -9t-13.5 -17.5t-8.5 -23.5q-6 -20 -25 -10z" />
    <glyph glyph-name="dieresis.cap" horiz-adv-x="474" 
d="M342 788q-21 0 -36 15t-15 36q0 22 15 37t36 15q22 0 37 -15t15 -37q0 -21 -15 -36t-37 -15zM131 788q-21 0 -36 15t-15 36q0 22 15 37t36 15q22 0 37 -15t15 -37q0 -21 -15 -36t-37 -15z" />
    <glyph glyph-name="macron.cap" horiz-adv-x="414" 
d="M79 821q-8 0 -13.5 5t-5.5 13v21q0 19 19 19h256q19 0 19 -19v-21q0 -8 -5.5 -13t-13.5 -5h-256z" />
    <glyph glyph-name="breve.cap" horiz-adv-x="346" 
d="M173 771q-52 0 -90 32.5t-45 81.5q-4 20 14 20h21q13 0 19 -17q8 -29 30 -46.5t51 -17.5q27 0 48.5 18.5t30.5 45.5q6 17 19 17h23q18 0 14 -20q-8 -49 -46 -81.5t-89 -32.5z" />
    <glyph glyph-name="ring.cap" horiz-adv-x="290" 
d="M145 758q-46 0 -77.5 31.5t-31.5 77.5t31.5 77.5t77.5 31.5q45 0 77 -31.5t32 -77.5t-32 -77.5t-77 -31.5zM145 806q24 0 41.5 18.5t17.5 42.5t-17.5 41.5t-41.5 17.5t-42.5 -17.5t-18.5 -41.5t18.5 -42.5t42.5 -18.5z" />
    <glyph glyph-name="hungarumlaut.cap" horiz-adv-x="392" 
d="M231 769q-8 0 -14.5 6t-4.5 13l50 141q6 19 19 19h39q14 0 19 -7.5t-1 -17.5l-78 -139q-8 -15 -18 -15h-11zM65 769q-8 0 -14.5 6t-4.5 13l50 141q6 19 19 19h39q14 0 19 -7.5t-1 -17.5l-78 -139q-8 -15 -18 -15h-11z" />
    <glyph glyph-name="dotaccent.cap" horiz-adv-x="219" 
d="M108 798q-22 0 -38 16t-16 38q0 24 15.5 40t38.5 16t39 -16t16 -40q0 -22 -16 -38t-39 -16z" />
    <glyph glyph-name="cedilla.cap" horiz-adv-x="247" 
d="M114 3h52l-45 -70q12 4 25 4q35 0 59.5 -20.5t24.5 -62.5t-31.5 -68t-77.5 -26q-52 0 -82 28q-7 7 0 21l8 15q7 14 21 5q20 -20 50 -20q25 0 40.5 12.5t15.5 32.5q0 45 -53 45q-24 0 -44 -10q-5 -2 -9.5 3t-2.5 10z" />
    <glyph glyph-name="ogonek.cap" horiz-adv-x="276" 
d="M199 3q-109 -63 -109 -134q0 -25 13.5 -39t37.5 -14q28 0 63 26q5 5 10 3.5t6 -8.5l1 -34q2 -14 -12 -24q-40 -23 -83 -23q-47 0 -73 28t-26 72q0 28 10.5 53t31 44.5t35 30.5t35.5 25z" />
    <glyph glyph-name="commaaccent.alt" horiz-adv-x="292" 
d="M191 600q0 -22 -15 -35t-39 -13q-31 0 -50 22.5t-19 62.5q0 66 46 112q6 6 15 0l16 -12q9 -9 0 -17q-29 -24 -29 -65q0 -14 5 -22q7 7 25 7q20 0 32.5 -11.5t12.5 -28.5z" />
    <glyph glyph-name="commaaccent.cap" horiz-adv-x="292" 
d="M84 -119q0 22 15 35t39 13q31 0 50 -22.5t19 -62.5q0 -66 -46 -112q-6 -6 -15 0l-16 12q-8 8 0 17q29 24 29 65q0 14 -5 22q-7 -7 -25 -7q-20 0 -32.5 11.5t-12.5 28.5z" />
    <glyph glyph-name="brokenbar.case" horiz-adv-x="210" 
d="M102 463q-8 0 -13.5 5.5t-5.5 12.5v330q0 8 5.5 13.5t13.5 5.5h7q8 0 13 -5.5t5 -13.5v-330q0 -7 -5.5 -12.5t-13.5 -5.5h-6zM83 181q0 8 5.5 13.5t13.5 5.5h7q8 0 13 -5.5t5 -13.5v-331q0 -7 -5.5 -12.5t-13.5 -5.5h-6q-8 0 -13.5 5.5t-5.5 12.5v331z" />
    <glyph glyph-name="zero.tf" 
d="M300 -11q-119 0 -181.5 95t-62.5 266t62.5 265.5t181.5 94.5t181.5 -94.5t62.5 -265.5t-62.5 -266t-181.5 -95zM300 60q166 0 166 290t-166 290t-166 -290t166 -290z" />
    <glyph glyph-name="one.tf" 
d="M116 0q-8 0 -14 5.5t-6 13.5v22q0 9 6 14.5t14 5.5h178v531l-140 -82q-16 -9 -23 2l-15 22q-10 15 3 23l205 137q9 6 18 6h9q7 0 13 -6t6 -13v-620h145q20 0 20 -20v-22q0 -19 -20 -19h-399z" />
    <glyph glyph-name="two.tf" 
d="M186 69v-2h300q8 0 14 -6t6 -14v-27q0 -8 -6 -14t-14 -6h-391q-8 0 -14 6t-6 14v20q0 10 7 17q11 11 246 266q104 111 104 186q0 52 -35.5 91.5t-108.5 39.5q-74 0 -147 -78q-13 -14 -27 0l-21 20q-12 14 -1 27q3 4 8.5 11t25 24.5t40.5 30.5t54.5 24t67.5 11
q105 0 163.5 -57.5t58.5 -141.5q0 -43 -19.5 -85.5t-42.5 -71.5t-67 -76z" />
    <glyph glyph-name="three.tf" 
d="M74 81q-12 16 1 25l28 24q16 11 28 -5q8 -10 24.5 -24t54.5 -30.5t78 -16.5q62 0 106.5 35t44.5 95t-46.5 96.5t-138.5 36.5h-61q-20 0 -20 23v25q0 12 4.5 17t17.5 5h60q79 0 122.5 35.5t43.5 89.5q0 59 -40 94.5t-98 35.5q-79 0 -138 -67q-13 -15 -26 -2l-25 19
q-14 13 0 27q3 4 9 10t25.5 21.5t40 27.5t52 22t62.5 10q95 0 155.5 -51t60.5 -137q0 -55 -33 -99.5t-74 -63.5v-3q48 -19 86 -60.5t38 -103.5q0 -89 -63 -145.5t-169 -56.5q-126 0 -210 91z" />
    <glyph glyph-name="four.tf" 
d="M60 159q-8 0 -13.5 5.5t-5.5 13.5v28q0 9 6 18l338 470q11 16 27 16h16q8 0 14 -6t6 -14v-468h70q20 0 20 -18v-26q0 -8 -5.5 -13.5t-14.5 -5.5h-70v-139q0 -8 -6 -14t-14 -6h-33q-8 0 -13.5 6t-5.5 14v139h-316zM115 225v-3h261v355h-1z" />
    <glyph glyph-name="five.tf" 
d="M94 75q-18 19 -2 35l11 11t13 12q15 13 25 -1q56 -76 153 -76q72 0 117 49.5t45 119.5q0 64 -41.5 106t-120.5 42h-157q-14 0 -23 11t-9 25v272q0 8 6 13.5t14 5.5h311q8 0 14 -5.5t6 -13.5v-30q0 -8 -6 -14t-14 -6h-262v-189h120q115 0 176.5 -57t61.5 -159
q0 -101 -67.5 -168.5t-171.5 -67.5q-119 0 -199 85z" />
    <glyph glyph-name="six.tf" 
d="M74 283q0 78 26 146.5t62.5 113t87 82.5t87.5 57.5t76 34.5q16 6 23 -10l11 -25q9 -21 -18 -30q-22 -7 -57 -26.5t-78.5 -50.5t-80 -77.5t-49.5 -94.5q8 5 21.5 12.5t54.5 20.5t81 13q91 0 156 -62t65 -161q0 -97 -67.5 -166.5t-160.5 -69.5q-120 0 -180 81t-60 212z
M314 58q65 0 110 48t45 115t-45.5 114t-110.5 47q-42 0 -82.5 -17t-60.5 -33l-19 -17q-4 -20 -4 -48q0 -83 42 -146t125 -63z" />
    <glyph glyph-name="seven.tf" 
d="M437 627v4h-345q-7 0 -13 6t-6 14v30q0 7 5.5 13t13.5 6h426q18 0 18 -16q0 -11 -7 -27l-264 -630q-12 -27 -34 -27h-30q-8 0 -13.5 6t-5.5 14v1q0 11 4 19z" />
    <glyph glyph-name="eight.tf" 
d="M68 189q0 60 39.5 106t84.5 65v4q-40 18 -73 61.5t-33 97.5q0 84 60 135.5t153 51.5q94 0 154 -51t60 -136q0 -54 -33 -97.5t-73 -61.5v-4q45 -19 84.5 -65t39.5 -106q0 -87 -61.5 -143t-171.5 -56q-107 0 -168.5 56t-61.5 143zM300 397q68 7 102.5 40t34.5 83
q0 57 -39 92.5t-98 35.5q-60 0 -98.5 -35.5t-38.5 -92.5q0 -51 34 -84t103 -39zM145 182q0 -59 41.5 -95t111.5 -36t113 35.5t43 95.5q0 50 -42 90.5t-112 47.5q-71 -7 -113 -47t-42 -91z" />
    <glyph glyph-name="nine.tf" 
d="M152 21q-9 21 18 29q22 8 57 27t79 49.5t80 76.5t49 94q-8 -5 -21.5 -13t-54.5 -21t-80 -13q-91 0 -156.5 62t-65.5 162q0 97 67.5 166.5t160.5 69.5q120 0 180 -81.5t60 -212.5q0 -78 -26.5 -146.5t-63.5 -114t-87 -83.5t-87.5 -57t-74.5 -33q-15 -6 -23 11zM286 317
q27 0 53.5 7t45 16.5t33.5 19.5t22 17l8 7q4 20 4 48q0 83 -42 146.5t-125 63.5q-65 0 -110 -48.5t-45 -115.5t45.5 -114t110.5 -47z" />
    <glyph glyph-name="zero.denom" horiz-adv-x="356" 
d="M54 147q0 75 32.5 116.5t91.5 41.5t91.5 -41.5t32.5 -116.5q0 -74 -32.5 -115.5t-91.5 -41.5t-91.5 41.5t-32.5 115.5zM178 38q33 0 51 28.5t18 80.5q0 53 -18 81.5t-51 28.5t-51 -28.5t-18 -81.5q0 -52 18 -80.5t51 -28.5z" />
    <glyph glyph-name="one.denom" horiz-adv-x="221" 
d="M98 9v210l-41 -11q-9 -2 -10 4l-5 17q-1 7 3 11l70 56h28q9 0 9 -9v-278q0 -9 -9 -9h-35q-10 0 -10 9z" />
    <glyph glyph-name="two.denom" horiz-adv-x="324" 
d="M53 9v14l127 133q32 35 32 56q0 18 -14.5 32.5t-42.5 14.5q-32 0 -62 -30q-6 -6 -12 0l-20 21q-6 6 0 11q4 5 12 12.5t33.5 20t51.5 12.5q52 0 80 -25t28 -64t-49 -90l-81 -83h121q9 0 9 -10v-25q0 -9 -9 -9h-194q-10 0 -10 9z" />
    <glyph glyph-name="three.denom" horiz-adv-x="327" 
d="M55 31q-6 6 1 11l21 20q7 4 13 -1q39 -26 66 -26q24 0 42 12.5t18 32.5t-18.5 34t-54.5 14h-31q-10 0 -10 9v25q0 9 10 9h31q32 0 48.5 12.5t16.5 31.5q0 20 -16 32.5t-38 12.5q-32 0 -56 -24q-6 -6 -13 0l-20 18q-8 6 0 12q38 40 93 40q45 0 75 -23t30 -60
q0 -24 -14 -43.5t-33 -26.5v-2q21 -8 38.5 -28t17.5 -47q0 -37 -31.5 -61.5t-82.5 -24.5q-65 0 -103 41z" />
    <glyph glyph-name="four.denom" horiz-adv-x="341" 
d="M44 59q-9 0 -9 9v32l169 193q3 3 8 3h24q10 0 10 -9v-185h41q9 0 9 -8v-26q0 -8 -9 -8h-41v-51q0 -9 -10 -9h-32q-10 0 -10 9v50h-150zM90 103h106v118z" />
    <glyph glyph-name="five.denom" horiz-adv-x="332" 
d="M65 28q-8 9 -1 15l21 20q7 5 12 0q3 -3 10.5 -8.5t24.5 -12t33 -6.5q28 0 46 17t18 40q0 24 -17 39t-49 15h-77q-15 0 -15 16v124q0 9 9 9h156q9 0 9 -9v-27q0 -8 -9 -8h-117v-60h48q54 0 84.5 -26.5t30.5 -71.5q0 -43 -34 -73.5t-85 -30.5q-63 0 -98 38z" />
    <glyph glyph-name="six.denom" horiz-adv-x="339" 
d="M59 124q0 42 19 77.5t48 57.5t52 34t42 18q8 3 12 -6l10 -23q5 -10 -9 -13q-29 -9 -67 -34.5t-49 -59.5q28 17 64 17q41 0 71.5 -26t30.5 -72q0 -43 -32.5 -73.5t-77.5 -30.5q-54 0 -84 38.5t-30 95.5zM106 116q1 -29 19 -54t49 -25q25 0 42.5 17t17.5 40t-18 39.5
t-44 16.5q-22 0 -40 -11t-26 -23z" />
    <glyph glyph-name="seven.denom" horiz-adv-x="316" 
d="M76 7v7l132 237h-143q-9 0 -9 9v27q0 9 9 9h201q9 0 9 -9v-11l-143 -267q-5 -9 -13 -9h-34q-9 0 -9 7z" />
    <glyph glyph-name="eight.denom" horiz-adv-x="333" 
d="M56 74q0 26 20 48.5t37 29.5v2q-18 8 -33.5 27t-15.5 43q0 37 29 59.5t73 22.5t73.5 -22.5t29.5 -59.5q0 -23 -15.5 -42t-34.5 -28v-2q21 -9 39.5 -30.5t18.5 -47.5q0 -37 -30.5 -60.5t-81.5 -23.5q-49 0 -79 23.5t-30 60.5zM166 176q50 9 50 45q0 18 -14.5 30t-36.5 12
q-20 0 -34 -12t-14 -30q0 -36 49 -45zM110 77q0 -20 16.5 -32t39.5 -12q24 0 40.5 12t16.5 32q0 17 -15 31.5t-42 19.5q-26 -5 -41 -19.5t-15 -31.5z" />
    <glyph glyph-name="nine.denom" horiz-adv-x="322" 
d="M89 12q-5 10 9 13q29 9 67 34.5t49 59.5q-28 -17 -64 -17q-41 0 -71.5 26t-30.5 72q0 43 32.5 73.5t77.5 30.5q54 0 84 -38.5t30 -95.5q0 -42 -19 -77.5t-48 -57.5t-52 -34t-42 -18q-8 -3 -12 6zM159 144q22 0 40 11t26 23q-1 29 -19 54t-49 25q-25 0 -42.5 -17
t-17.5 -40t18 -39.5t44 -16.5z" />
    <glyph glyph-name="zero.num" horiz-adv-x="326" 
d="M163 394q-59 0 -91.5 41.5t-32.5 115.5q0 75 32.5 116.5t91.5 41.5t91.5 -41.5t32.5 -116.5q0 -74 -32.5 -115.5t-91.5 -41.5zM163 442q33 0 51 28.5t18 80.5q0 53 -18 81.5t-51 28.5t-51 -28.5t-18 -81.5q0 -52 18 -80.5t51 -28.5z" />
    <glyph glyph-name="one.num" horiz-adv-x="184" 
d="M91 404q-10 0 -10 9v210l-41 -11q-9 -2 -10 4l-5 17q-1 7 3 11l70 56h28q9 0 9 -9v-278q0 -9 -9 -9h-35z" />
    <glyph glyph-name="two.num" horiz-adv-x="286" 
d="M43 404q-10 0 -10 9v14l127 133q32 35 32 56q0 18 -14.5 32.5t-42.5 14.5q-32 0 -62 -30q-6 -6 -12 0l-20 21q-6 6 0 11q4 5 12 12.5t33.5 20t51.5 12.5q52 0 80 -25t28 -64t-49 -90l-81 -83h121q9 0 9 -10v-25q0 -9 -9 -9h-194z" />
    <glyph glyph-name="three.num" horiz-adv-x="289" 
d="M137 394q-65 0 -103 41q-6 6 1 11l21 20q8 4 13 -1q39 -26 66 -26q24 0 42 12.5t18 32.5t-18.5 34t-54.5 14h-31q-10 0 -10 9v25q0 9 10 9h31q32 0 48.5 12.5t16.5 31.5q0 20 -16 32.5t-38 12.5q-32 0 -56 -24q-6 -6 -13 0l-20 18q-8 6 0 12q38 40 93 40q45 0 75 -23
t30 -60q0 -24 -14 -43.5t-33 -26.5v-2q21 -8 38.5 -28t17.5 -47q0 -37 -31.5 -61.5t-82.5 -24.5z" />
    <glyph glyph-name="four.num" horiz-adv-x="316" 
d="M194 404q-10 0 -10 9v50h-150q-9 0 -9 9v32l169 193q3 3 8 3h24q10 0 10 -9v-185h41q9 0 9 -8v-26q0 -8 -9 -8h-41v-51q0 -9 -10 -9h-32zM80 507h106v118z" />
    <glyph glyph-name="five.num" horiz-adv-x="290" 
d="M141 394q-63 0 -98 38q-8 9 -1 15l21 20q7 5 12 0q3 -3 10.5 -8.5t24.5 -12t33 -6.5q28 0 46 17t18 40q0 24 -17 39t-49 15h-77q-15 0 -15 16v124q0 9 9 9h156q9 0 9 -9v-27q0 -8 -9 -8h-117v-60h48q54 0 84.5 -26.5t30.5 -71.5q0 -43 -34 -73.5t-85 -30.5z" />
    <glyph glyph-name="six.num" horiz-adv-x="291" 
d="M150 394q-54 0 -84 38.5t-30 95.5q0 42 19 77.5t48 57.5t52 34t42 18q8 3 12 -6l10 -23q5 -10 -9 -13q-29 -9 -67 -34.5t-49 -59.5q28 17 64 17q41 0 71.5 -26t30.5 -72q0 -43 -32.5 -73.5t-77.5 -30.5zM151 441q25 0 42.5 17t17.5 40t-18 39.5t-44 16.5q-22 0 -40 -11
t-26 -23q1 -29 19 -54t49 -25z" />
    <glyph glyph-name="seven.num" horiz-adv-x="268" 
d="M59 404q-9 0 -9 7v7l132 237h-143q-9 0 -9 9v27q0 9 9 9h201q9 0 9 -9v-11l-143 -267q-5 -9 -13 -9h-34z" />
    <glyph glyph-name="eight.num" horiz-adv-x="297" 
d="M147 394q-49 0 -79 23.5t-30 60.5q0 26 20 48.5t37 29.5v2q-18 8 -33.5 27t-15.5 43q0 37 29 59.5t73 22.5t73.5 -22.5t29.5 -59.5q0 -23 -15.5 -42t-34.5 -28v-2q21 -9 39.5 -30.5t18.5 -47.5q0 -37 -30.5 -60.5t-81.5 -23.5zM148 580q50 9 50 45q0 18 -14.5 30
t-36.5 12q-20 0 -34 -12t-14 -30q0 -36 49 -45zM148 437q24 0 40.5 12t16.5 32q0 17 -15 31.5t-42 19.5q-26 -5 -41 -19.5t-15 -31.5q0 -20 16.5 -32t39.5 -12z" />
    <glyph glyph-name="nine.num" horiz-adv-x="292" 
d="M94 387q-8 -3 -12 6l-10 23q-5 10 9 13q29 9 67 34.5t49 59.5q-28 -17 -64 -17q-41 0 -71.5 26t-30.5 72q0 43 32.5 73.5t77.5 30.5q54 0 84 -38.5t30 -95.5q0 -42 -19 -77.5t-48 -57.5t-52 -34t-42 -18zM142 548q22 0 40 11t26 23q-1 29 -19 54t-49 25q-25 0 -42.5 -17
t-17.5 -40t18 -39.5t44 -16.5z" />
    <glyph glyph-name="a.alt" horiz-adv-x="547" 
d="M469 440v-418q0 -9 -7 -15.5t-16 -6.5h-18q-17 0 -20 19l-6 30l-6.5 -6.5t-19 -14.5t-30 -18t-40.5 -14.5t-50 -6.5q-87 0 -147 71t-60 171q0 101 61.5 171t154.5 70q39 0 73 -12t49 -24l15 -11l8 21q6 16 21 16h15q9 0 16 -7t7 -15zM395 132v217q-5 6 -15 15.5t-42 25
t-65 15.5q-66 0 -107.5 -51.5t-41.5 -122.5q0 -70 40 -122.5t101 -52.5q37 0 69.5 19t46.5 38z" />
    <glyph glyph-name="agrave.alt" horiz-adv-x="547" 
d="M355 559l-161 67q-14 5 -6 21l18 36q3 6 12.5 6.5t13.5 -3.5l150 -84q12 -6 6 -19l-10 -22q-5 -10 -23 -2zM469 440v-418q0 -9 -7 -15.5t-16 -6.5h-18q-17 0 -20 19l-6 30l-6.5 -6.5t-19 -14.5t-30 -18t-40.5 -14.5t-50 -6.5q-87 0 -147 71t-60 171q0 101 61.5 171
t154.5 70q39 0 73 -12t49 -24l15 -11l8 21q6 16 21 16h15q9 0 16 -7t7 -15zM395 132v217q-5 6 -15 15.5t-42 25t-65 15.5q-66 0 -107.5 -51.5t-41.5 -122.5q0 -70 40 -122.5t101 -52.5q37 0 69.5 19t46.5 38z" />
    <glyph glyph-name="aacute.alt" horiz-adv-x="547" 
d="M201 561l-10 22q-6 13 6 19l150 84q4 4 13.5 3.5t12.5 -6.5l18 -36q8 -16 -6 -21l-161 -67q-18 -8 -23 2zM469 440v-418q0 -9 -7 -15.5t-16 -6.5h-18q-17 0 -20 19l-6 30l-6.5 -6.5t-19 -14.5t-30 -18t-40.5 -14.5t-50 -6.5q-87 0 -147 71t-60 171q0 101 61.5 171
t154.5 70q39 0 73 -12t49 -24l15 -11l8 21q6 16 21 16h15q9 0 16 -7t7 -15zM395 132v217q-5 6 -15 15.5t-42 25t-65 15.5q-66 0 -107.5 -51.5t-41.5 -122.5q0 -70 40 -122.5t101 -52.5q37 0 69.5 19t46.5 38z" />
    <glyph glyph-name="acircumflex.alt" horiz-adv-x="547" 
d="M159 555l-14 18q-7 10 6 19l120 94q5 4 13 4t13 -4l120 -94q13 -9 6 -19q-2 -2 -5.5 -8t-6 -9t-6.5 -6.5t-8.5 -3t-10.5 4.5l-102 70l-102 -68q-15 -10 -23 2zM469 440v-418q0 -9 -7 -15.5t-16 -6.5h-18q-17 0 -20 19l-6 30l-6.5 -6.5t-19 -14.5t-30 -18t-40.5 -14.5
t-50 -6.5q-87 0 -147 71t-60 171q0 101 61.5 171t154.5 70q39 0 73 -12t49 -24l15 -11l8 21q6 16 21 16h15q9 0 16 -7t7 -15zM395 132v217q-5 6 -15 15.5t-42 25t-65 15.5q-66 0 -107.5 -51.5t-41.5 -122.5q0 -70 40 -122.5t101 -52.5q37 0 69.5 19t46.5 38z" />
    <glyph glyph-name="atilde.alt" horiz-adv-x="547" 
d="M159 575l-18 9q-11 6 -4 22q0 1 6 15t11.5 23t15.5 21t25 18.5t34 6.5q26 0 46.5 -18.5t36 -37t27.5 -18.5q30 0 45 51q5 16 23 8l16 -8q10 -5 4 -26q-28 -81 -89 -81q-24 0 -45.5 19t-37.5 37.5t-27 18.5q-12 0 -22 -9t-13.5 -17.5t-8.5 -23.5q-6 -20 -25 -10zM469 440
v-418q0 -9 -7 -15.5t-16 -6.5h-18q-17 0 -20 19l-6 30l-6.5 -6.5t-19 -14.5t-30 -18t-40.5 -14.5t-50 -6.5q-87 0 -147 71t-60 171q0 101 61.5 171t154.5 70q39 0 73 -12t49 -24l15 -11l8 21q6 16 21 16h15q9 0 16 -7t7 -15zM395 132v217q-5 6 -15 15.5t-42 25t-65 15.5
q-66 0 -107.5 -51.5t-41.5 -122.5q0 -70 40 -122.5t101 -52.5q37 0 69.5 19t46.5 38z" />
    <glyph glyph-name="adieresis.alt" horiz-adv-x="547" 
d="M385 585q-19 0 -33 13.5t-14 33.5t13.5 34t33.5 14t34 -14t14 -34t-14 -33.5t-34 -13.5zM192 585q-20 0 -33.5 13.5t-13.5 33.5t13.5 34t33.5 14t34 -14t14 -34t-14 -33.5t-34 -13.5zM469 440v-418q0 -9 -7 -15.5t-16 -6.5h-18q-17 0 -20 19l-6 30l-6.5 -6.5t-19 -14.5
t-30 -18t-40.5 -14.5t-50 -6.5q-87 0 -147 71t-60 171q0 101 61.5 171t154.5 70q39 0 73 -12t49 -24l15 -11l8 21q6 16 21 16h15q9 0 16 -7t7 -15zM395 132v217q-5 6 -15 15.5t-42 25t-65 15.5q-66 0 -107.5 -51.5t-41.5 -122.5q0 -70 40 -122.5t101 -52.5q37 0 69.5 19
t46.5 38z" />
    <glyph glyph-name="amacron.alt" horiz-adv-x="547" 
d="M153 583q-8 0 -13.5 5t-5.5 13v21q0 19 19 19h256q19 0 19 -19v-21q0 -8 -5.5 -13t-13.5 -5h-256zM469 440v-418q0 -9 -7 -15.5t-16 -6.5h-18q-17 0 -20 19l-6 30l-6.5 -6.5t-19 -14.5t-30 -18t-40.5 -14.5t-50 -6.5q-87 0 -147 71t-60 171q0 101 61.5 171t154.5 70
q39 0 73 -12t49 -24l15 -11l8 21q6 16 21 16h15q9 0 16 -7t7 -15zM395 132v217q-5 6 -15 15.5t-42 25t-65 15.5q-66 0 -107.5 -51.5t-41.5 -122.5q0 -70 40 -122.5t101 -52.5q37 0 69.5 19t46.5 38z" />
    <glyph glyph-name="abreve.alt" horiz-adv-x="547" 
d="M282 531q-52 0 -90 32.5t-45 81.5q-4 20 14 20h21q13 0 19 -17q8 -29 30 -46.5t51 -17.5q27 0 48.5 18.5t30.5 45.5q6 17 19 17h23q18 0 14 -20q-8 -49 -46 -81.5t-89 -32.5zM469 440v-418q0 -9 -7 -15.5t-16 -6.5h-18q-17 0 -20 19l-6 30l-6.5 -6.5t-19 -14.5t-30 -18
t-40.5 -14.5t-50 -6.5q-87 0 -147 71t-60 171q0 101 61.5 171t154.5 70q39 0 73 -12t49 -24l15 -11l8 21q6 16 21 16h15q9 0 16 -7t7 -15zM395 132v217q-5 6 -15 15.5t-42 25t-65 15.5q-66 0 -107.5 -51.5t-41.5 -122.5q0 -70 40 -122.5t101 -52.5q37 0 69.5 19t46.5 38z
" />
    <glyph glyph-name="aring.alt" horiz-adv-x="547" 
d="M469 440v-418q0 -9 -7 -15.5t-16 -6.5h-18q-17 0 -20 19l-6 30l-6.5 -6.5t-19 -14.5t-30 -18t-40.5 -14.5t-50 -6.5q-87 0 -147 71t-60 171q0 101 61.5 171t154.5 70q39 0 73 -12t49 -24l15 -11l8 21q6 16 21 16h15q9 0 16 -7t7 -15zM395 132v217q-5 6 -15 15.5t-42 25
t-65 15.5q-66 0 -107.5 -51.5t-41.5 -122.5q0 -70 40 -122.5t101 -52.5q37 0 69.5 19t46.5 38zM276 513q-46 0 -77.5 31.5t-31.5 77.5t31.5 77.5t77.5 31.5q45 0 77 -31.5t32 -77.5t-32 -77.5t-77 -31.5zM276 561q24 0 41.5 18.5t17.5 42.5t-17.5 41.5t-41.5 17.5
t-42.5 -17.5t-18.5 -41.5t18.5 -42.5t42.5 -18.5z" />
    <glyph glyph-name="aringacute.alt" horiz-adv-x="547" 
d="M278 508q-47 0 -78 26t-31 70t31 70t78 26t78 -26t31 -70t-31 -70t-78 -26zM278 556q25 0 42 12.5t17 35.5t-16.5 34.5t-42.5 11.5t-43.5 -11.5t-17.5 -34.5t17.5 -35.5t43.5 -12.5zM184 711l-10 22q-6 13 6 19l150 65q19 8 26 -4l18 -36q3 -6 1.5 -13t-7.5 -8l-161 -49
q-18 -6 -23 4zM469 440v-418q0 -9 -7 -15.5t-16 -6.5h-18q-17 0 -20 19l-6 30l-6.5 -6.5t-19 -14.5t-30 -18t-40.5 -14.5t-50 -6.5q-87 0 -147 71t-60 171q0 101 61.5 171t154.5 70q39 0 73 -12t49 -24l15 -11l8 21q6 16 21 16h15q9 0 16 -7t7 -15zM395 132v217
q-5 6 -15 15.5t-42 25t-65 15.5q-66 0 -107.5 -51.5t-41.5 -122.5q0 -70 40 -122.5t101 -52.5q37 0 69.5 19t46.5 38z" />
    <glyph glyph-name="aogonek.alt" horiz-adv-x="547" 
d="M469 440v-413q0 -18 -18 -27q-39 -20 -71.5 -55t-32.5 -76q0 -25 13.5 -39t37.5 -14q28 0 63 26q5 5 10 3.5t6 -8.5l1 -34q2 -14 -12 -24q-40 -23 -83 -23q-47 0 -73 28t-26 72q0 82 124 162l-6 31l-6.5 -6.5t-19 -14.5t-30 -18t-40.5 -14.5t-50 -6.5q-87 0 -147 71
t-60 171q0 101 61.5 171t154.5 70q39 0 73 -12t49 -24l15 -11l8 21q6 16 21 16h15q9 0 16 -7t7 -15zM395 132v217q-5 6 -15 15.5t-42 25t-65 15.5q-66 0 -107.5 -51.5t-41.5 -122.5q0 -70 40 -122.5t101 -52.5q37 0 69.5 19t46.5 38z" />
    <glyph glyph-name="parenleft.case" horiz-adv-x="329" 
d="M285 -118q-93 5 -164.5 130t-71.5 333q0 209 72 338.5t164 134.5q17 2 18 -10l2 -27q3 -15 -10 -17q-88 -18 -132 -137.5t-44 -281.5q0 -161 43.5 -276t132.5 -133q13 -2 10 -17l-2 -27q-1 -12 -18 -10z" />
    <glyph glyph-name="parenright.case" horiz-adv-x="329" 
d="M44 -118q-17 -2 -18 10l-2 27q-3 15 10 17q89 18 132.5 133t43.5 276q0 162 -44 281.5t-132 137.5q-13 2 -10 17l2 27q1 12 18 10q92 -5 164 -134.5t72 -338.5q0 -208 -71.5 -333t-164.5 -130z" />
    <glyph glyph-name="hyphen.case" horiz-adv-x="383" 
d="M87 310q-8 0 -13.5 5t-5.5 13v19q0 19 19 19h209q19 0 19 -19v-19q0 -8 -5.5 -13t-13.5 -5h-209z" />
    <glyph glyph-name="bracketleft.case" horiz-adv-x="331" 
d="M148 -55h137q8 0 13.5 -5.5t5.5 -12.5v-26q0 -7 -6 -13t-13 -6h-186q-7 0 -13 6t-6 13v900q0 7 6 13t13 6h186q7 0 13 -6t6 -13v-25q0 -8 -5.5 -13.5t-13.5 -5.5h-137v-812z" />
    <glyph glyph-name="bracketright.case" horiz-adv-x="331" 
d="M46 -55h137v812h-137q-8 0 -13.5 5.5t-5.5 13.5v25q0 7 5.5 13t13.5 6h186q8 0 13.5 -6t5.5 -13v-900q0 -7 -5.5 -13t-13.5 -6h-186q-8 0 -13.5 6t-5.5 13v26q0 7 5.5 12.5t13.5 5.5z" />
    <glyph glyph-name="braceleft.case" horiz-adv-x="403" 
d="M115 94v146q0 30 -23.5 52t-45.5 26q-15 2 -15 17v31q0 13 15 15q22 4 45.5 26t23.5 52v146q0 52 16 93t40.5 65t58 40t65 21.5t65.5 5.5q20 0 20 -17v-19q0 -16 -13 -18q-80 -12 -131.5 -54t-51.5 -117v-118q0 -35 -7.5 -60.5t-22 -40t-24.5 -21t-25 -12.5v-7
q15 -6 25 -12.5t24.5 -21t22 -40t7.5 -60.5v-118q0 -75 51.5 -116.5t131.5 -53.5q13 -2 13 -17v-20q0 -7 -6 -12t-14 -5q-34 0 -65.5 5.5t-65 21t-58 39.5t-40.5 65t-16 93z" />
    <glyph glyph-name="bar.case" horiz-adv-x="202" 
d="M79 -150v961q0 8 5.5 13.5t13.5 5.5h7q8 0 13 -5.5t5 -13.5v-961q0 -7 -5.5 -12.5t-13.5 -5.5h-6q-8 0 -13.5 5.5t-5.5 12.5z" />
    <glyph glyph-name="braceright.case" horiz-adv-x="403" 
d="M219 212q0 35 7.5 60.5t22 40t24.5 21t25 12.5v7q-15 6 -25 12.5t-24.5 21t-22 40t-7.5 60.5v118q0 75 -51.5 117t-131.5 54q-13 2 -13 18v19q0 17 20 17q34 0 65.5 -5.5t65 -21.5t58 -40t40.5 -65t16 -93v-146q0 -30 23.5 -52t45.5 -26q15 -2 15 -15v-31q0 -15 -15 -17
q-22 -4 -45.5 -26t-23.5 -52v-146q0 -52 -16 -93t-40.5 -65t-58 -39.5t-65 -21t-65.5 -5.5q-8 0 -14 5t-6 12v20q0 15 13 17q80 12 131.5 53.5t51.5 116.5v118z" />
    <glyph glyph-name="guilsinglleft.case" horiz-adv-x="270" 
d="M156 159l-104 155q-8 11 0 24l109 148q9 12 18 12h14q13 0 17 -9.5t-2 -21.5l-74 -139l71 -147q6 -12 1.5 -21t-16.5 -9h-19q-9 0 -15 8z" />
    <glyph glyph-name="guilsinglright.case" horiz-adv-x="270" 
d="M79 151q-12 0 -16.5 9t1.5 21l71 147l-74 139q-6 12 -2 21.5t17 9.5h14q10 0 18 -12l109 -148q8 -13 0 -24l-104 -155q-6 -8 -15 -8h-19z" />
    <glyph glyph-name="guillemotleft.case" horiz-adv-x="433" 
d="M215 314q-8 11 0 24l109 148q7 12 18 12h14q13 0 17 -9.5t-2 -21.5l-74 -139l71 -147q6 -12 2 -21t-17 -9h-19q-9 0 -15 8zM156 159l-104 155q-8 11 0 24l109 148q7 12 18 12h14q13 0 17 -9.5t-2 -21.5l-74 -139l71 -147q6 -12 2 -21t-17 -9h-19q-9 0 -15 8z" />
    <glyph glyph-name="guillemotright.case" horiz-adv-x="433" 
d="M227 181l71 147l-74 139q-6 12 -2 21.5t17 9.5h14q11 0 18 -12l109 -148q8 -13 0 -24l-104 -155q-6 -8 -15 -8h-19q-13 0 -17 9t2 21zM79 151q-13 0 -17 9t2 21l71 147l-74 139q-6 12 -2 21.5t17 9.5h14q11 0 18 -12l109 -148q8 -13 0 -24l-104 -155q-6 -8 -15 -8h-19z
" />
    <glyph glyph-name="endash.case" horiz-adv-x="538" 
d="M84 313q-8 0 -13.5 5t-5.5 13v11q0 19 19 19h369q19 0 19 -19v-11q0 -8 -5.5 -13t-13.5 -5h-369z" />
    <glyph glyph-name="emdash.case" horiz-adv-x="758" 
d="M84 313q-8 0 -13.5 5t-5.5 13v11q0 19 19 19h589q19 0 19 -19v-11q0 -8 -5.5 -13t-13.5 -5h-589z" />
    <glyph glyph-name="bullet.case" horiz-adv-x="368" 
d="M182 209q-43 0 -74 31t-31 74q0 45 31 77t74 32q45 0 77 -32t32 -77q0 -43 -32 -74t-77 -31z" />
    <glyph glyph-name="periodcentered.case" horiz-adv-x="231" 
d="M115 296q-22 0 -38 16t-16 38q0 24 15.5 40t38.5 16t39 -16t16 -40q0 -22 -16 -38t-39 -16z" />
    <glyph glyph-name="gcircumflex.alt" horiz-adv-x="532" 
d="M41 71q0 39 18.5 67t36.5 36l19 9q-36 37 -36 104q0 80 53 132.5t141 52.5h195q22 0 22 -22v-15q0 -17 -12 -18l-62 -13q2 -1 5.5 -3t12.5 -11.5t15.5 -21.5t12 -33.5t5.5 -47.5q0 -80 -52.5 -130t-141.5 -50q-33 0 -61 7t-40 14l-11 8q-6 -1 -14.5 -3.5t-22.5 -16.5
t-14 -34q0 -48 63 -48h169q81 0 126 -28t45 -99q0 -65 -66.5 -110.5t-169.5 -45.5q-109 0 -163.5 37t-54.5 92q0 66 63 89v3q-31 8 -56 32t-25 67zM275 173q53 0 85.5 31t32.5 87q0 55 -32.5 84.5t-85.5 29.5q-55 0 -90 -30t-35 -84q0 -56 35 -87t90 -31zM134 -108
q0 -33 40 -51t102 -18q63 0 110 21t47 61q0 59 -91 59h-128q-3 0 -8.5 -1t-19.5 -5t-24.5 -11t-19 -21.5t-8.5 -33.5zM165 555l-14 18q-7 10 6 19l120 94q5 4 13 4t13 -4l120 -94q13 -9 6 -19q-2 -2 -5.5 -8t-6 -9t-6.5 -6.5t-8.5 -3t-10.5 4.5l-102 70l-102 -68
q-15 -10 -23 2z" />
    <glyph glyph-name="gbreve.alt" horiz-adv-x="532" 
d="M41 71q0 39 18.5 67t36.5 36l19 9q-36 37 -36 104q0 80 53 132.5t141 52.5h195q22 0 22 -22v-15q0 -17 -12 -18l-62 -13q2 -1 5.5 -3t12.5 -11.5t15.5 -21.5t12 -33.5t5.5 -47.5q0 -80 -52.5 -130t-141.5 -50q-33 0 -61 7t-40 14l-11 8q-6 -1 -14.5 -3.5t-22.5 -16.5
t-14 -34q0 -48 63 -48h169q81 0 126 -28t45 -99q0 -65 -66.5 -110.5t-169.5 -45.5q-109 0 -163.5 37t-54.5 92q0 66 63 89v3q-31 8 -56 32t-25 67zM275 173q53 0 85.5 31t32.5 87q0 55 -32.5 84.5t-85.5 29.5q-55 0 -90 -30t-35 -84q0 -56 35 -87t90 -31zM134 -108
q0 -33 40 -51t102 -18q63 0 110 21t47 61q0 59 -91 59h-128q-3 0 -8.5 -1t-19.5 -5t-24.5 -11t-19 -21.5t-8.5 -33.5zM291 531q-52 0 -90 32.5t-45 81.5q-4 20 14 20h21q13 0 19 -17q8 -29 30 -46.5t51 -17.5q27 0 48.5 18.5t30.5 45.5q6 17 19 17h23q18 0 14 -20
q-8 -49 -46 -81.5t-89 -32.5z" />
    <glyph glyph-name="gdotaccent.alt" horiz-adv-x="532" 
d="M41 71q0 39 18.5 67t36.5 36l19 9q-36 37 -36 104q0 80 53 132.5t141 52.5h195q22 0 22 -22v-15q0 -17 -12 -18l-62 -13q2 -1 5.5 -3t12.5 -11.5t15.5 -21.5t12 -33.5t5.5 -47.5q0 -80 -52.5 -130t-141.5 -50q-33 0 -61 7t-40 14l-11 8q-6 -1 -14.5 -3.5t-22.5 -16.5
t-14 -34q0 -48 63 -48h169q81 0 126 -28t45 -99q0 -65 -66.5 -110.5t-169.5 -45.5q-109 0 -163.5 37t-54.5 92q0 66 63 89v3q-31 8 -56 32t-25 67zM275 173q53 0 85.5 31t32.5 87q0 55 -32.5 84.5t-85.5 29.5q-55 0 -90 -30t-35 -84q0 -56 35 -87t90 -31zM134 -108
q0 -33 40 -51t102 -18q63 0 110 21t47 61q0 59 -91 59h-128q-3 0 -8.5 -1t-19.5 -5t-24.5 -11t-19 -21.5t-8.5 -33.5zM286 568q-22 0 -38 16t-16 38q0 24 15.5 40t38.5 16t39 -16t16 -40q0 -22 -16 -38t-39 -16z" />
    </font>
</defs>
</svg>
