<?xml version="1.0" standalone="no"?>
<!DOCTYPE svg PUBLIC "-//W3C//DTD SVG 1.1//EN" "http://www.w3.org/Graphics/SVG/1.1/DTD/svg11.dtd" >
<svg xmlns="http://www.w3.org/2000/svg" xmlns:xlink="http://www.w3.org/1999/xlink" version="1.1">
<metadata>
Created by FontForge 20190801 at Thu Jan 17 20:33:13 2013
 By www-data
Copyright (c) 2012 by Hannes von Doehren. All rights reserved.
</metadata>
<defs>
<font id="BrandonTextBold" horiz-adv-x="600" >
  <font-face 
    font-family="BrandonTextBold"
    font-weight="450"
    font-stretch="normal"
    units-per-em="1000"
    panose-1="2 11 8 3 2 2 3 6 2 3"
    ascent="700"
    descent="-300"
    x-height="462"
    cap-height="700"
    bbox="-155.381 -306.05 1199 1042.84"
    underline-thickness="50"
    underline-position="-100"
    unicode-range="U+000D-FB02"
  />
<missing-glyph horiz-adv-x="599" 
d="M50 30v640q0 30 30 30h439q30 0 30 -30v-640q0 -30 -30 -30h-439q-30 0 -30 30zM262 314q0 -12 14 -12h36q15 0 15 13v26q0 16 16.5 32t36 28.5t36 36.5t16.5 53q0 48 -35.5 79.5t-89.5 31.5q-24 0 -46.5 -6.5t-37 -15t-25.5 -17.5t-16 -15l-5 -7q-8 -12 0 -18l22 -22
q8 -6 17 0q1 1 7.5 7t9.5 9t11.5 8.5t15.5 8.5t18 5.5t22 2.5q29 0 45 -15t16 -37q0 -21 -15.5 -39t-34 -30t-34 -32.5t-15.5 -45.5v-29zM245 156q0 -20 14.5 -34t33.5 -14q20 0 34.5 14t14.5 34t-14.5 34t-34.5 14q-19 0 -33.5 -14t-14.5 -34z" />
    <glyph glyph-name="fi" unicode="fi" horiz-adv-x="605" 
d="M102 22v328h-48q-9 0 -15.5 6.5t-6.5 15.5v68q0 22 22 22h48v48q0 92 51.5 146t146.5 54q88 0 177 -49q17 -10 7 -30l-28 -61q-11 -22 -35 -9q-64 35 -120 35q-43 0 -58.5 -20t-15.5 -62v-52h294q9 0 15.5 -6t6.5 -16v-418q0 -9 -6.5 -15.5t-15.5 -6.5h-81q-22 0 -22 22
v328h-191v-328q0 -10 -5 -15t-10.5 -6t-17.5 -1h-70q-9 0 -15.5 6.5t-6.5 15.5z" />
    <glyph glyph-name="fl" unicode="fl" horiz-adv-x="614" 
d="M103 22v328h-50q-10 0 -16 6t-6 14v69q0 9 6.5 16t15.5 7h50v40q0 96 56.5 152t149.5 56q47 0 87 -17.5t64 -44.5l13 31q8 21 27 21h27q9 0 15.5 -7t6.5 -15v-656q0 -9 -6.5 -15.5t-15.5 -6.5h-81q-8 0 -15 6.5t-7 15.5v505q-11 23 -40.5 46t-67.5 23q-88 0 -88 -94v-40
h86q9 0 15.5 -6t6.5 -16v-69q0 -8 -6.5 -14.5t-15.5 -6.5h-86v-328q0 -9 -6.5 -15.5t-15.5 -6.5h-82q-9 0 -15 6.5t-6 15.5z" />
    <glyph glyph-name="f_f" unicode="ff" horiz-adv-x="707" 
d="M103 22v328h-50q-9 0 -15.5 6.5t-6.5 15.5v68q0 22 22 22h50v19q0 92 59.5 155.5t151.5 63.5q81 0 147 -47q47 57 141 57q42 0 80.5 -14t56.5 -31q13 -11 4 -26l-34 -62q-4 -7 -12 -8.5t-16 2.5q-37 25 -73 25q-40 0 -53.5 -19t-13.5 -63v-52h125q22 0 22 -22v-68
q0 -9 -6.5 -15.5t-15.5 -6.5h-125v-328q0 -9 -7 -15.5t-15 -6.5h-81q-9 0 -15.5 6.5t-6.5 15.5v328h-188v-328q0 -9 -6.5 -15.5t-15.5 -6.5h-81q-9 0 -15.5 6.5t-6.5 15.5zM228 462h188v38q0 37 4 53q-35 33 -98 33q-94 0 -94 -105v-19z" />
    <glyph glyph-name="f_f_i" unicode="ffi" horiz-adv-x="920" 
d="M541 462h295q9 0 15.5 -6t6.5 -16v-418q0 -9 -6.5 -15.5t-15.5 -6.5h-81q-22 0 -22 22v328h-191v-325q0 -15 -6.5 -20t-21.5 -5h-76q-9 0 -15.5 6.5t-6.5 15.5v328h-188v-328q0 -9 -6.5 -15.5t-15.5 -6.5h-81q-9 0 -15.5 6.5t-6.5 15.5v328h-50q-9 0 -15.5 6.5t-6.5 15.5
v68q0 22 22 22h50v19q0 92 60 155.5t151 63.5q83 0 147 -46q52 56 145 56q51 0 103.5 -16t82.5 -33q17 -10 7 -30l-26 -62q-11 -22 -35 -9q-66 36 -122 36q-43 0 -59 -20t-16 -62v-52zM228 462h188v38q0 38 4 54q-34 32 -98 32q-94 0 -94 -105v-19z" />
    <glyph glyph-name="f_f_l" unicode="ffl" horiz-adv-x="927" 
d="M541 462h86q9 0 15.5 -6t6.5 -16v-69q0 -8 -6.5 -14.5t-15.5 -6.5h-86v-328q0 -9 -6.5 -15.5t-15.5 -6.5h-81q-9 0 -15.5 6.5t-6.5 15.5v328h-188v-328q0 -9 -6.5 -15.5t-15.5 -6.5h-81q-9 0 -15.5 6.5t-6.5 15.5v328h-50q-9 0 -15.5 6.5t-6.5 15.5v68q0 22 22 22h50v19
q0 92 59.5 155.5t151.5 63.5q81 0 147 -48q25 27 66 42.5t80 15.5q110 0 166 -62l13 31q8 21 27 21h27q9 0 15.5 -7t6.5 -15v-656q0 -9 -6.5 -15.5t-15.5 -6.5h-81q-8 0 -15 6.5t-7 15.5v505q-11 23 -40.5 46t-67.5 23q-88 0 -88 -94v-40zM228 462h188v38q0 38 4 54
q-34 32 -98 32q-94 0 -94 -105v-19z" />
    <glyph glyph-name="f_f_h" unicode="ffh" horiz-adv-x="1226" 
d="M228 462h188v38q0 38 4 54q-34 32 -98 32q-94 0 -94 -105v-19zM838 0h-79q-8 0 -15 6.5t-7 15.5v505q-11 23 -40.5 46t-67.5 23q-88 0 -88 -94v-40h86q9 0 15.5 -6t6.5 -16v-69q0 -8 -6.5 -14.5t-15.5 -6.5h-86v-328q0 -9 -6.5 -15.5t-15.5 -6.5h-81q-9 0 -15.5 6.5
t-6.5 15.5v328h-188v-328q0 -9 -6.5 -15.5t-15.5 -6.5h-81q-9 0 -15.5 6.5t-6.5 15.5v328h-50q-9 0 -15.5 6.5t-6.5 15.5v68q0 22 22 22h50v19q0 92 59.5 155.5t151.5 63.5q81 0 147 -48q25 27 66 42.5t80 15.5q110 0 166 -62l13 31q8 21 27 21h27q9 0 15.5 -6.5t6.5 -15.5
v-245q45 39 118 39q187 0 187 -218v-232q0 -9 -7 -15.5t-15 -6.5h-81q-9 0 -15.5 6.5t-6.5 15.5v233q0 49 -21.5 76t-62.5 27q-75 0 -96 -81v-255q0 -22 -24 -22z" />
    <glyph glyph-name="f_k" unicode="fk" horiz-adv-x="877" 
d="M527 0h-81q-8 0 -15 6.5t-7 15.5v505q-11 23 -40.5 46t-67.5 23q-88 0 -88 -94v-40h86q9 0 15.5 -6t6.5 -16v-69q0 -8 -6.5 -14.5t-15.5 -6.5h-86v-328q0 -9 -6.5 -15.5t-15.5 -6.5h-82q-9 0 -15 6.5t-6 15.5v328h-50q-10 0 -16 6t-6 14v69q0 9 6.5 16t15.5 7h50v40
q0 96 56.5 152t149.5 56q47 0 87 -17.5t64 -44.5l13 31q8 21 27 21h27q9 0 15.5 -7t6.5 -15v-391l159 161q16 14 29 14h94q14 0 19 -12t-4 -22l-183 -180l192 -215q9 -10 4.5 -21.5t-18.5 -11.5h-98q-15 0 -20 9l-174 208v-195q0 -9 -6.5 -15.5t-15.5 -6.5z" />
    <glyph glyph-name="f_j" unicode="fj" horiz-adv-x="606" 
d="M418 -36v386h-191v-328q0 -10 -5 -15t-10.5 -6t-17.5 -1h-70q-9 0 -15.5 6.5t-6.5 15.5v328h-48q-9 0 -15.5 6.5t-6.5 15.5v68q0 22 22 22h48v48q0 92 51.5 146t146.5 54q88 0 177 -49q17 -10 7 -30l-28 -61q-11 -22 -35 -9q-64 35 -120 35q-43 0 -58.5 -20t-15.5 -62
v-52h294q9 0 15.5 -6t6.5 -16v-459q0 -95 -37 -146.5t-103 -79.5q-34 -15 -44 10l-24 56q-11 28 12 40q22 12 34.5 21.5t24.5 31t12 50.5z" />
    <glyph glyph-name="f_f_j" unicode="ffj" horiz-adv-x="921" 
d="M228 462h188v38q0 38 4 54q-34 32 -98 32q-94 0 -94 -105v-19zM733 -36v386h-191v-325q0 -15 -6.5 -20t-21.5 -5h-76q-9 0 -15.5 6.5t-6.5 15.5v328h-188v-328q0 -9 -6.5 -15.5t-15.5 -6.5h-81q-9 0 -15.5 6.5t-6.5 15.5v328h-50q-9 0 -15.5 6.5t-6.5 15.5v68q0 22 22 22
h50v19q0 92 60 155.5t151 63.5q83 0 147 -46q52 56 145 56q51 0 103.5 -16t82.5 -33q17 -10 7 -30l-26 -62q-11 -22 -35 -9q-66 36 -122 36q-43 0 -59 -20t-16 -62v-52h295q9 0 15.5 -6t6.5 -16v-459q0 -95 -37 -146.5t-103 -79.5q-34 -15 -44 10l-24 56q-11 28 12 40
q22 12 34.5 21.5t24.5 31t12 50.5z" />
    <glyph glyph-name="f_b" unicode="fb" horiz-adv-x="923" 
d="M500 700h27q9 0 15.5 -6.5t6.5 -15.5v-226q47 20 113 20q101 0 162.5 -69t61.5 -172q0 -101 -62 -171.5t-155 -70.5q-28 0 -54.5 7t-43.5 17t-30.5 20.5t-19.5 17.5l-6 7l-11 -36q-8 -22 -23 -22h-35q-8 0 -15 6.5t-7 15.5v505q-11 23 -40.5 46t-67.5 23q-88 0 -88 -94
v-40h86q9 0 15.5 -6t6.5 -16v-69q0 -8 -6.5 -14.5t-15.5 -6.5h-86v-328q0 -9 -6.5 -15.5t-15.5 -6.5h-82q-9 0 -15 6.5t-6 15.5v328h-50q-10 0 -16 6t-6 14v69q0 9 6.5 16t15.5 7h50v40q0 96 56.5 152t149.5 56q47 0 87 -17.5t64 -44.5l13 31q8 21 27 21zM549 167
q9 -24 35 -44t67 -20q51 0 80 38t29 90t-30.5 89.5t-84.5 37.5q-26 0 -50 -6.5t-35 -13.5l-11 -6v-165z" />
    <glyph glyph-name="f_f_k" unicode="ffk" horiz-adv-x="1190" 
d="M813 700h27q9 0 15.5 -7t6.5 -15v-391l159 161q12 14 29 14h94q14 0 19 -12.5t-4 -21.5l-183 -180l192 -215q9 -10 4.5 -21.5t-18.5 -11.5h-98q-11 0 -20 9l-174 208v-195q0 -9 -6.5 -15.5t-15.5 -6.5h-81q-8 0 -15 6.5t-7 15.5v505q-11 23 -40.5 46t-67.5 23
q-88 0 -88 -94v-40h86q9 0 15.5 -6t6.5 -16v-69q0 -8 -6.5 -14.5t-15.5 -6.5h-86v-328q0 -9 -6.5 -15.5t-15.5 -6.5h-81q-9 0 -15.5 6.5t-6.5 15.5v328h-188v-328q0 -9 -6.5 -15.5t-15.5 -6.5h-81q-9 0 -15.5 6.5t-6.5 15.5v328h-50q-9 0 -15.5 6.5t-6.5 15.5v68q0 22 22 22
h50v19q0 92 59.5 155.5t151.5 63.5q81 0 147 -48q25 27 66 42.5t80 15.5q110 0 166 -62l13 31q8 21 27 21zM228 462h188v38q0 38 4 54q-34 32 -98 32q-94 0 -94 -105v-19z" />
    <glyph glyph-name="f_h" unicode="fh" horiz-adv-x="913" 
d="M525 0h-79q-8 0 -15 6.5t-7 15.5v505q-11 23 -40.5 46t-67.5 23q-88 0 -88 -94v-40h86q9 0 15.5 -6t6.5 -16v-69q0 -8 -6.5 -14.5t-15.5 -6.5h-86v-328q0 -9 -6.5 -15.5t-15.5 -6.5h-82q-9 0 -15 6.5t-6 15.5v328h-50q-10 0 -16 6t-6 14v69q0 9 6.5 16t15.5 7h50v40
q0 96 56.5 152t149.5 56q47 0 87 -17.5t64 -44.5l13 31q8 21 27 21h27q9 0 15.5 -7t6.5 -15v-245q45 39 118 39q187 0 187 -218v-232q0 -9 -7 -15.5t-15 -6.5h-81q-9 0 -15.5 6.5t-6.5 15.5v233q0 49 -21.5 76t-62.5 27q-75 0 -96 -81v-255q0 -22 -24 -22z" />
    <glyph glyph-name="f_f_b" unicode="ffb" horiz-adv-x="1236" 
d="M228 462h188v38q0 38 4 54q-34 32 -98 32q-94 0 -94 -105v-19zM794 0h-35q-8 0 -15 6.5t-7 15.5v505q-11 23 -40.5 46t-67.5 23q-88 0 -88 -94v-40h86q9 0 15.5 -6t6.5 -16v-69q0 -8 -6.5 -14.5t-15.5 -6.5h-86v-328q0 -9 -6.5 -15.5t-15.5 -6.5h-81q-9 0 -15.5 6.5
t-6.5 15.5v328h-188v-328q0 -9 -6.5 -15.5t-15.5 -6.5h-81q-9 0 -15.5 6.5t-6.5 15.5v328h-50q-9 0 -15.5 6.5t-6.5 15.5v68q0 22 22 22h50v19q0 92 59.5 155.5t151.5 63.5q81 0 147 -48q25 27 66 42.5t80 15.5q110 0 166 -62l13 31q8 21 27 21h27q9 0 15.5 -7t6.5 -15v-226
q47 20 113 20q101 0 162.5 -69t61.5 -172q0 -101 -62 -171.5t-155 -70.5q-28 0 -54.5 7t-43.5 17t-30.5 20.5t-19.5 17.5l-6 7l-11 -36q-8 -22 -23 -22zM862 167q9 -24 35 -44t67 -20q51 0 80 38t29 90t-30.5 89.5t-84.5 37.5q-26 0 -50 -6.5t-35 -13.5l-11 -6v-165z" />
    <glyph glyph-name=".notdef" horiz-adv-x="599" 
d="M50 30v640q0 30 30 30h439q30 0 30 -30v-640q0 -30 -30 -30h-439q-30 0 -30 30zM262 314q0 -12 14 -12h36q15 0 15 13v26q0 16 16.5 32t36 28.5t36 36.5t16.5 53q0 48 -35.5 79.5t-89.5 31.5q-24 0 -46.5 -6.5t-37 -15t-25.5 -17.5t-16 -15l-5 -7q-8 -12 0 -18l22 -22
q8 -6 17 0q1 1 7.5 7t9.5 9t11.5 8.5t15.5 8.5t18 5.5t22 2.5q29 0 45 -15t16 -37q0 -21 -15.5 -39t-34 -30t-34 -32.5t-15.5 -45.5v-29zM245 156q0 -20 14.5 -34t33.5 -14q20 0 34.5 14t14.5 34t-14.5 34t-34.5 14q-19 0 -33.5 -14t-14.5 -34z" />
    <glyph glyph-name=".null" horiz-adv-x="0" 
 />
    <glyph glyph-name=".null" horiz-adv-x="0" 
 />
    <glyph glyph-name="nonmarkingreturn" horiz-adv-x="333" 
 />
    <glyph glyph-name="CR" unicode="&#xd;" horiz-adv-x="0" 
 />
    <glyph glyph-name="space" unicode=" " horiz-adv-x="240" 
 />
    <glyph glyph-name="exclam" unicode="!" horiz-adv-x="266" 
d="M117 272q-7 0 -12.5 5t-6.5 11l-39 279v114q0 7 5.5 13t13.5 6h110q8 0 13.5 -6t5.5 -13v-112l-39 -281q-1 -6 -6.5 -11t-12.5 -5h-32zM51 72q0 34 24 58.5t57 24.5q34 0 58.5 -24.5t24.5 -58.5t-24.5 -58t-58.5 -24q-33 0 -57 24t-24 58z" />
    <glyph glyph-name="quotedbl" unicode="&#x22;" horiz-adv-x="372" 
d="M241 501q-7 0 -13 5.5t-6 13.5v161q0 7 6 13t13 6h80q10 0 15.5 -7.5t2.5 -17.5l-41 -159q-4 -15 -18 -15h-39zM70 501q-8 0 -13.5 5.5t-5.5 13.5v161q0 7 5.5 13t13.5 6h80q10 0 15.5 -7.5t2.5 -17.5l-41 -159q-4 -15 -18 -15h-39z" />
    <glyph glyph-name="numbersign" unicode="#" horiz-adv-x="573" 
d="M117 22l23 166h-71q-8 0 -13.5 5.5t-5.5 13.5v14q0 19 19 19h78l23 164h-72q-8 0 -13.5 6t-5.5 13v14q0 7 5.5 13t13.5 6h79l32 228q1 6 6 11t12 5h14q8 0 13.5 -6.5t4.5 -15.5l-30 -222h158l33 228q1 6 6.5 11t12.5 5h12q9 0 14.5 -6.5t4.5 -15.5l-32 -222h64
q8 0 13.5 -5.5t5.5 -13.5v-14q0 -8 -5.5 -13.5t-13.5 -5.5h-71l-23 -164h65q8 0 13.5 -5.5t5.5 -13.5v-14q0 -7 -6 -13t-13 -6h-73l-22 -172q-2 -16 -19 -16h-13q-9 0 -14.5 6.5t-4.5 15.5l22 166h-159l-23 -172q-2 -16 -19 -16h-12q-10 0 -15.5 6.5t-3.5 15.5zM198 240h159
l22 164h-158z" />
    <glyph glyph-name="dollar" unicode="$" 
d="M272 -9q-118 9 -190 77q-14 14 -5 30l39 60q13 21 40 -2q53 -44 116 -54v195q-33 13 -57 24.5t-52.5 31.5t-46.5 41.5t-30 54t-12 70.5q0 76 50 129t148 61v32q0 8 5.5 13.5t13.5 5.5h13q8 0 13.5 -5.5t5.5 -13.5v-33q97 -8 176 -65q8 -5 9.5 -15t-3.5 -18l-40 -58
q-13 -18 -28 -8q-64 43 -114 54v-183q41 -17 70.5 -33.5t64.5 -43.5t54 -65.5t19 -84.5q0 -84 -54.5 -137.5t-153.5 -59.5v-104q0 -18 -20 -18q-31 0 -31 18v104zM272 435v163q-37 -4 -56.5 -24t-19.5 -50q0 -29 17.5 -48t58.5 -41zM323 100q77 9 77 74q0 62 -77 102v-176z
" />
    <glyph glyph-name="percent" unicode="%" horiz-adv-x="693" 
d="M182 440q-56 0 -95.5 39.5t-39.5 95.5t39.5 95.5t95.5 39.5t95.5 -39.5t39.5 -95.5t-39.5 -95.5t-95.5 -39.5zM129 27l343 663q5 10 17 10h50q11 0 16.5 -8.5t0.5 -18.5l-345 -663q-5 -10 -17 -10h-48q-11 0 -16.5 8.5t-0.5 18.5zM182 526q20 0 34 14.5t14 34.5
q0 19 -14 33.5t-34 14.5t-34.5 -14t-14.5 -34t14.5 -34.5t34.5 -14.5zM376 125q0 56 39.5 95.5t95.5 39.5t96 -39.5t40 -95.5t-40 -95.5t-96 -39.5t-95.5 39.5t-39.5 95.5zM462 125q0 -20 14.5 -34.5t34.5 -14.5t34.5 14.5t14.5 34.5q0 19 -14.5 33.5t-34.5 14.5t-34.5 -14
t-14.5 -34z" />
    <glyph glyph-name="ampersand" unicode="&#x26;" horiz-adv-x="678" 
d="M52 178q0 21 4 41t11.5 36.5t16 30.5t20.5 26.5t21 21.5t21.5 17.5t19 13t15.5 9.5l9 5v2l-21 23q-68 71 -68 144q0 63 50.5 112.5t138.5 49.5q83 0 136 -47t53 -116q0 -29 -10 -56t-27.5 -48t-32 -35t-32.5 -28t-20 -15l115 -116q25 49 36 111q3 17 10 23.5t23 1.5
l55 -16q24 -6 17 -39q-19 -79 -62 -159l89 -84q8 -8 11 -12.5t0.5 -13.5t-13.5 -20l-41 -42q-21 -20 -44 3l-72 73q-14 -16 -35.5 -32.5t-72.5 -34.5t-110 -18q-93 0 -152 55t-59 133zM286 436l8 4q7 5 11.5 7.5t13.5 9t15 12t13.5 14t12.5 17t8 19.5t3 22q0 30 -23.5 52.5
t-61.5 22.5q-34 0 -54 -19.5t-20 -48.5q0 -24 12.5 -43.5t39.5 -46.5zM171 191q0 -41 30 -67.5t75 -26.5q77 0 129 59l-149 158l-8 -4q-8 -5 -12.5 -8t-13.5 -10t-15 -13.5t-13.5 -16t-12 -20t-7.5 -24t-3 -27.5z" />
    <glyph glyph-name="quotesingle" unicode="'" horiz-adv-x="201" 
d="M70 501q-8 0 -13.5 5.5t-5.5 13.5v161q0 7 5.5 13t13.5 6h80q10 0 15.5 -7.5t2.5 -17.5l-41 -159q-4 -15 -18 -15h-39z" />
    <glyph glyph-name="parenleft" unicode="(" horiz-adv-x="339" 
d="M289 -79q-48 3 -88 21.5t-78 59.5t-60 121t-22 192t22 192t60 121.5t78 59.5t88 21q8 1 13.5 -3.5t5.5 -11.5l3 -66q1 -6 -3 -11.5t-9 -6.5q-71 -19 -103 -92.5t-32 -202.5t31.5 -202t103.5 -92q14 -3 12 -19l-3 -65q-2 -16 -19 -16z" />
    <glyph glyph-name="parenright" unicode=")" horiz-adv-x="339" 
d="M28 2q-2 16 12 19q72 19 103.5 92t31.5 202t-32 202.5t-103 92.5q-5 1 -9 6.5t-3 11.5l3 66q0 7 5.5 11.5t13.5 3.5q48 -3 88 -21t78 -59.5t60 -121.5t22 -192t-22 -192t-60 -121t-78 -59.5t-88 -21.5q-17 0 -19 16z" />
    <glyph glyph-name="asterisk" unicode="*" horiz-adv-x="432" 
d="M200 370q-8 0 -13.5 6t-5.5 13l2 87l-72 -50q-6 -4 -14 -2.5t-12 7.5l-17 27q-11 16 5 27l83 50l-83 50q-15 10 -6 27q3 5 9 13.5t10 13.5t11.5 6.5t13.5 -2.5l72 -50l-2 88q0 7 5.5 13t13.5 6h32q8 0 13.5 -6t5.5 -13l-2 -88l72 51q16 10 26 -5l17 -27q11 -17 -5 -27
l-83 -50l83 -51q16 -10 6 -26l-19 -27q-9 -16 -25 -6l-72 50l2 -86q0 -7 -5.5 -13t-13.5 -6h-32z" />
    <glyph glyph-name="plus" unicode="+" 
d="M253 150v149h-150q-7 0 -13 5.5t-6 13.5v56q0 8 6 13.5t13 5.5h150v151q0 7 5.5 12.5t13.5 5.5h56q8 0 13.5 -5.5t5.5 -12.5v-151h151q7 0 12.5 -5.5t5.5 -13.5v-56q0 -8 -5.5 -13.5t-12.5 -5.5h-151v-149q0 -7 -5.5 -12.5t-13.5 -5.5h-56q-8 0 -13.5 5.5t-5.5 12.5z" />
    <glyph glyph-name="comma" unicode="," horiz-adv-x="267" 
d="M40 90q0 35 24.5 58t61.5 23q43 0 71.5 -35t28.5 -97q0 -113 -80 -219q-11 -11 -23 -1l-31 22q-11 11 1 25q56 73 56 136q0 12 -3 21q-16 -11 -37 -11q-33 0 -51 22t-18 56z" />
    <glyph glyph-name="hyphen" unicode="-" horiz-adv-x="371" 
d="M74 192q-8 0 -13.5 5t-5.5 13v67q0 19 19 19h223q19 0 19 -19v-67q0 -8 -5.5 -13t-13.5 -5h-223z" />
    <glyph glyph-name="period" unicode="." horiz-adv-x="269" 
d="M39 84q0 39 28 67.5t67 28.5t67.5 -28.5t28.5 -67.5q0 -38 -28.5 -66.5t-67.5 -28.5t-67 28.5t-28 66.5z" />
    <glyph glyph-name="slash" unicode="/" horiz-adv-x="414" 
d="M55 25l196 662q4 13 18 13h72q11 0 16 -7.5t2 -17.5l-195 -662q-4 -13 -18 -13h-73q-10 0 -15.5 7.5t-2.5 17.5z" />
    <glyph glyph-name="zero" unicode="0" horiz-adv-x="641" 
d="M320 -10q-123 0 -191 95.5t-68 264.5q0 170 68 265t191 95t191.5 -95t68.5 -265q0 -169 -68.5 -264.5t-191.5 -95.5zM320 108q60 0 95 64t35 178t-35 177.5t-95 63.5t-94.5 -63.5t-34.5 -177.5t34.5 -178t94.5 -64z" />
    <glyph glyph-name="one" unicode="1" horiz-adv-x="373" 
d="M151 20v493l-90 -20q-8 -2 -14 2.5t-7 11.5l-6 50q-1 13 10 22l128 108q14 13 35 13h52q8 0 13.5 -5.5t5.5 -13.5v-661q0 -8 -5.5 -14t-13.5 -6h-88q-9 0 -14.5 6t-5.5 14z" />
    <glyph glyph-name="two" unicode="2" horiz-adv-x="553" 
d="M247 112v-2h220q8 0 14 -5.5t6 -13.5v-71q0 -8 -6 -14t-14 -6h-406q-8 0 -13.5 6t-5.5 14v10q0 12 8 23q94 115 259 333q52 63 52 114q0 38 -28.5 65.5t-80.5 27.5q-60 0 -115 -60q-15 -15 -28 0l-50 49q-13 13 -1 27q3 4 9.5 11t27 24.5t42.5 30.5t56 24t68 11
q107 0 168.5 -59t61.5 -146q0 -32 -10.5 -62t-21.5 -48t-37 -56q-21 -30 -175 -227z" />
    <glyph glyph-name="three" unicode="3" horiz-adv-x="558" 
d="M48 81q-10 13 1 26l53 51q14 12 26 0q56 -56 127 -56q47 0 78 26.5t31 66.5q0 50 -36.5 78t-105.5 28h-58q-19 0 -19 20v65q0 21 19 21h58q62 0 95 26t33 68q0 41 -30 67.5t-70 26.5q-64 0 -104 -49q-13 -15 -28 -1l-50 47q-14 11 0 27q72 91 193 91q93 0 156.5 -52
t63.5 -137q0 -60 -31.5 -99.5t-74.5 -59.5v-4q49 -19 86.5 -62t37.5 -105q0 -88 -65.5 -144.5t-171.5 -56.5q-134 0 -214 91z" />
    <glyph glyph-name="four" unicode="4" horiz-adv-x="638" 
d="M49 149q-8 0 -14 6t-6 14v65q0 21 13 35l354 430q10 11 26 11h49q8 0 14 -6t6 -14v-434h82q20 0 20 -18v-69q0 -8 -5.5 -14t-14.5 -6h-82l1 -129q0 -8 -6 -14t-14 -6h-85q-8 0 -14 6t-6 14v129h-318zM167 255v-2h204v249h-2z" />
    <glyph glyph-name="five" unicode="5" horiz-adv-x="565" 
d="M70 75q-11 12 -11.5 19t9.5 16l51 51q13 11 25 1q70 -58 133 -58q51 0 85 36t34 86t-33 82.5t-91 32.5h-159q-15 0 -23.5 11t-8.5 25v304q0 8 5.5 13.5t14.5 5.5h325q8 0 14 -5.5t6 -13.5v-70q0 -8 -6 -14t-14 -6h-229v-137h89q108 0 172 -63t64 -165q0 -98 -72 -167
t-177 -69q-74 0 -126 26.5t-77 58.5z" />
    <glyph glyph-name="six" unicode="6" horiz-adv-x="581" 
d="M55 274q0 85 28 158.5t66.5 119.5t90.5 83.5t88 54.5t70 28q23 6 29 -14l24 -61q9 -22 -19 -30q-23 -7 -52 -21t-66 -37.5t-67 -59t-41 -75.5q15 10 49.5 19.5t67.5 9.5q84 0 147 -59.5t63 -163.5q0 -97 -69 -166.5t-164 -69.5q-116 0 -180.5 81t-64.5 203zM299 105
q50 0 84 34.5t34 88.5q0 51 -34.5 86t-84.5 35q-46 0 -77.5 -28t-41.5 -62q0 -60 31 -107t89 -47z" />
    <glyph glyph-name="seven" unicode="7" horiz-adv-x="517" 
d="M332 587v2h-271q-8 0 -13.5 6t-5.5 14v72q0 7 6 13t13 6h429q8 0 14 -6t6 -13t-4 -15l-303 -638q-13 -28 -35 -28h-77q-25 0 -25 20q0 11 5 21z" />
    <glyph glyph-name="eight" unicode="8" horiz-adv-x="607" 
d="M59 187q0 62 37 105.5t88 66.5v4q-42 18 -74 60.5t-32 97.5q0 85 64 137t159 52q98 0 163 -52t65 -137q0 -54 -32.5 -96t-73.5 -61v-5q53 -22 89 -66t36 -106q0 -86 -67.5 -141.5t-179.5 -55.5q-109 0 -175.5 56t-66.5 141zM304 419q46 11 69.5 37t23.5 60
q0 37 -26.5 62.5t-69.5 25.5q-40 0 -65.5 -25.5t-25.5 -62.5q0 -74 94 -97zM196 190q0 -43 29.5 -69t78.5 -26q48 0 77.5 26t29.5 69q0 36 -28.5 66.5t-78.5 42.5q-50 -12 -79 -42.5t-29 -66.5z" />
    <glyph glyph-name="nine" unicode="9" horiz-adv-x="581" 
d="M130 57q-8 20 19 30q23 7 52 21t66 37.5t67 59t41 74.5q-16 -10 -50.5 -19.5t-66.5 -9.5q-84 0 -147 60t-63 164q0 97 69 166.5t164 69.5q116 0 180.5 -81t64.5 -203q0 -85 -28 -158.5t-67 -120t-90 -83.5t-87.5 -54t-70.5 -28q-22 -7 -29 14zM283 351q46 0 77.5 28
t41.5 62q0 59 -31 106t-89 47q-48 0 -83 -36.5t-35 -85.5q0 -50 35 -85.5t84 -35.5z" />
    <glyph glyph-name="colon" unicode=":" horiz-adv-x="283" 
d="M141 307q-35 0 -59 24t-24 59q0 34 24 58t59 24t59.5 -24t24.5 -58q0 -35 -24.5 -59t-59.5 -24zM58 72q0 35 24 59t59 24t59.5 -24t24.5 -59t-24.5 -59t-59.5 -24t-59 24.5t-24 58.5z" />
    <glyph glyph-name="semicolon" unicode=";" horiz-adv-x="271" 
d="M138 307q-35 0 -59 24t-24 59t24 58.5t59 23.5q34 0 58 -24t24 -58q0 -35 -23.5 -59t-58.5 -24zM52 70q0 32 22 52.5t56 20.5q39 0 64.5 -31.5t25.5 -87.5q0 -101 -72 -197q-11 -9 -21 -1l-28 20q-9 9 1 23q50 65 50 122q0 7 -2 19q-15 -10 -34 -10q-29 0 -45.5 20
t-16.5 50z" />
    <glyph glyph-name="less" unicode="&#x3c;" 
d="M103 210q-10 6 -10 17v5q0 11 10 17l347 212q10 6 19 1t9 -17v-70q0 -9 -9 -16l-215 -128l215 -124q9 -7 9 -16v-70q0 -12 -9 -17t-19 1z" />
    <glyph glyph-name="equal" unicode="=" 
d="M137 338q-8 0 -13.5 5.5t-5.5 13.5v56q0 8 5.5 13.5t13.5 5.5h326q8 0 13.5 -5.5t5.5 -13.5v-56q0 -8 -5.5 -13.5t-13.5 -5.5h-326zM137 127q-8 0 -13.5 5.5t-5.5 13.5v57q0 8 5.5 13.5t13.5 5.5h326q8 0 13.5 -5.5t5.5 -13.5v-57q0 -8 -5.5 -13.5t-13.5 -5.5h-326z" />
    <glyph glyph-name="greater" unicode="&#x3e;" 
d="M122 21v70q0 11 9 16l214 124l-214 128q-9 5 -9 16v70q0 12 9 17t19 -1l347 -212q10 -6 10 -17v-5q0 -11 -10 -17l-347 -205q-10 -6 -19 -1t-9 17z" />
    <glyph glyph-name="question" unicode="?" horiz-adv-x="498" 
d="M189 272q-8 0 -13.5 5.5t-5.5 13.5v42q0 32 21.5 61.5t48 48.5t48 43.5t21.5 47.5q0 28 -22 47.5t-58 19.5q-27 0 -47.5 -9t-40 -25.5t-20.5 -17.5q-12 -8 -22 1l-47 46q-14 12 0 26q3 4 8 9.5t24 21t40 27t54.5 21t69.5 9.5q80 0 137 -48t57 -120q0 -41 -24 -76t-52 -55
t-52 -43t-24 -42v-33q0 -21 -20 -21h-81zM147 72q0 34 24 58.5t58 24.5t58.5 -24.5t24.5 -58.5t-24.5 -58t-58.5 -24t-58 24t-24 58z" />
    <glyph glyph-name="at" unicode="@" horiz-adv-x="1015" 
d="M57 223q0 214 132 350.5t344 136.5q203 0 319.5 -118t116.5 -304q0 -106 -61.5 -187t-165.5 -81q-89 0 -119 78h-8q-17 -34 -51 -56t-79 -22q-78 0 -129.5 61.5t-51.5 149.5q0 90 52 149.5t132 59.5q65 0 121 -59q2 5 5 14.5t4.5 13t4.5 9t7 7.5t10.5 3.5t15.5 1.5h17
q8 0 13.5 -5.5t5.5 -13.5v-183q0 -62 16.5 -84t45.5 -22q47 0 75 46.5t28 114.5q0 144 -85 234t-243 90q-166 0 -264.5 -103.5t-98.5 -280.5q0 -119 66 -213t175 -139q17 -8 11 -24l-24 -63q-7 -17 -22 -11q-139 51 -227 173.5t-88 276.5zM408 238q-3 -47 23.5 -79t63.5 -32
q81 0 85 109v37q-5 22 -29 44t-57 22q-36 0 -60 -28t-26 -73z" />
    <glyph glyph-name="A" unicode="A" horiz-adv-x="668" 
d="M19 0q-11 0 -16.5 8t-0.5 18l311 673q5 11 17 11h10q12 0 17 -11l308 -673q5 -10 -0.5 -18t-16.5 -8h-87q-19 0 -29 20l-49 108h-299l-49 -108q-8 -20 -29 -20h-87zM233 239h201l-100 220h-3z" />
    <glyph glyph-name="B" unicode="B" horiz-adv-x="616" 
d="M444 359v-5q51 -18 85.5 -57t34.5 -104q0 -83 -63 -138t-155 -55h-242q-8 0 -13.5 5.5t-5.5 13.5v662q0 8 5.5 13.5t13.5 5.5h229q89 0 150 -53t61 -132q0 -53 -28.5 -94t-71.5 -62zM214 406h109q37 0 60.5 26t23.5 64t-23 61.5t-61 23.5h-109v-175zM214 118h123
q38 0 63 26t25 65q0 37 -25 62t-63 25h-123v-178z" />
    <glyph glyph-name="C" unicode="C" horiz-adv-x="688" 
d="M44 349q0 150 105.5 255.5t255.5 105.5q138 0 242 -93q15 -14 1 -28l-61 -63q-12 -13 -25 0q-67 59 -154 59q-95 0 -159 -68.5t-64 -164.5q0 -95 64.5 -163t159.5 -68q83 0 153 57q13 12 25 0l62 -64q6 -6 5.5 -13.5t-6.5 -13.5q-100 -97 -243 -97q-150 0 -255.5 104.5
t-105.5 254.5z" />
    <glyph glyph-name="D" unicode="D" horiz-adv-x="735" 
d="M85 19v662q0 8 5.5 13.5t12.5 5.5h237q145 0 248 -102.5t103 -246.5q0 -145 -103 -248t-248 -103h-237q-7 0 -12.5 5.5t-5.5 13.5zM214 122h114q98 0 161.5 63.5t63.5 165.5q0 101 -63.5 164.5t-161.5 63.5h-114v-457z" />
    <glyph glyph-name="E" unicode="E" horiz-adv-x="576" 
d="M85 19v662q0 8 5.5 13.5t13.5 5.5h407q8 0 13.5 -5.5t5.5 -13.5v-82q0 -8 -5.5 -13.5t-13.5 -5.5h-296v-164h247q8 0 13.5 -6t5.5 -13v-83q0 -8 -5.5 -13.5t-13.5 -5.5h-247v-175h296q8 0 13.5 -5.5t5.5 -13.5v-82q0 -8 -5.5 -13.5t-13.5 -5.5h-407q-8 0 -13.5 5.5
t-5.5 13.5z" />
    <glyph glyph-name="F" unicode="F" horiz-adv-x="557" 
d="M85 19v662q0 8 5.5 13.5t13.5 5.5h407q8 0 13.5 -5.5t5.5 -13.5v-82q0 -8 -5.5 -13.5t-13.5 -5.5h-296v-188h247q8 0 13.5 -6t5.5 -13v-82q0 -7 -5.5 -13t-13.5 -6h-247v-253q0 -7 -5.5 -13t-13.5 -6h-92q-8 0 -13.5 5.5t-5.5 13.5z" />
    <glyph glyph-name="G" unicode="G" horiz-adv-x="718" 
d="M44 349q0 150 105 255.5t254 105.5q135 0 244 -93q15 -15 1 -28l-62 -65q-12 -12 -26 0q-66 58 -151 58q-93 0 -158.5 -68.5t-65.5 -163.5q0 -94 65.5 -161.5t159.5 -67.5q57 0 119 25v85h-80q-8 0 -13.5 5t-5.5 13v79q0 19 19 19h192q7 0 12.5 -5.5t5.5 -13.5v-256
q0 -10 -8 -16q-12 -7 -33 -18t-86 -29t-129 -18q-150 0 -254.5 104t-104.5 254z" />
    <glyph glyph-name="H" unicode="H" horiz-adv-x="757" 
d="M85 19v662q0 7 5.5 13t13.5 6h93q8 0 13.5 -5.5t5.5 -13.5v-265h326v265q0 8 5.5 13.5t13.5 5.5h92q7 0 13 -6t6 -13v-662q0 -7 -6 -13t-13 -6h-92q-8 0 -13.5 5.5t-5.5 13.5v276h-326v-276q0 -8 -5.5 -13.5t-13.5 -5.5h-93q-8 0 -13.5 6t-5.5 13z" />
    <glyph glyph-name="I" unicode="I" horiz-adv-x="301" 
d="M85 19v662q0 7 5.5 13t13.5 6h93q7 0 13 -6t6 -13v-662q0 -7 -6 -13t-13 -6h-93q-8 0 -13.5 6t-5.5 13z" />
    <glyph glyph-name="J" unicode="J" horiz-adv-x="456" 
d="M14 63q-8 13 2 25l52 53q15 14 30 -1q30 -32 66 -32q35 0 57.5 21.5t22.5 69.5v482q0 8 5.5 13.5t13.5 5.5h94q8 0 13.5 -5.5t5.5 -13.5v-482q0 -100 -59 -154.5t-151 -54.5q-93 0 -152 73z" />
    <glyph glyph-name="K" unicode="K" horiz-adv-x="642" 
d="M85 24v652q0 10 7 17t17 7h88q10 0 17 -7t7 -17v-270l252 284q8 10 19 10h100q14 0 20 -12.5t-4 -23.5l-261 -294l280 -335q8 -10 2 -22.5t-20 -12.5h-109q-13 0 -18 7l-261 322v-305q0 -10 -7 -17t-17 -7h-88q-10 0 -17 7t-7 17z" />
    <glyph glyph-name="L" unicode="L" horiz-adv-x="505" 
d="M85 19v662q0 8 5.5 13.5t13.5 5.5h92q8 0 13.5 -6t5.5 -13v-561h255q8 0 13.5 -5.5t5.5 -13.5v-82q0 -8 -5.5 -13.5t-13.5 -5.5h-366q-8 0 -13.5 5.5t-5.5 13.5z" />
    <glyph glyph-name="M" unicode="M" horiz-adv-x="876" 
d="M47 23l119 672q2 15 18 15h16q12 0 17 -10l220 -472h3l220 472q5 10 17 10h16q16 0 18 -15l118 -672q2 -10 -3 -16.5t-15 -6.5h-91q-15 0 -19 15l-59 379h-3l-175 -393q-4 -11 -17 -11h-18q-11 0 -17 11l-177 393h-3l-58 -379q-1 -6 -6.5 -10.5t-11.5 -4.5h-90
q-22 0 -19 23z" />
    <glyph glyph-name="N" unicode="N" horiz-adv-x="761" 
d="M85 19v673q0 7 5.5 12.5t13.5 5.5h15q10 0 17 -7l408 -435h2v413q0 8 5.5 13.5t13.5 5.5h92q7 0 13 -6t6 -13v-673q0 -7 -5.5 -12.5t-13.5 -5.5h-14q-10 0 -17 7l-410 452h-2v-430q0 -8 -5.5 -13.5t-13.5 -5.5h-91q-8 0 -13.5 6t-5.5 13z" />
    <glyph glyph-name="O" unicode="O" horiz-adv-x="807" 
d="M44 349q0 150 104.5 255.5t254.5 105.5t255 -105.5t105 -255.5t-105 -254.5t-255 -104.5t-254.5 104.5t-104.5 254.5zM174 349q0 -95 67 -162t162 -67t162.5 67.5t67.5 161.5q0 95 -68 163t-162 68t-161.5 -68t-67.5 -163z" />
    <glyph glyph-name="P" unicode="P" horiz-adv-x="589" 
d="M85 19v662q0 8 5.5 13.5t13.5 5.5h235q92 0 158 -65t66 -156q0 -93 -65.5 -159t-157.5 -66h-125v-235q0 -7 -5.5 -13t-13.5 -6h-92q-8 0 -13.5 5.5t-5.5 13.5zM215 376h120q42 0 70.5 30t28.5 74q0 41 -28.5 69t-70.5 28h-120v-201z" />
    <glyph glyph-name="Q" unicode="Q" horiz-adv-x="807" 
d="M44 349q0 150 104.5 255.5t254.5 105.5t255 -105.5t105 -255.5q0 -100 -53 -185.5t-142 -134.5l125 -197q7 -10 1.5 -20t-17.5 -10h-106q-11 0 -16 10l-107 181q-24 -3 -45 -3q-150 0 -254.5 104.5t-104.5 254.5zM174 349q0 -95 67 -162t162 -67t162.5 67.5t67.5 161.5
q0 95 -68 163t-162 68t-161.5 -68t-67.5 -163z" />
    <glyph glyph-name="R" unicode="R" horiz-adv-x="660" 
d="M85 19v662q0 8 5.5 13.5t13.5 5.5h286q90 0 154 -63t64 -152q0 -68 -40.5 -121.5t-107.5 -80.5l137 -254q6 -10 0.5 -19.5t-17.5 -9.5h-105q-11 0 -16 9l-133 265h-111v-255q0 -7 -5.5 -13t-13.5 -6h-92q-8 0 -13.5 5.5t-5.5 13.5zM216 381h163q40 0 69.5 30t29.5 72
q0 40 -29.5 68.5t-69.5 28.5h-163v-199z" />
    <glyph glyph-name="S" unicode="S" horiz-adv-x="545" 
d="M276 -10q-130 0 -220 78q-15 12 -5 30l36 62q6 10 17 11.5t17 -4.5q39 -30 73 -46t78 -16q39 0 65 22.5t26 54.5q0 37 -31 65.5t-96 54.5q-84 34 -136 85t-52 131q0 76 57.5 134t167.5 58q111 0 200 -67q7 -4 9 -15t-3 -18l-38 -57q-16 -24 -35 -12q-32 20 -45 27.5
t-40.5 17.5t-53.5 10q-41 0 -64.5 -20t-23.5 -50q0 -35 28 -61t90 -51q43 -17 74.5 -34.5t65 -44t51.5 -64t18 -83.5q0 -81 -64 -139.5t-166 -58.5z" />
    <glyph glyph-name="T" unicode="T" horiz-adv-x="527" 
d="M198 19v561h-153q-8 0 -13.5 5.5t-5.5 13.5v82q0 8 5.5 13.5t13.5 5.5h437q8 0 13.5 -5.5t5.5 -13.5v-82q0 -8 -5.5 -13.5t-13.5 -5.5h-153v-561q0 -7 -5.5 -13t-13.5 -6h-93q-7 0 -13 6t-6 13z" />
    <glyph glyph-name="U" unicode="U" horiz-adv-x="713" 
d="M78 257v424q0 7 6 13t13 6h95q8 0 13.5 -5.5t5.5 -13.5v-417q0 -64 40 -104t105 -40t105.5 40t40.5 103v418q0 8 5.5 13.5t13.5 5.5h95q8 0 13.5 -6t5.5 -13v-424q0 -114 -80 -190.5t-199 -76.5q-118 0 -198 76.5t-80 190.5z" />
    <glyph glyph-name="V" unicode="V" horiz-adv-x="665" 
d="M310 1l-309 673q-5 10 0.5 18t16.5 8h102q13 0 17 -11l193 -430h5l193 430q4 11 17 11h102q11 0 16.5 -8t0.5 -18l-310 -673q-6 -11 -17 -11h-10q-11 0 -17 11z" />
    <glyph glyph-name="W" unicode="W" horiz-adv-x="885" 
d="M211 4l-189 672q-3 10 2 17t16 7h92q14 0 18 -14l104 -399h4l159 412q4 11 17 11h18q13 0 17 -11l160 -412h4l102 399q4 14 18 14h92q11 0 16 -7t2 -17l-189 -672q-4 -14 -18 -14h-16q-13 0 -17 11l-179 453h-5l-177 -453q-6 -11 -17 -11h-16q-15 0 -18 14z" />
    <glyph glyph-name="X" unicode="X" horiz-adv-x="622" 
d="M25 28l208 331l-200 313q-6 10 -1 19t18 9h116q9 0 16 -9l126 -212h4l129 212q5 9 16 9h116q13 0 18 -9t-1 -19l-201 -313l208 -331q6 -10 1 -19t-18 -9h-108q-12 0 -17 9l-143 229h-4l-140 -229q-7 -9 -17 -9h-108q-13 0 -18.5 9t0.5 19z" />
    <glyph glyph-name="Y" unicode="Y" horiz-adv-x="593" 
d="M231 19v318l-228 334q-6 10 -1 19.5t17 9.5h102q9 0 16 -9l160 -230l160 230q7 9 16 9h103q12 0 17 -9.5t-1 -19.5l-231 -333v-319q0 -7 -5.5 -13t-13.5 -6h-92q-8 0 -13.5 5.5t-5.5 13.5z" />
    <glyph glyph-name="Z" unicode="Z" horiz-adv-x="538" 
d="M216 123v-2h255q8 0 13.5 -5.5t5.5 -13.5v-83q0 -8 -5.5 -13.5t-13.5 -5.5h-427q-8 0 -13.5 6t-5.5 13q0 18 7 31l291 525v4h-250q-7 0 -13 5.5t-6 13.5v83q0 7 6 13t13 6h418q7 0 13 -6t6 -13q0 -13 -9 -29z" />
    <glyph glyph-name="bracketleft" unicode="[" horiz-adv-x="353" 
d="M180 -138h130q8 0 13.5 -5.5t5.5 -12.5v-63q0 -7 -5.5 -13t-13.5 -6h-226q-8 0 -13.5 6t-5.5 13v900q0 7 5.5 13t13.5 6h226q8 0 13.5 -6t5.5 -13v-62q0 -8 -5.5 -13.5t-13.5 -5.5h-130v-738z" />
    <glyph glyph-name="backslash" unicode="\" horiz-adv-x="416" 
d="M249 13l-195 662q-3 10 2 17.5t16 7.5h76q14 0 18 -13l196 -662q3 -10 -2.5 -17.5t-15.5 -7.5h-77q-14 0 -18 13z" />
    <glyph glyph-name="bracketright" unicode="]" horiz-adv-x="353" 
d="M43 -138h130v738h-130q-8 0 -13.5 5.5t-5.5 13.5v62q0 7 6 13t13 6h226q7 0 13 -6t6 -13v-900q0 -7 -6 -13t-13 -6h-226q-7 0 -13 6t-6 13v63q0 7 5.5 12.5t13.5 5.5z" />
    <glyph glyph-name="asciicircum" unicode="^" horiz-adv-x="524" 
d="M53 385q-12 0 -17 9t1 19l208 291q6 10 17 10h5q11 0 17 -10l203 -291q6 -10 1 -19t-17 -9h-69q-9 0 -16 9l-123 169l-125 -169q-7 -9 -16 -9h-69z" />
    <glyph glyph-name="underscore" unicode="_" horiz-adv-x="603" 
d="M113 -29q0 19 19 19h339q19 0 19 -19v-39q0 -8 -5.5 -13t-13.5 -5h-339q-8 0 -13.5 5t-5.5 13v39z" />
    <glyph glyph-name="grave" unicode="`" horiz-adv-x="302" 
d="M234 528l-175 77q-16 8 -6 27l28 51q8 15 26 3l164 -97q12 -6 6 -19l-18 -36q-6 -14 -25 -6z" />
    <glyph glyph-name="a" unicode="a" horiz-adv-x="482" 
d="M32 147q0 63 49.5 104t134.5 41q21 0 43 -3t34 -7l12 -3q2 45 -13 66t-51 21q-73 0 -130 -17q-22 -7 -26 20l-10 52q-5 22 15 28q14 6 62 14.5t96 8.5q102 0 138 -49t36 -152v-249q0 -9 -6.5 -15.5t-15.5 -6.5h-34q-13 0 -20 16l-13 31q-60 -58 -145 -58q-70 0 -113 42.5
t-43 115.5zM152 147q0 -30 17.5 -47.5t49.5 -17.5q28 0 53 17t30 32v68q-31 14 -68 14q-39 0 -60.5 -17.5t-21.5 -48.5z" />
    <glyph glyph-name="b" unicode="b" horiz-adv-x="563" 
d="M64 22v656q0 8 7 15t15 7h81q9 0 15.5 -7t6.5 -15v-226q47 20 113 20q101 0 162.5 -69t61.5 -172q0 -101 -62 -171.5t-155 -70.5q-28 0 -54.5 7t-43.5 17t-30.5 20.5t-19.5 17.5l-6 7l-11 -36q-8 -22 -23 -22h-35q-8 0 -15 6.5t-7 15.5zM189 167q9 -24 35 -44t67 -20
q51 0 80 38t29 90t-30.5 89.5t-84.5 37.5q-26 0 -50 -6.5t-35 -13.5l-11 -6v-165z" />
    <glyph glyph-name="c" unicode="c" horiz-adv-x="492" 
d="M36 231q0 102 71 171.5t174 69.5q99 0 172 -78q14 -14 -5 -33l-42 -46q-13 -14 -30 3q-42 40 -92 40q-53 0 -87.5 -36.5t-34.5 -90.5q0 -55 34 -91.5t87 -36.5q54 0 98 51q5 6 14 7t15 -4l45 -38q19 -17 8 -33q-62 -97 -183 -97q-102 0 -173 69.5t-71 172.5z" />
    <glyph glyph-name="d" unicode="d" horiz-adv-x="565" 
d="M36 231q0 103 63.5 172t165.5 69q61 0 111 -19v225q0 8 7 15t15 7h81q9 0 15.5 -7t6.5 -15v-656q0 -9 -6.5 -15.5t-15.5 -6.5h-37q-15 0 -22 22l-12 36q-2 -3 -6 -7.5t-18.5 -16.5t-31 -21t-42.5 -16.5t-53 -7.5q-95 0 -158 68.5t-63 173.5zM376 167v165q-38 26 -96 26
q-54 0 -84.5 -37.5t-30.5 -89.5t29 -90t80 -38q41 0 67 20t35 44z" />
    <glyph glyph-name="e" unicode="e" horiz-adv-x="511" 
d="M36 231q0 100 66 170.5t167 70.5q91 0 151.5 -60.5t60.5 -153.5q0 -16 -2 -30q-1 -9 -7.5 -15t-14.5 -6h-296q1 -44 33.5 -75.5t81.5 -31.5q57 0 99 34q19 16 30 0l39 -52q14 -16 -2 -30q-74 -63 -172 -63q-102 0 -168 70.5t-66 171.5zM168 289h187q-2 34 -26.5 57
t-62.5 23q-41 0 -67 -22.5t-31 -57.5z" />
    <glyph glyph-name="f" unicode="f" horiz-adv-x="394" 
d="M102 22v328h-48q-9 0 -15.5 6.5t-6.5 15.5v68q0 22 22 22h48v55q0 93 48 143t139 50q42 0 80 -14t56 -31q15 -10 5 -26l-35 -61q-4 -7 -12 -8.5t-16 2.5q-36 24 -72 24q-41 0 -54.5 -19.5t-13.5 -59.5v-55h126q22 0 22 -22v-68q0 -9 -6.5 -15.5t-15.5 -6.5h-126v-328
q0 -9 -6.5 -15.5t-15.5 -6.5h-81q-9 0 -15.5 6.5t-6.5 15.5z" />
    <glyph glyph-name="g" unicode="g" horiz-adv-x="565" 
d="M376 129v165q-9 24 -35 44t-67 20q-51 0 -80 -38t-29 -90t30.5 -89.5t84.5 -37.5q26 0 50 6.5t35 12.5zM501 440v-445q0 -107 -65 -165.5t-165 -58.5q-50 0 -96.5 17.5t-69.5 34.5q-14 12 -5 26l30 65q3 7 11 8.5t16 -2.5q59 -35 110 -35q56 0 82.5 24t26.5 86v13
q-50 -19 -111 -19q-102 0 -165.5 69t-63.5 172q0 105 63 173.5t158 68.5q27 0 53 -7t43 -17t30 -20.5t19 -17.5l6 -7l12 37q7 22 22 22h37q9 0 15.5 -6.5t6.5 -15.5z" />
    <glyph glyph-name="h" unicode="h" horiz-adv-x="552" 
d="M64 22v656q0 8 7 15t15 7h81q9 0 15.5 -7t6.5 -15v-245q45 39 118 39q187 0 187 -218v-232q0 -9 -7 -15.5t-15 -6.5h-81q-9 0 -15.5 6.5t-6.5 15.5v233q0 49 -21.5 76t-62.5 27q-75 0 -96 -81v-255q0 -22 -24 -22h-79q-8 0 -15 6.5t-7 15.5z" />
    <glyph glyph-name="i" unicode="i" horiz-adv-x="253" 
d="M64 22v418q0 9 6.5 15.5t15.5 6.5h81q9 0 15.5 -6.5t6.5 -15.5v-418q0 -9 -7 -15.5t-15 -6.5h-81q-8 0 -15 6.5t-7 15.5zM125 541q-33 0 -56 23.5t-23 56.5t22.5 56t56.5 23t57 -23t23 -56t-23 -56.5t-57 -23.5z" />
    <glyph glyph-name="j" unicode="j" horiz-adv-x="253" 
d="M189 440v-459q0 -95 -37 -146.5t-103 -79.5q-34 -15 -44 10l-24 56q-11 28 12 40q22 12 34.5 21.5t24.5 31t12 50.5v476q0 9 6.5 15.5t15.5 6.5h81q9 0 15.5 -6.5t6.5 -15.5zM125 541q-33 0 -56 23.5t-23 56.5t22.5 56t56.5 23t57 -23t23 -56t-23 -56.5t-57 -23.5z" />
    <glyph glyph-name="k" unicode="k" horiz-adv-x="517" 
d="M64 22v656q0 8 7 15t15 7h81q9 0 15.5 -7t6.5 -15v-391l159 161q16 14 29 14h94q14 0 19 -12t-4 -22l-183 -180l192 -215q9 -10 4.5 -21.5t-18.5 -11.5h-98q-15 0 -20 9l-174 208v-195q0 -9 -6.5 -15.5t-15.5 -6.5h-81q-8 0 -15 6.5t-7 15.5z" />
    <glyph glyph-name="l" unicode="l" horiz-adv-x="255" 
d="M65 22v656q0 8 7 15t15 7h81q8 0 15 -7t7 -15v-656q0 -9 -7 -15.5t-15 -6.5h-81q-8 0 -15 6.5t-7 15.5z" />
    <glyph glyph-name="m" unicode="m" horiz-adv-x="828" 
d="M64 22v418q0 9 6.5 15.5t15.5 6.5h36q16 0 19 -13l17 -44q58 67 141 67q48 0 77.5 -16.5t60.5 -53.5q67 70 149 70q103 0 143 -56.5t40 -157.5v-236q0 -9 -6.5 -15.5t-16.5 -6.5h-80q-9 0 -15.5 6.5t-6.5 15.5v239q0 97 -80 97q-30 0 -51.5 -12t-28.5 -24l-6 -12
q2 -23 2 -44v-244q0 -9 -7 -15.5t-15 -6.5h-82q-10 0 -16 6.5t-6 15.5v239q0 48 -17 72.5t-59 24.5q-64 0 -89 -72v-264q0 -9 -7 -15.5t-15 -6.5h-81q-8 0 -15 6.5t-7 15.5z" />
    <glyph glyph-name="n" unicode="n" horiz-adv-x="553" 
d="M64 22v418q0 9 6.5 15.5t15.5 6.5h38q14 0 19 -14l17 -43q60 67 149 67q185 0 185 -211v-239q0 -9 -7 -15.5t-15 -6.5h-81q-9 0 -15.5 6.5t-6.5 15.5v239q0 97 -80 97q-75 0 -100 -72v-264q0 -13 -6 -17.5t-23 -4.5h-74q-8 0 -15 6.5t-7 15.5z" />
    <glyph glyph-name="o" unicode="o" horiz-adv-x="544" 
d="M36 232q0 98 69.5 169t166.5 71q98 0 167.5 -71t69.5 -169q0 -99 -69.5 -171t-167.5 -72q-97 0 -166.5 72t-69.5 171zM152 232q0 -53 35 -91t85 -38t85.5 38t35.5 91q0 52 -35.5 89t-85.5 37t-85 -36.5t-35 -89.5z" />
    <glyph glyph-name="p" unicode="p" horiz-adv-x="566" 
d="M529 230q0 -103 -63.5 -172t-165.5 -69q-61 0 -111 19v-224q0 -8 -7 -15t-15 -7h-81q-9 0 -15.5 7t-6.5 15v656q0 9 6.5 15.5t15.5 6.5h37q15 0 22 -22l12 -37q2 3 6 7.5t18.5 16.5t31 21t42.5 16.5t53 7.5q95 0 158 -68.5t63 -173.5zM189 294v-165q38 -26 96 -26
q54 0 84.5 37.5t30.5 89.5t-29 90t-80 38q-41 0 -67 -20t-35 -44z" />
    <glyph glyph-name="q" unicode="q" horiz-adv-x="565" 
d="M36 230q0 105 63 173.5t158 68.5q27 0 53 -7t43 -17t30 -20.5t19 -17.5l6 -7l12 37q7 22 22 22h37q9 0 15.5 -6.5t6.5 -15.5v-656q0 -8 -6.5 -15t-15.5 -7h-81q-8 0 -15 7t-7 15v224q-50 -19 -111 -19q-102 0 -165.5 69t-63.5 172zM376 129v165q-9 24 -35 44t-67 20
q-51 0 -80 -38t-29 -90t30.5 -89.5t84.5 -37.5q26 0 50 6.5t35 12.5z" />
    <glyph glyph-name="r" unicode="r" horiz-adv-x="387" 
d="M64 22v418q0 9 6.5 15.5t15.5 6.5h37q14 0 20 -15l17 -45q49 70 130 70q44 0 70 -12t17 -33l-30 -68q-8 -18 -27 -10q-20 9 -43 9q-33 0 -56.5 -16t-31.5 -32v-288q0 -22 -26 -22h-77q-8 0 -15 6.5t-7 15.5z" />
    <glyph glyph-name="s" unicode="s" horiz-adv-x="413" 
d="M201 -11q-90 0 -151 42q-14 9 -6 25l30 60q9 20 27 8q48 -30 102 -30q51 0 51 33q0 30 -87 64q-68 26 -98.5 60t-30.5 86q0 57 43 96t123 39q84 0 137 -34q19 -15 10 -32l-26 -53q-10 -16 -29 -9q-51 23 -92 23q-22 0 -33 -9t-11 -21q0 -15 14.5 -25t51.5 -25
q80 -32 116.5 -64.5t36.5 -95.5q0 -58 -47.5 -98t-130.5 -40z" />
    <glyph glyph-name="t" unicode="t" horiz-adv-x="390" 
d="M95 138v212h-45q-9 0 -15 6.5t-6 15.5v68q0 10 6 16t15 6h45v128q0 9 7 15.5t15 6.5h82q9 0 15 -6.5t6 -15.5v-128h108q9 0 15.5 -6t6.5 -16v-68q0 -8 -6.5 -15t-15.5 -7h-108v-208q0 -22 9.5 -30t28.5 -8q25 0 70 15q10 4 17 0t9 -12l13 -61q4 -18 -13 -27
q-15 -9 -56.5 -19.5t-73.5 -10.5q-129 0 -129 149z" />
    <glyph glyph-name="u" unicode="u" horiz-adv-x="533" 
d="M59 195v245q0 10 6.5 16t15.5 6h81q9 0 15.5 -6t6.5 -16v-245q0 -47 18 -69.5t60 -22.5q35 0 55.5 25.5t26.5 60.5v251q0 13 5 17.5t20 4.5h78q9 0 15.5 -6t6.5 -16v-418q0 -9 -6.5 -15.5t-15.5 -6.5h-36q-16 0 -22 17l-13 39q-64 -67 -143 -67q-52 0 -87.5 15
t-53.5 44.5t-25.5 64.5t-7.5 82z" />
    <glyph glyph-name="v" unicode="v" horiz-adv-x="491" 
d="M222 1l-207 434q-6 11 -1 19t17 8h95q14 0 21 -13l96 -228h2l102 228q7 13 29 13h84q13 0 17.5 -8t-1.5 -19l-208 -434q-8 -12 -20 -12h-6q-12 0 -20 12z" />
    <glyph glyph-name="w" unicode="w" horiz-adv-x="713" 
d="M167 2l-141 434q-5 10 1 18t18 8h78q17 0 20 -14l70 -220h1l121 234q4 10 18 10h9q14 0 19 -10l120 -234h1l69 220q4 14 26 14h70q12 0 18.5 -8t2.5 -18l-142 -434q-4 -13 -21 -13h-4q-12 0 -19 11l-145 278h-1l-145 -278q-5 -11 -18 -11h-6q-16 0 -20 13z" />
    <glyph glyph-name="x" unicode="x" horiz-adv-x="513" 
d="M41 0q-14 0 -18.5 11.5t3.5 22.5l147 201l-141 193q-9 11 -3.5 22.5t19.5 11.5h91q26 0 38 -16l77 -121h2l79 121q11 16 35 16h98q15 0 18.5 -11.5t-5.5 -22.5l-142 -191l143 -203q9 -11 5 -22.5t-18 -11.5h-96q-19 0 -32 19l-85 127h-2l-90 -137q-7 -9 -19 -9h-104z" />
    <glyph glyph-name="y" unicode="y" horiz-adv-x="499" 
d="M165 27l-144 405q-5 12 1 21t19 9h96q16 0 19 -13l83 -276h2l105 276q8 13 29 13h85q13 0 19 -9.5t1 -20.5l-272 -656q-6 -14 -20 -14h-96q-13 0 -19 9.5t-1 21.5z" />
    <glyph glyph-name="z" unicode="z" horiz-adv-x="408" 
d="M207 113h132q9 0 15.5 -6.5t6.5 -15.5v-69q0 -9 -6.5 -15.5t-15.5 -6.5h-285q-9 0 -15.5 6.5t-6.5 15.5q0 12 5 21l165 303v2h-139q-8 0 -14.5 7t-6.5 15v70q0 10 6 16t15 6h298q23 0 23 -21q0 -5 -3 -11l-174 -315v-2z" />
    <glyph glyph-name="braceleft" unicode="{" horiz-adv-x="396" 
d="M103 4v113q0 30 -22.5 47t-46.5 21q-15 2 -15 18v49q0 13 14 17q8 2 22.5 9t31 24t16.5 36v117q0 63 16.5 110.5t40.5 73.5t59.5 42.5t65.5 22t66 6.5q18 2 20 -17l4 -63q1 -16 -14 -18q-65 -14 -99.5 -49.5t-34.5 -107.5v-95q0 -30 -11 -55.5t-27.5 -41t-27 -23
t-17.5 -10.5v-4q83 -34 83 -125v-97q0 -71 34.5 -105.5t99.5 -47.5q15 -4 14 -19l-4 -63q-1 -8 -7 -13t-13 -4q-37 1 -66 6t-65 21t-60 42t-40.5 73t-16.5 110z" />
    <glyph glyph-name="bar" unicode="|" horiz-adv-x="178" 
d="M64 -220v961q0 8 5.5 13.5t13.5 5.5h13q8 0 13 -5.5t5 -13.5v-961q0 -7 -5.5 -12.5t-13.5 -5.5h-12q-8 0 -13.5 5.5t-5.5 12.5z" />
    <glyph glyph-name="braceright" unicode="}" horiz-adv-x="396" 
d="M169 4v97q0 91 83 125v4q-7 3 -17.5 10.5t-27 23t-27.5 41t-11 55.5v95q0 72 -34.5 107.5t-99.5 49.5q-15 2 -14 18l4 63q2 19 20 17q36 -1 66 -6.5t65.5 -22t59.5 -42.5t40.5 -73.5t16.5 -110.5v-117q0 -27 26.5 -46t43.5 -23q14 -4 14 -17v-49q0 -16 -15 -18
q-24 -4 -46.5 -21t-22.5 -47v-113q0 -63 -16.5 -110t-40.5 -73t-60 -42t-65.5 -21.5t-65.5 -6.5q-18 0 -20 17l-4 63q-1 15 14 19q65 13 99.5 47.5t34.5 106.5z" />
    <glyph glyph-name="asciitilde" unicode="~" horiz-adv-x="544" 
d="M84 194q-28 28 -45 44q-11 13 -2 24q3 4 8.5 10.5t22 24t33 30.5t40.5 23.5t46 10.5q41 0 101 -41q49 -32 73 -32q40 0 74 52q13 16 29 2l42 -44q13 -11 2 -24q-3 -4 -8 -10.5t-21.5 -23.5t-33 -30t-39.5 -23.5t-45 -10.5q-8 0 -15 0.5t-14.5 2.5t-13 3.5t-13 5t-11.5 5
t-12 6.5t-10 6.5t-11 7t-10 6.5q-41 28 -65 28q-41 0 -74 -51q-5 -8 -13.5 -8.5t-14.5 6.5z" />
    <glyph glyph-name="uni00A0" unicode="&#xa0;" horiz-adv-x="240" 
 />
    <glyph glyph-name="exclamdown" unicode="&#xa1;" horiz-adv-x="248" 
d="M125 307q-34 0 -58.5 24.5t-24.5 58.5t24.5 58t58.5 24q33 0 57 -24t24 -58t-24 -58.5t-57 -24.5zM89 174q1 6 6.5 11t12.5 5h32q7 0 12.5 -5t6.5 -11l39 -279v-114q0 -7 -6 -13t-13 -6h-110q-7 0 -13 6t-6 13v112z" />
    <glyph glyph-name="cent" unicode="&#xa2;" horiz-adv-x="543" 
d="M61 231q0 102 71 171.5t174 69.5q8 0 24 -2l13 48q2 8 10.5 13t16.5 1l14 -3q9 -2 13.5 -9t1.5 -17l-12 -46q47 -18 91 -63q14 -14 -5 -33l-42 -46q-13 -14 -30 3q-24 22 -44 30l-66 -244q6 -1 17 -1q54 0 98 51q5 6 14 7t15 -4l45 -38q19 -17 8 -33q-62 -97 -183 -97
q-25 0 -44 4l-30 -113q-2 -8 -10.5 -12.5t-17.5 -2.5l-12 4q-20 3 -16 25l31 115q-66 28 -105.5 87t-39.5 135zM187 231q0 -70 50 -106l62 232q-50 -3 -81 -38.5t-31 -87.5z" />
    <glyph glyph-name="sterling" unicode="&#xa3;" 
d="M122 19v18q62 117 37 254h-43q-7 0 -12.5 5.5t-5.5 13.5v13q0 8 5.5 13.5t12.5 5.5h31q-2 9 -9 34t-10.5 40.5t-7 38.5t-3.5 43q0 97 60.5 154.5t151.5 57.5q42 0 81 -15t54 -26t36 -30q15 -11 2 -26l-49 -59q-11 -15 -27 -3q-52 46 -96 46q-36 0 -62 -26t-26 -68
q0 -29 17.5 -88t20.5 -73h116q8 0 13.5 -5.5t5.5 -13.5v-14q0 -8 -5.5 -13t-13.5 -5h-106q12 -96 -14 -180h196q8 0 13 -5.5t5 -13.5v-73q0 -8 -5.5 -13.5t-12.5 -5.5h-331q-7 0 -13 6t-6 13z" />
    <glyph glyph-name="currency" unicode="&#xa4;" horiz-adv-x="493" 
d="M115 161l-39 40q-5 5 -5 13.5t5 13.5l48 48q-12 27 -12 56q0 30 13 56l-48 48q-13 14 0 27l40 39q5 5 13.5 5t13.5 -5l47 -47q28 13 56 13q27 0 56 -13l47 47q13 13 27 0l39 -40q14 -14 1 -26l-47 -47q13 -31 13 -59q0 -30 -12 -55l47 -47q13 -13 0 -27l-40 -39
q-14 -14 -26 -1l-48 48q-26 -13 -57 -13t-57 13l-48 -48q-14 -13 -27 0zM246 281q22 0 37 14.5t15 36.5t-15 37t-37 15t-36.5 -15t-14.5 -37t14.5 -36.5t36.5 -14.5z" />
    <glyph glyph-name="yen" unicode="&#xa5;" 
d="M123 120q-7 0 -12.5 5.5t-5.5 13.5v13q0 8 5.5 13.5t12.5 5.5h111v69h-111q-7 0 -12.5 5.5t-5.5 13.5v13q0 8 5.5 13.5t12.5 5.5h111v46l-208 334q-6 10 -1 19.5t17 9.5h103q9 0 16 -9l140 -230l140 230q7 9 16 9h102q12 0 17 -9.5t-1 -19.5l-211 -333v-47h109
q8 0 13.5 -5.5t5.5 -13.5v-14q0 -8 -5.5 -13t-13.5 -5h-109v-69h109q8 0 13.5 -5.5t5.5 -13.5v-14q0 -8 -5.5 -13t-13.5 -5h-109v-101q0 -7 -6 -13t-13 -6h-92q-8 0 -13.5 5.5t-5.5 13.5v101h-111z" />
    <glyph glyph-name="brokenbar" unicode="&#xa6;" horiz-adv-x="186" 
d="M87 392q-8 0 -13.5 5.5t-5.5 12.5v331q0 8 5.5 13.5t13.5 5.5h13q8 0 13 -5.5t5 -13.5v-331q0 -7 -5.5 -12.5t-13.5 -5.5h-12zM68 111q0 8 5.5 13.5t13.5 5.5h13q8 0 13 -5.5t5 -13.5v-331q0 -7 -5.5 -12.5t-13.5 -5.5h-12q-8 0 -13.5 5.5t-5.5 12.5v331z" />
    <glyph glyph-name="section" unicode="&#xa7;" horiz-adv-x="561" 
d="M99 -88q14 23 35 8l16 -10q16 -10 34.5 -20t45 -19t48.5 -9q34 0 59.5 17.5t25.5 50.5q0 66 -120 117q-180 74 -180 204q0 76 72 136q-72 66 -72 142q0 73 54.5 127t160.5 54q102 0 191 -64q7 -4 9.5 -13.5t-2.5 -17.5l-41 -59q-12 -19 -33 -5q-72 50 -129 50
q-40 0 -63 -19.5t-23 -44.5q0 -32 27 -56.5t86 -48.5q43 -17 73 -33t62.5 -41t49.5 -59.5t17 -76.5q0 -74 -73 -139q73 -67 73 -146q0 -76 -61 -131t-159 -55q-130 0 -209 74q-17 17 -5 34zM183 260q0 -26 17 -46t42 -34t67 -33l21 -9q4 3 11 8.5t18 26.5t11 45
q0 70 -151 117q-36 -36 -36 -75z" />
    <glyph glyph-name="dieresis" unicode="&#xa8;" horiz-adv-x="414" 
d="M313 542q-31 0 -51.5 21t-20.5 52t20.5 51.5t51.5 20.5t52 -20.5t21 -51.5t-21 -52t-52 -21zM112 542q-31 0 -51.5 21t-20.5 52t20.5 51.5t51.5 20.5t52 -20.5t21 -51.5t-21 -52t-52 -21z" />
    <glyph glyph-name="copyright" unicode="&#xa9;" horiz-adv-x="829" 
d="M55 350q0 149 105.5 254.5t253.5 105.5t254 -106t106 -254t-105.5 -253.5t-254.5 -105.5q-148 0 -253.5 105.5t-105.5 253.5zM133 350q0 -116 82.5 -198.5t198.5 -82.5q117 0 199 82.5t82 198.5q0 117 -82 199t-199 82q-116 0 -198.5 -82t-82.5 -199zM236 348
q0 78 55 133t132 55q64 0 112 -38q16 -14 2 -29l-34 -38q-9 -12 -25 -2q-23 16 -54 16q-39 0 -65.5 -27.5t-26.5 -66.5q0 -40 26 -67t66 -27q28 0 53 16q14 11 25 -2l36 -40q13 -14 -1 -28q-49 -42 -114 -42q-77 0 -132 55t-55 132z" />
    <glyph glyph-name="ordfeminine" unicode="&#xaa;" horiz-adv-x="341" 
d="M136 398q-44 0 -72 28t-28 74q0 41 31.5 67.5t86.5 26.5q14 0 27.5 -2t20.5 -4l6 -2q0 29 -8.5 41.5t-33.5 12.5q-27 0 -78 -12q-14 -3 -17 15l-6 33q-3 14 9 19q7 4 38.5 9.5t62.5 5.5q64 0 89 -31t25 -98v-161q0 -6 -4.5 -10t-9.5 -4h-27q-9 0 -14 10q-1 4 -4 11t-4 10
q-41 -39 -90 -39zM156 462q17 0 31.5 11t19.5 24v33q-13 11 -45 11q-19 0 -31.5 -11.5t-12.5 -28.5t10.5 -28t27.5 -11z" />
    <glyph glyph-name="guillemotleft" unicode="&#xab;" horiz-adv-x="487" 
d="M239 224q-8 11 0 24l109 148q7 12 18 12h57q13 0 17 -9.5t-2 -21.5l-68 -139l65 -147q6 -12 1.5 -21t-16.5 -9h-62q-9 0 -15 8zM143 69l-104 155q-8 11 0 24l109 148q7 12 18 12h57q13 0 17 -9.5t-2 -21.5l-68 -139l65 -147q6 -12 1.5 -21t-16.5 -9h-62q-9 0 -15 8z" />
    <glyph glyph-name="logicalnot" unicode="&#xac;" horiz-adv-x="577" 
d="M85 300q-7 0 -13 6t-6 13v56q0 7 6 13t13 6h393q8 0 13.5 -6t5.5 -13v-226q0 -7 -5.5 -12.5t-13.5 -5.5h-56q-8 0 -13.5 5.5t-5.5 12.5v151h-318z" />
    <glyph glyph-name="uni00AD" unicode="&#xad;" horiz-adv-x="371" 
d="M74 192q-8 0 -13.5 5t-5.5 13v67q0 19 19 19h223q19 0 19 -19v-67q0 -8 -5.5 -13t-13.5 -5h-223z" />
    <glyph glyph-name="registered" unicode="&#xae;" horiz-adv-x="829" 
d="M55 350q0 149 105.5 254.5t253.5 105.5t254 -106t106 -254t-105.5 -253.5t-254.5 -105.5q-148 0 -253.5 105.5t-105.5 253.5zM133 350q0 -116 82.5 -198.5t198.5 -82.5q117 0 199 82.5t82 198.5q0 117 -82 199t-199 82q-116 0 -198.5 -82t-82.5 -199zM280 187v328
q0 8 5.5 13.5t13.5 5.5h155q49 0 86 -34t37 -90q0 -77 -71 -111l46 -104q4 -10 -1 -18.5t-16 -8.5h-54q-12 0 -18 14l-44 112h-52v-107q0 -8 -5.5 -13.5t-13.5 -5.5h-49q-8 0 -13.5 5.5t-5.5 13.5zM364 368h79q18 0 29.5 12t11.5 29q0 18 -11.5 29.5t-29.5 11.5h-79v-82z
" />
    <glyph glyph-name="macron" unicode="&#xaf;" horiz-adv-x="414" 
d="M79 570q-8 0 -13.5 5t-5.5 13v34q0 19 19 19h256q19 0 19 -19v-34q0 -8 -5.5 -13t-13.5 -5h-256z" />
    <glyph glyph-name="degree" unicode="&#xb0;" horiz-adv-x="338" 
d="M169 440q-56 0 -95.5 39.5t-39.5 95.5t39.5 95.5t95.5 39.5t95.5 -39.5t39.5 -95.5t-39.5 -95.5t-95.5 -39.5zM169 524q19 0 34 15.5t15 35.5q0 19 -15 34t-34 15q-20 0 -35.5 -15t-15.5 -34q0 -20 15.5 -35.5t35.5 -15.5z" />
    <glyph glyph-name="plusminus" unicode="&#xb1;" 
d="M253 260v103h-150q-7 0 -13 5.5t-6 13.5v56q0 8 6 13.5t13 5.5h150v148q0 7 5.5 12.5t13.5 5.5h56q8 0 13.5 -5.5t5.5 -12.5v-148h150q7 0 12.5 -5.5t5.5 -13.5v-56q0 -8 -5.5 -13.5t-12.5 -5.5h-150v-103q0 -7 -5.5 -12.5t-13.5 -5.5h-56q-8 0 -13.5 5.5t-5.5 12.5z
M84 66v56q0 8 6 13.5t13 5.5h394q7 0 12.5 -5.5t5.5 -13.5v-56q0 -8 -5.5 -13.5t-12.5 -5.5h-394q-7 0 -13 5.5t-6 13.5z" />
    <glyph glyph-name="twosuperior" unicode="&#xb2;" horiz-adv-x="280" 
d="M37 504q-10 0 -10 9v17l110 126q25 28 25 50q0 15 -11 25t-29 10q-26 0 -44 -20q-9 -6 -16 3l-22 31q-9 12 3 21q41 34 94 34q47 0 76.5 -25.5t29.5 -66.5t-37 -86l-54 -64h80q9 0 9 -9v-46q0 -9 -9 -9h-195z" />
    <glyph glyph-name="threesuperior" unicode="&#xb3;" horiz-adv-x="278" 
d="M127 494q-58 0 -95 33q-8 8 -1 18l22 29q6 9 17 2l2 -2q3 -1 7.5 -3.5t10 -5t13 -4t14.5 -1.5q42 0 42 31q0 33 -47 33h-29q-15 0 -15 14v31q0 14 15 14h29q19 0 30 8.5t11 22.5q0 13 -10.5 21.5t-27.5 8.5q-21 0 -39 -16q-9 -5 -15 3l-24 29q-11 11 1 18q33 32 89 32
q48 0 78 -22.5t30 -60.5q0 -25 -15.5 -43t-35.5 -27v-1q60 -23 60 -76q0 -40 -33.5 -63t-83.5 -23z" />
    <glyph glyph-name="acute" unicode="&#xb4;" horiz-adv-x="302" 
d="M89 528q-19 -7 -26 6l-17 36q-6 11 6 19l163 97q18 12 26 -3l29 -51q9 -20 -6 -27z" />
    <glyph glyph-name="mu" unicode="&#xb5;" horiz-adv-x="548" 
d="M79 205v235q0 10 6.5 16t15.5 6h81q9 0 15.5 -6t6.5 -16v-235q0 -102 78 -102q35 0 55.5 25.5t26.5 60.5v251q0 13 5 17.5t20 4.5h78q9 0 15.5 -6t6.5 -16v-418q0 -9 -6.5 -15.5t-15.5 -6.5h-36q-16 0 -22 17l-13 39q-2 -2 -13.5 -14t-20 -18.5t-24.5 -16t-37.5 -14
t-47.5 -4.5t-49 5v-210q0 -9 -7 -15.5t-15 -6.5h-81q-8 0 -15 6.5t-7 15.5v421z" />
    <glyph glyph-name="paragraph" unicode="&#xb6;" horiz-adv-x="763" 
d="M249 281q-85 0 -146.5 61t-61.5 149q0 86 56.5 147.5t137.5 61.5l456 -1q7 0 13 -5.5t6 -13.5v-46q0 -8 -5.5 -13.5t-13.5 -5.5h-78v-834q0 -8 -5.5 -13.5t-13.5 -5.5h-54q-8 0 -13.5 6t-5.5 13v834h-136v-834q0 -7 -5.5 -13t-13.5 -6h-54q-8 0 -13.5 6t-5.5 13v500h-44z
" />
    <glyph glyph-name="periodcentered" unicode="&#xb7;" horiz-adv-x="265" 
d="M131 167q-36 0 -62.5 26.5t-26.5 62.5q0 38 26.5 65t62.5 27q38 0 65 -27t27 -65q0 -36 -27 -62.5t-65 -26.5z" />
    <glyph glyph-name="cedilla" unicode="&#xb8;" horiz-adv-x="247" 
d="M110 3h65l-41 -65q10 3 21 3q36 0 60.5 -23.5t24.5 -63.5q0 -46 -34 -73t-86 -27q-54 0 -84 25q-10 10 0 28l9 20q9 21 27 9q19 -16 43 -16q47 0 47 39q0 38 -46 38q-8 0 -15 -2t-14 -5t-9 -4q-7 -3 -14 4t-3 14z" />
    <glyph glyph-name="onesuperior" unicode="&#xb9;" horiz-adv-x="207" 
d="M92 504q-10 0 -10 9v193l-49 -4q-9 0 -9 9l-2 31q0 5 7 11l74 47h51q9 0 9 -9v-278q0 -9 -9 -9h-62z" />
    <glyph glyph-name="ordmasculine" unicode="&#xba;" horiz-adv-x="330" 
d="M166 394q-61 0 -94 42t-33 116q0 75 32.5 116.5t94.5 41.5q61 0 93 -41.5t32 -116.5t-32 -116.5t-93 -41.5zM166 464q44 0 44 88t-44 88t-44 -88t44 -88z" />
    <glyph glyph-name="guillemotright" unicode="&#xbb;" horiz-adv-x="487" 
d="M251 91l65 147l-68 139q-6 12 -2 21.5t17 9.5h57q11 0 18 -12l109 -148q8 -13 0 -24l-104 -155q-6 -8 -15 -8h-62q-12 0 -16.5 9t1.5 21zM66 61q-12 0 -16.5 9t1.5 21l65 147l-68 139q-6 12 -2 21.5t17 9.5h57q11 0 18 -12l109 -148q8 -13 0 -24l-104 -155q-6 -8 -15 -8
h-62z" />
    <glyph glyph-name="onequarter" unicode="&#xbc;" horiz-adv-x="694" 
d="M114 27l343 663q5 10 17 10h50q11 0 16.5 -8.5t0.5 -18.5l-345 -663q-5 -10 -17 -10h-48q-11 0 -16.5 8.5t-0.5 18.5zM116 404q-10 0 -10 9v193l-49 -4q-9 0 -9 9l-2 31q0 5 7 11l74 47h51q9 0 9 -9v-278q0 -9 -9 -9h-62zM376 65v51l163 177q3 3 8 3h41q9 0 9 -9v-170h40
q9 0 9 -8v-43q0 -9 -9 -9h-40v-48q0 -9 -9 -9h-56q-10 0 -10 9v48h-137q-9 0 -9 8zM449 116h74v83z" />
    <glyph glyph-name="onehalf" unicode="&#xbd;" horiz-adv-x="686" 
d="M114 27l343 663q5 10 17 10h50q11 0 16.5 -8.5t0.5 -18.5l-345 -663q-5 -10 -17 -10h-48q-11 0 -16.5 8.5t-0.5 18.5zM116 404q-10 0 -10 9v193l-49 -4q-9 0 -9 9l-2 31q0 5 7 11l74 47h51q9 0 9 -9v-278q0 -9 -9 -9h-62zM416 9v17l110 126q25 28 25 50q0 15 -11 25
t-29 10q-26 0 -44 -20q-9 -6 -16 3l-22 31q-9 12 3 21q41 34 94 34q47 0 76.5 -25.5t29.5 -66.5t-37 -86l-54 -64h80q9 0 9 -9v-46q0 -9 -9 -9h-195q-10 0 -10 9z" />
    <glyph glyph-name="threequarters" unicode="&#xbe;" horiz-adv-x="727" 
d="M150 394q-58 0 -95 33q-8 8 -1 18l22 29q6 9 17 2l3 -2q2 -1 6.5 -3.5t10 -5t13 -4t14.5 -1.5q42 0 42 31q0 33 -47 33h-29q-15 0 -15 14v31q0 14 15 14h29q19 0 30 8.5t11 22.5q0 13 -10.5 21.5t-27.5 8.5q-21 0 -39 -16q-9 -5 -15 3l-24 29q-11 11 1 18q33 32 89 32
q48 0 78 -22.5t30 -60.5q0 -25 -15.5 -43t-35.5 -27v-1q60 -23 60 -76q0 -40 -33.5 -63t-83.5 -23zM148 27l343 663q5 10 17 10h50q11 0 16.5 -8.5t0.5 -18.5l-345 -663q-5 -10 -17 -10h-48q-11 0 -16.5 8.5t-0.5 18.5zM410 65v51l163 177q3 3 8 3h41q9 0 9 -9v-170h40
q9 0 9 -8v-43q0 -9 -9 -9h-40v-48q0 -9 -9 -9h-56q-10 0 -10 9v48h-137q-9 0 -9 8zM483 116h74v83z" />
    <glyph glyph-name="questiondown" unicode="&#xbf;" horiz-adv-x="483" 
d="M261 307q-34 0 -58.5 24.5t-24.5 58.5t24.5 58t58.5 24t58 -24t24 -58t-24 -58.5t-58 -24.5zM48 -81q0 41 24 76t52 55t52 43t24 42v33q0 21 20 21h81q8 0 13.5 -5.5t5.5 -13.5v-42q0 -32 -21.5 -61.5t-48 -48.5t-48 -43.5t-21.5 -47.5q0 -28 22 -47.5t58 -19.5
q27 0 47.5 9t40 25.5t20.5 17.5q12 8 22 -1l47 -46q14 -12 0 -26q-3 -4 -8 -9.5t-24 -21t-40 -27t-54.5 -21t-69.5 -9.5q-80 0 -137 48t-57 120z" />
    <glyph glyph-name="Agrave" unicode="&#xc0;" horiz-adv-x="668" 
d="M19 0q-11 0 -16.5 8t-0.5 18l311 673q5 11 17 11h10q12 0 17 -11l308 -673q5 -10 -0.5 -18t-16.5 -8h-87q-19 0 -29 20l-49 108h-299l-49 -108q-8 -20 -29 -20h-87zM233 239h201l-100 220h-3zM404 768l-175 77q-17 8 -6 27l28 52q8 14 26 3l164 -98q12 -7 6 -19l-18 -35
q-7 -15 -25 -7z" />
    <glyph glyph-name="Aacute" unicode="&#xc1;" horiz-adv-x="668" 
d="M19 0q-11 0 -16.5 8t-0.5 18l311 673q5 11 17 11h10q12 0 17 -11l308 -673q5 -10 -0.5 -18t-16.5 -8h-87q-19 0 -29 20l-49 108h-299l-49 -108q-8 -20 -29 -20h-87zM233 239h201l-100 220h-3zM263 768q-18 -8 -25 7l-18 35q-6 12 6 19l164 98q18 11 26 -3l28 -52
q11 -19 -6 -27z" />
    <glyph glyph-name="Acircumflex" unicode="&#xc2;" horiz-adv-x="668" 
d="M19 0q-11 0 -16.5 8t-0.5 18l311 673q5 11 17 11h10q12 0 17 -11l308 -673q5 -10 -0.5 -18t-16.5 -8h-87q-19 0 -29 20l-49 108h-299l-49 -108q-8 -20 -29 -20h-87zM233 239h201l-100 220h-3zM236 766q-14 -8 -23 3l-26 37q-7 10 6 19l130 101q10 8 21 0l130 -101
q13 -9 6 -19l-26 -37q-9 -11 -23 -3l-97 61z" />
    <glyph glyph-name="Atilde" unicode="&#xc3;" horiz-adv-x="668" 
d="M19 0q-11 0 -16.5 8t-0.5 18l311 673q5 11 17 11h10q12 0 17 -11l308 -673q5 -10 -0.5 -18t-16.5 -8h-87q-19 0 -29 20l-49 108h-299l-49 -108q-8 -20 -29 -20h-87zM233 239h201l-100 220h-3zM213 789l-29 21q-12 9 -6 23q8 15 12.5 22t19 25.5t33 27.5t39.5 9
q28 0 59 -27.5t48 -27.5q12 0 21 9.5t13.5 19t13 15t17.5 -2.5l28 -20q13 -10 1 -31q-30 -52 -60 -67q-18 -9 -37 -9q-28 0 -61.5 28t-47.5 28q-15 0 -25 -15t-18 -25.5t-21 -2.5z" />
    <glyph glyph-name="Adieresis" unicode="&#xc4;" horiz-adv-x="668" 
d="M19 0q-11 0 -16.5 8t-0.5 18l311 673q5 11 17 11h10q12 0 17 -11l308 -673q5 -10 -0.5 -18t-16.5 -8h-87q-19 0 -29 20l-49 108h-299l-49 -108q-8 -20 -29 -20h-87zM233 239h201l-100 220h-3zM456 766q-31 0 -51.5 21t-20.5 52t20.5 51.5t51.5 20.5t52 -20.5t21 -51.5
t-21 -52t-52 -21zM209 766q-31 0 -51.5 21t-20.5 52t20.5 51.5t51.5 20.5t52 -20.5t21 -51.5t-21 -52t-52 -21z" />
    <glyph glyph-name="Aring" unicode="&#xc5;" horiz-adv-x="668" 
d="M19 0q-11 0 -16.5 8t-0.5 18l311 673q5 11 17 11h10q12 0 17 -11l308 -673q5 -10 -0.5 -18t-16.5 -8h-87q-19 0 -29 20l-49 108h-299l-49 -108q-8 -20 -29 -20h-87zM233 239h201l-100 220h-3zM333 754q-47 0 -80 33t-33 80t33 80t80 33t80 -33t33 -80t-33 -80t-80 -33z
M333 817q19 0 33.5 15t14.5 35q0 19 -14.5 33.5t-33.5 14.5q-20 0 -35 -14.5t-15 -33.5t15.5 -34.5t34.5 -15.5z" />
    <glyph glyph-name="AE" unicode="&#xc6;" horiz-adv-x="896" 
d="M3 0q-11 0 -14.5 8t2.5 18l401 643q15 24 25 28q7 3 19 3h395q8 0 13.5 -5.5t5.5 -13.5v-82q0 -8 -5.5 -13.5t-13.5 -5.5h-299v-164h250q8 0 13.5 -6t5.5 -13v-83q0 -8 -5.5 -13.5t-13.5 -5.5h-250v-175h299q8 0 13.5 -5.5t5.5 -13.5v-82q0 -8 -5.5 -13.5t-13.5 -5.5
h-408q-8 0 -13.5 5.5t-5.5 13.5v109h-210l-71 -113q-10 -15 -25 -15h-95zM264 239h140v226z" />
    <glyph glyph-name="Ccedilla" unicode="&#xc7;" horiz-adv-x="688" 
d="M44 349q0 150 105.5 255.5t255.5 105.5q138 0 242 -93q15 -14 1 -28l-61 -63q-12 -13 -25 0q-67 59 -154 59q-95 0 -159 -68.5t-64 -164.5q0 -95 64.5 -163t159.5 -68q83 0 153 57q13 12 25 0l62 -64q6 -6 5.5 -13.5t-6.5 -13.5q-98 -95 -238 -97l-33 -52q11 3 21 3
q36 0 60.5 -23.5t24.5 -63.5q0 -46 -34 -73t-86 -27q-54 0 -84 25q-10 10 0 28l9 20q9 21 27 9q19 -16 43 -16q47 0 47 39q0 38 -46 38q-8 0 -15 -2t-14 -5t-9 -4q-7 -3 -14 4t-3 14l44 90q-131 20 -217.5 120t-86.5 235z" />
    <glyph glyph-name="Egrave" unicode="&#xc8;" horiz-adv-x="576" 
d="M85 19v662q0 8 5.5 13.5t13.5 5.5h407q8 0 13.5 -5.5t5.5 -13.5v-82q0 -8 -5.5 -13.5t-13.5 -5.5h-296v-164h247q8 0 13.5 -6t5.5 -13v-83q0 -8 -5.5 -13.5t-13.5 -5.5h-247v-175h296q8 0 13.5 -5.5t5.5 -13.5v-82q0 -8 -5.5 -13.5t-13.5 -5.5h-407q-8 0 -13.5 5.5
t-5.5 13.5zM384 768l-175 77q-17 8 -6 27l28 52q8 14 26 3l164 -98q12 -7 6 -19l-18 -35q-7 -15 -25 -7z" />
    <glyph glyph-name="Eacute" unicode="&#xc9;" horiz-adv-x="576" 
d="M85 19v662q0 8 5.5 13.5t13.5 5.5h407q8 0 13.5 -5.5t5.5 -13.5v-82q0 -8 -5.5 -13.5t-13.5 -5.5h-296v-164h247q8 0 13.5 -6t5.5 -13v-83q0 -8 -5.5 -13.5t-13.5 -5.5h-247v-175h296q8 0 13.5 -5.5t5.5 -13.5v-82q0 -8 -5.5 -13.5t-13.5 -5.5h-407q-8 0 -13.5 5.5
t-5.5 13.5zM244 768q-18 -8 -25 7l-18 35q-6 12 6 19l164 98q18 11 26 -3l28 -52q11 -19 -6 -27z" />
    <glyph glyph-name="Ecircumflex" unicode="&#xca;" horiz-adv-x="576" 
d="M85 19v662q0 8 5.5 13.5t13.5 5.5h407q8 0 13.5 -5.5t5.5 -13.5v-82q0 -8 -5.5 -13.5t-13.5 -5.5h-296v-164h247q8 0 13.5 -6t5.5 -13v-83q0 -8 -5.5 -13.5t-13.5 -5.5h-247v-175h296q8 0 13.5 -5.5t5.5 -13.5v-82q0 -8 -5.5 -13.5t-13.5 -5.5h-407q-8 0 -13.5 5.5
t-5.5 13.5zM211 766q-14 -8 -23 3l-26 37q-7 10 6 19l130 101q10 8 21 0l130 -101q13 -9 6 -19l-26 -37q-9 -11 -23 -3l-97 61z" />
    <glyph glyph-name="Edieresis" unicode="&#xcb;" horiz-adv-x="576" 
d="M85 19v662q0 8 5.5 13.5t13.5 5.5h407q8 0 13.5 -5.5t5.5 -13.5v-82q0 -8 -5.5 -13.5t-13.5 -5.5h-296v-164h247q8 0 13.5 -6t5.5 -13v-83q0 -8 -5.5 -13.5t-13.5 -5.5h-247v-175h296q8 0 13.5 -5.5t5.5 -13.5v-82q0 -8 -5.5 -13.5t-13.5 -5.5h-407q-8 0 -13.5 5.5
t-5.5 13.5zM436 766q-31 0 -51.5 21t-20.5 52t20.5 51.5t51.5 20.5t52 -20.5t21 -51.5t-21 -52t-52 -21zM189 766q-31 0 -51.5 21t-20.5 52t20.5 51.5t51.5 20.5t52 -20.5t21 -51.5t-21 -52t-52 -21z" />
    <glyph glyph-name="Igrave" unicode="&#xcc;" horiz-adv-x="301" 
d="M85 19v662q0 7 5.5 13t13.5 6h93q7 0 13 -6t6 -13v-662q0 -7 -6 -13t-13 -6h-93q-8 0 -13.5 6t-5.5 13zM220 768l-175 77q-17 8 -6 27l28 52q8 14 26 3l164 -98q12 -7 6 -19l-18 -35q-7 -15 -25 -7z" />
    <glyph glyph-name="Iacute" unicode="&#xcd;" horiz-adv-x="301" 
d="M85 19v662q0 7 5.5 13t13.5 6h93q7 0 13 -6t6 -13v-662q0 -7 -6 -13t-13 -6h-93q-8 0 -13.5 6t-5.5 13zM80 768q-18 -8 -25 7l-18 35q-6 12 6 19l164 98q18 11 26 -3l28 -52q11 -19 -6 -27z" />
    <glyph glyph-name="Icircumflex" unicode="&#xce;" horiz-adv-x="301" 
d="M85 19v662q0 7 5.5 13t13.5 6h93q7 0 13 -6t6 -13v-662q0 -7 -6 -13t-13 -6h-93q-8 0 -13.5 6t-5.5 13zM51 766q-14 -8 -23 3l-26 37q-7 10 6 19l130 101q10 8 21 0l130 -101q13 -9 6 -19l-26 -37q-9 -11 -23 -3l-97 61z" />
    <glyph glyph-name="Idieresis" unicode="&#xcf;" horiz-adv-x="301" 
d="M85 19v662q0 7 5.5 13t13.5 6h93q7 0 13 -6t6 -13v-662q0 -7 -6 -13t-13 -6h-93q-8 0 -13.5 6t-5.5 13zM273 766q-31 0 -51.5 21t-20.5 52t20.5 51.5t51.5 20.5t52 -20.5t21 -51.5t-21 -52t-52 -21zM26 766q-31 0 -51.5 21t-20.5 52t20.5 51.5t51.5 20.5t52 -20.5
t21 -51.5t-21 -52t-52 -21z" />
    <glyph glyph-name="Eth" unicode="&#xd0;" horiz-adv-x="735" 
d="M85 19v302h-29q-7 0 -12.5 5.5t-5.5 13.5v13q0 8 5.5 13.5t12.5 5.5h29v309q0 8 5.5 13.5t12.5 5.5h237q145 0 248 -102.5t103 -246.5q0 -145 -103 -248t-248 -103h-237q-7 0 -12.5 5.5t-5.5 13.5zM214 122h114q97 0 161 65.5t64 163.5t-64 163t-161 65h-114v-207h165
q8 0 13.5 -5.5t5.5 -13.5v-14q0 -8 -5.5 -13t-13.5 -5h-165v-199z" />
    <glyph glyph-name="Ntilde" unicode="&#xd1;" horiz-adv-x="761" 
d="M85 19v673q0 7 5.5 12.5t13.5 5.5h15q10 0 17 -7l408 -435h2v413q0 8 5.5 13.5t13.5 5.5h92q7 0 13 -6t6 -13v-673q0 -7 -5.5 -12.5t-13.5 -5.5h-14q-10 0 -17 7l-410 452h-2v-430q0 -8 -5.5 -13.5t-13.5 -5.5h-91q-8 0 -13.5 6t-5.5 13zM260 789l-29 21q-12 9 -6 23
q8 15 12.5 22t19 25.5t33 27.5t39.5 9q28 0 59 -27.5t48 -27.5q12 0 21 9.5t13.5 19t13 15t17.5 -2.5l28 -20q13 -10 1 -31q-30 -52 -60 -67q-18 -9 -37 -9q-28 0 -61.5 28t-47.5 28q-15 0 -25 -15t-18 -25.5t-21 -2.5z" />
    <glyph glyph-name="Ograve" unicode="&#xd2;" horiz-adv-x="807" 
d="M44 349q0 150 104.5 255.5t254.5 105.5t255 -105.5t105 -255.5t-105 -254.5t-255 -104.5t-254.5 104.5t-104.5 254.5zM174 349q0 -95 67 -162t162 -67t162.5 67.5t67.5 161.5q0 95 -68 163t-162 68t-161.5 -68t-67.5 -163zM476 768l-175 77q-17 8 -6 27l28 52q8 14 26 3
l164 -98q12 -7 6 -19l-18 -35q-7 -15 -25 -7z" />
    <glyph glyph-name="Oacute" unicode="&#xd3;" horiz-adv-x="807" 
d="M44 349q0 150 104.5 255.5t254.5 105.5t255 -105.5t105 -255.5t-105 -254.5t-255 -104.5t-254.5 104.5t-104.5 254.5zM174 349q0 -95 67 -162t162 -67t162.5 67.5t67.5 161.5q0 95 -68 163t-162 68t-161.5 -68t-67.5 -163zM334 768q-18 -8 -25 7l-18 35q-6 12 6 19
l164 98q18 11 26 -3l28 -52q11 -19 -6 -27z" />
    <glyph glyph-name="Ocircumflex" unicode="&#xd4;" horiz-adv-x="807" 
d="M44 349q0 150 104.5 255.5t254.5 105.5t255 -105.5t105 -255.5t-105 -254.5t-255 -104.5t-254.5 104.5t-104.5 254.5zM174 349q0 -95 67 -162t162 -67t162.5 67.5t67.5 161.5q0 95 -68 163t-162 68t-161.5 -68t-67.5 -163zM305 766q-14 -8 -23 3l-26 37q-7 10 6 19
l130 101q10 8 21 0l130 -101q13 -9 6 -19l-26 -37q-9 -11 -23 -3l-97 61z" />
    <glyph glyph-name="Otilde" unicode="&#xd5;" horiz-adv-x="807" 
d="M44 349q0 150 104.5 255.5t254.5 105.5t255 -105.5t105 -255.5t-105 -254.5t-255 -104.5t-254.5 104.5t-104.5 254.5zM174 349q0 -95 67 -162t162 -67t162.5 67.5t67.5 161.5q0 95 -68 163t-162 68t-161.5 -68t-67.5 -163zM284 789l-29 21q-12 9 -6 23q8 15 12.5 22
t19 25.5t33 27.5t39.5 9q28 0 59 -27.5t48 -27.5q12 0 21 9.5t13.5 19t13 15t17.5 -2.5l28 -20q13 -10 1 -31q-30 -52 -60 -67q-18 -9 -37 -9q-28 0 -61.5 28t-47.5 28q-15 0 -25 -15t-18 -25.5t-21 -2.5z" />
    <glyph glyph-name="Odieresis" unicode="&#xd6;" horiz-adv-x="807" 
d="M44 349q0 150 104.5 255.5t254.5 105.5t255 -105.5t105 -255.5t-105 -254.5t-255 -104.5t-254.5 104.5t-104.5 254.5zM174 349q0 -95 67 -162t162 -67t162.5 67.5t67.5 161.5q0 95 -68 163t-162 68t-161.5 -68t-67.5 -163zM526 766q-31 0 -51.5 21t-20.5 52t20.5 51.5
t51.5 20.5t52 -20.5t21 -51.5t-21 -52t-52 -21zM279 766q-31 0 -51.5 21t-20.5 52t20.5 51.5t51.5 20.5t52 -20.5t21 -51.5t-21 -52t-52 -21z" />
    <glyph glyph-name="multiply" unicode="&#xd7;" 
d="M168 175l-40 40q-13 13 0 26l106 106l-106 106q-5 5 -5 13.5t5 13.5l39 40q5 5 13.5 5t13.5 -5l106 -106l106 107q12 13 26 -1l40 -40q14 -14 1 -26l-106 -107l106 -106q12 -14 -1 -27l-40 -39q-14 -13 -26 -1l-106 107l-106 -106q-13 -13 -26 0z" />
    <glyph glyph-name="Oslash" unicode="&#xd8;" horiz-adv-x="806" 
d="M66 23q-5 5 -5.5 13t4.5 13l65 64q-86 100 -86 236q0 150 104.5 255.5t254.5 105.5q133 0 236 -88l68 67q13 13 26 0l10 -10q12 -12 0 -26l-68 -68q88 -103 88 -235q0 -150 -105 -255t-255 -105q-138 0 -236 87l-65 -65q-12 -12 -26 1zM224 207l323 322q-66 51 -144 51
q-94 0 -161.5 -68t-67.5 -163q0 -79 50 -142zM260 170q63 -50 143 -50q95 0 162.5 68t67.5 162q0 81 -51 142z" />
    <glyph glyph-name="Ugrave" unicode="&#xd9;" horiz-adv-x="713" 
d="M78 257v424q0 7 6 13t13 6h95q8 0 13.5 -5.5t5.5 -13.5v-417q0 -64 40 -104t105 -40t105.5 40t40.5 103v418q0 8 5.5 13.5t13.5 5.5h95q8 0 13.5 -6t5.5 -13v-424q0 -114 -80 -190.5t-199 -76.5q-118 0 -198 76.5t-80 190.5zM427 768l-175 77q-17 8 -6 27l28 52
q8 14 26 3l164 -98q12 -7 6 -19l-18 -35q-7 -15 -25 -7z" />
    <glyph glyph-name="Uacute" unicode="&#xda;" horiz-adv-x="713" 
d="M78 257v424q0 7 6 13t13 6h95q8 0 13.5 -5.5t5.5 -13.5v-417q0 -64 40 -104t105 -40t105.5 40t40.5 103v418q0 8 5.5 13.5t13.5 5.5h95q8 0 13.5 -6t5.5 -13v-424q0 -114 -80 -190.5t-199 -76.5q-118 0 -198 76.5t-80 190.5zM289 768q-18 -8 -25 7l-18 35q-6 12 6 19
l164 98q18 11 26 -3l28 -52q11 -19 -6 -27z" />
    <glyph glyph-name="Ucircumflex" unicode="&#xdb;" horiz-adv-x="713" 
d="M78 257v424q0 7 6 13t13 6h95q8 0 13.5 -5.5t5.5 -13.5v-417q0 -64 40 -104t105 -40t105.5 40t40.5 103v418q0 8 5.5 13.5t13.5 5.5h95q8 0 13.5 -6t5.5 -13v-424q0 -114 -80 -190.5t-199 -76.5q-118 0 -198 76.5t-80 190.5zM260 766q-14 -8 -23 3l-26 37q-7 10 6 19
l130 101q10 8 21 0l130 -101q13 -9 6 -19l-26 -37q-9 -11 -23 -3l-97 61z" />
    <glyph glyph-name="Udieresis" unicode="&#xdc;" horiz-adv-x="713" 
d="M78 257v424q0 7 6 13t13 6h95q8 0 13.5 -5.5t5.5 -13.5v-417q0 -64 40 -104t105 -40t105.5 40t40.5 103v418q0 8 5.5 13.5t13.5 5.5h95q8 0 13.5 -6t5.5 -13v-424q0 -114 -80 -190.5t-199 -76.5q-118 0 -198 76.5t-80 190.5zM480 766q-31 0 -51.5 21t-20.5 52t20.5 51.5
t51.5 20.5t52 -20.5t21 -51.5t-21 -52t-52 -21zM233 766q-31 0 -51.5 21t-20.5 52t20.5 51.5t51.5 20.5t52 -20.5t21 -51.5t-21 -52t-52 -21z" />
    <glyph glyph-name="Yacute" unicode="&#xdd;" horiz-adv-x="593" 
d="M231 19v318l-228 334q-6 10 -1 19.5t17 9.5h102q9 0 16 -9l160 -230l160 230q7 9 16 9h103q12 0 17 -9.5t-1 -19.5l-231 -333v-319q0 -7 -5.5 -13t-13.5 -6h-92q-8 0 -13.5 5.5t-5.5 13.5zM227 768q-18 -8 -25 7l-18 35q-6 12 6 19l164 98q18 11 26 -3l28 -52
q11 -19 -6 -27z" />
    <glyph glyph-name="Thorn" unicode="&#xde;" horiz-adv-x="589" 
d="M85 19v662q0 8 5.5 13.5t13.5 5.5h92q8 0 13.5 -6t5.5 -13v-108h124q92 1 158 -64.5t66 -156.5q0 -93 -65.5 -159t-157.5 -66h-125v-108q0 -7 -5.5 -13t-13.5 -6h-92q-8 0 -13.5 5.5t-5.5 13.5zM215 249h116q42 0 72.5 30t30.5 74q0 41 -30.5 69t-72.5 28h-116v-201z" />
    <glyph glyph-name="germandbls" unicode="&#xdf;" horiz-adv-x="567" 
d="M64 21v389q0 146 65.5 223t184.5 77q71 0 124.5 -50t53.5 -127q0 -46 -36 -103t-36 -78q0 -15 17.5 -34t38.5 -36.5t38.5 -50.5t17.5 -73q0 -84 -52.5 -126.5t-125.5 -42.5q-45 0 -48 22l-10 71q-1 8 4.5 15t14.5 6q32 -2 58 12.5t26 43.5q0 23 -17 44.5t-38 36.5
t-38 39.5t-17 52.5q0 37 37.5 95.5t37.5 103.5q0 26 -19 45.5t-45 19.5q-111 0 -111 -188v-387q0 -8 -6.5 -14.5t-14.5 -6.5h-83q-8 0 -14.5 6.5t-6.5 14.5z" />
    <glyph glyph-name="agrave" unicode="&#xe0;" horiz-adv-x="482" 
d="M32 147q0 63 49.5 104t134.5 41q21 0 43 -3t34 -7l12 -3q2 45 -13 66t-51 21q-73 0 -130 -17q-22 -7 -26 20l-10 52q-5 22 15 28q14 6 62 14.5t96 8.5q102 0 138 -49t36 -152v-249q0 -9 -6.5 -15.5t-15.5 -6.5h-34q-13 0 -20 16l-13 31q-60 -58 -145 -58q-70 0 -113 42.5
t-43 115.5zM152 147q0 -30 17.5 -47.5t49.5 -17.5q28 0 53 17t30 32v68q-31 14 -68 14q-39 0 -60.5 -17.5t-21.5 -48.5zM333 528l-175 77q-16 8 -6 27l28 51q8 15 26 3l164 -97q12 -6 6 -19l-18 -36q-6 -14 -25 -6z" />
    <glyph glyph-name="aacute" unicode="&#xe1;" horiz-adv-x="482" 
d="M32 147q0 63 49.5 104t134.5 41q21 0 43 -3t34 -7l12 -3q2 45 -13 66t-51 21q-73 0 -130 -17q-22 -7 -26 20l-10 52q-5 22 15 28q14 6 62 14.5t96 8.5q102 0 138 -49t36 -152v-249q0 -9 -6.5 -15.5t-15.5 -6.5h-34q-13 0 -20 16l-13 31q-60 -58 -145 -58q-70 0 -113 42.5
t-43 115.5zM152 147q0 -30 17.5 -47.5t49.5 -17.5q28 0 53 17t30 32v68q-31 14 -68 14q-39 0 -60.5 -17.5t-21.5 -48.5zM205 528q-19 -7 -26 6l-17 36q-6 11 6 19l163 97q18 12 26 -3l29 -51q9 -20 -6 -27z" />
    <glyph glyph-name="acircumflex" unicode="&#xe2;" horiz-adv-x="482" 
d="M32 147q0 63 49.5 104t134.5 41q21 0 43 -3t34 -7l12 -3q2 45 -13 66t-51 21q-73 0 -130 -17q-22 -7 -26 20l-10 52q-5 22 15 28q14 6 62 14.5t96 8.5q102 0 138 -49t36 -152v-249q0 -9 -6.5 -15.5t-15.5 -6.5h-34q-13 0 -20 16l-13 31q-60 -58 -145 -58q-70 0 -113 42.5
t-43 115.5zM152 147q0 -30 17.5 -47.5t49.5 -17.5q28 0 53 17t30 32v68q-31 14 -68 14q-39 0 -60.5 -17.5t-21.5 -48.5zM125 529l-26 37q-7 10 6 19l130 101q10 8 21 0l130 -101q13 -9 6 -19l-26 -37q-9 -11 -23 -3l-97 61l-98 -61q-14 -8 -23 3z" />
    <glyph glyph-name="atilde" unicode="&#xe3;" horiz-adv-x="482" 
d="M32 147q0 63 49.5 104t134.5 41q21 0 43 -3t34 -7l12 -3q2 45 -13 66t-51 21q-73 0 -130 -17q-22 -7 -26 20l-10 52q-5 22 15 28q14 6 62 14.5t96 8.5q102 0 138 -49t36 -152v-249q0 -9 -6.5 -15.5t-15.5 -6.5h-34q-13 0 -20 16l-13 31q-60 -58 -145 -58q-70 0 -113 42.5
t-43 115.5zM152 147q0 -30 17.5 -47.5t49.5 -17.5q28 0 53 17t30 32v68q-31 14 -68 14q-39 0 -60.5 -17.5t-21.5 -48.5zM128 562l-29 21q-12 9 -6 23q8 15 12.5 22t19 25.5t33 27.5t39.5 9q28 0 59 -27.5t48 -27.5q12 0 21 9.5t13.5 19t13 15t17.5 -2.5l28 -20q13 -10 1 -31
q-30 -52 -60 -67q-18 -9 -37 -9q-28 0 -61.5 28t-47.5 28q-15 0 -25 -15t-18 -25.5t-21 -2.5z" />
    <glyph glyph-name="adieresis" unicode="&#xe4;" horiz-adv-x="482" 
d="M32 147q0 63 49.5 104t134.5 41q21 0 43 -3t34 -7l12 -3q2 45 -13 66t-51 21q-73 0 -130 -17q-22 -7 -26 20l-10 52q-5 22 15 28q14 6 62 14.5t96 8.5q102 0 138 -49t36 -152v-249q0 -9 -6.5 -15.5t-15.5 -6.5h-34q-13 0 -20 16l-13 31q-60 -58 -145 -58q-70 0 -113 42.5
t-43 115.5zM152 147q0 -30 17.5 -47.5t49.5 -17.5q28 0 53 17t30 32v68q-31 14 -68 14q-39 0 -60.5 -17.5t-21.5 -48.5zM348 542q-31 0 -51.5 21t-20.5 52t20.5 51.5t51.5 20.5t52 -20.5t21 -51.5t-21 -52t-52 -21zM147 542q-31 0 -51.5 21t-20.5 52t20.5 51.5t51.5 20.5
t52 -20.5t21 -51.5t-21 -52t-52 -21z" />
    <glyph glyph-name="aring" unicode="&#xe5;" horiz-adv-x="482" 
d="M32 147q0 63 49.5 104t134.5 41q21 0 43 -3t34 -7l12 -3q2 45 -13 66t-51 21q-73 0 -130 -17q-22 -7 -26 20l-10 52q-5 22 15 28q14 6 62 14.5t96 8.5q102 0 138 -49t36 -152v-249q0 -9 -6.5 -15.5t-15.5 -6.5h-34q-13 0 -20 16l-13 31q-60 -58 -145 -58q-70 0 -113 42.5
t-43 115.5zM152 147q0 -30 17.5 -47.5t49.5 -17.5q28 0 53 17t30 32v68q-31 14 -68 14q-39 0 -60.5 -17.5t-21.5 -48.5zM250 508q-47 0 -80 33t-33 80t33 80t80 33t80 -33t33 -80t-33 -80t-80 -33zM250 571q19 0 33.5 15t14.5 35q0 19 -14 33.5t-34 14.5t-35 -14.5
t-15 -33.5t15 -34.5t35 -15.5z" />
    <glyph glyph-name="ae" unicode="&#xe6;" horiz-adv-x="773" 
d="M33 147q0 63 48.5 104t130.5 41q21 0 43.5 -3t34.5 -6l12 -3q-2 48 -14.5 67t-49.5 19q-70 0 -125 -17q-9 -3 -16.5 2t-9.5 14l-12 62q-3 17 18 23q85 22 156 22q100 0 139 -50q60 50 139 50q90 0 153.5 -60.5t63.5 -153.5q0 -51 -26 -51h-294q0 -40 32 -73.5t84 -33.5
q57 0 101 36q16 13 27 -2l39 -51q13 -19 -2 -30q-66 -64 -177 -64q-104 0 -172 81q-20 -29 -64 -55t-101 -26q-71 0 -114.5 42.5t-43.5 115.5zM153 147q0 -30 17.5 -47.5t49.5 -17.5q28 0 53 17t30 32v68q-31 14 -68 14q-39 0 -60.5 -17.5t-21.5 -48.5zM431 289h187
q-2 34 -26.5 57t-62.5 23q-41 0 -67 -22.5t-31 -57.5z" />
    <glyph glyph-name="ccedilla" unicode="&#xe7;" horiz-adv-x="492" 
d="M36 231q0 102 71 171.5t174 69.5q99 0 172 -78q14 -14 -5 -33l-42 -46q-13 -14 -30 3q-42 40 -92 40q-53 0 -87.5 -36.5t-34.5 -90.5q0 -55 34 -91.5t87 -36.5q54 0 98 51q5 6 14 7t15 -4l45 -38q19 -17 8 -33q-54 -86 -157 -96l-33 -52q11 3 21 3q36 0 60.5 -23.5
t24.5 -63.5q0 -46 -34 -73t-86 -27q-54 0 -84 25q-10 10 0 28l9 20q9 21 27 9q19 -16 43 -16q47 0 47 39q0 38 -46 38q-8 0 -15 -2t-14 -5t-9 -4q-7 -3 -14 4t-3 14l43 88q-89 12 -148 79t-59 160z" />
    <glyph glyph-name="egrave" unicode="&#xe8;" horiz-adv-x="511" 
d="M36 231q0 100 66 170.5t167 70.5q91 0 151.5 -60.5t60.5 -153.5q0 -16 -2 -30q-1 -9 -7.5 -15t-14.5 -6h-296q1 -44 33.5 -75.5t81.5 -31.5q57 0 99 34q19 16 30 0l39 -52q14 -16 -2 -30q-74 -63 -172 -63q-102 0 -168 70.5t-66 171.5zM168 289h187q-2 34 -26.5 57
t-62.5 23q-41 0 -67 -22.5t-31 -57.5zM361 528l-175 77q-16 8 -6 27l28 51q8 15 26 3l164 -97q12 -6 6 -19l-18 -36q-6 -14 -25 -6z" />
    <glyph glyph-name="eacute" unicode="&#xe9;" horiz-adv-x="511" 
d="M36 231q0 100 66 170.5t167 70.5q91 0 151.5 -60.5t60.5 -153.5q0 -16 -2 -30q-1 -9 -7.5 -15t-14.5 -6h-296q1 -44 33.5 -75.5t81.5 -31.5q57 0 99 34q19 16 30 0l39 -52q14 -16 -2 -30q-74 -63 -172 -63q-102 0 -168 70.5t-66 171.5zM168 289h187q-2 34 -26.5 57
t-62.5 23q-41 0 -67 -22.5t-31 -57.5zM210 528q-19 -7 -26 6l-17 36q-6 11 6 19l163 97q18 12 26 -3l29 -51q9 -20 -6 -27z" />
    <glyph glyph-name="ecircumflex" unicode="&#xea;" horiz-adv-x="511" 
d="M36 231q0 100 66 170.5t167 70.5q91 0 151.5 -60.5t60.5 -153.5q0 -16 -2 -30q-1 -9 -7.5 -15t-14.5 -6h-296q1 -44 33.5 -75.5t81.5 -31.5q57 0 99 34q19 16 30 0l39 -52q14 -16 -2 -30q-74 -63 -172 -63q-102 0 -168 70.5t-66 171.5zM168 289h187q-2 34 -26.5 57
t-62.5 23q-41 0 -67 -22.5t-31 -57.5zM149 529l-26 37q-7 10 6 19l130 101q10 8 21 0l130 -101q13 -9 6 -19l-26 -37q-9 -11 -23 -3l-97 61l-98 -61q-14 -8 -23 3z" />
    <glyph glyph-name="edieresis" unicode="&#xeb;" horiz-adv-x="511" 
d="M36 231q0 100 66 170.5t167 70.5q91 0 151.5 -60.5t60.5 -153.5q0 -16 -2 -30q-1 -9 -7.5 -15t-14.5 -6h-296q1 -44 33.5 -75.5t81.5 -31.5q57 0 99 34q19 16 30 0l39 -52q14 -16 -2 -30q-74 -63 -172 -63q-102 0 -168 70.5t-66 171.5zM168 289h187q-2 34 -26.5 57
t-62.5 23q-41 0 -67 -22.5t-31 -57.5zM372 542q-31 0 -51.5 21t-20.5 52t20.5 51.5t51.5 20.5t52 -20.5t21 -51.5t-21 -52t-52 -21zM171 542q-31 0 -51.5 21t-20.5 52t20.5 51.5t51.5 20.5t52 -20.5t21 -51.5t-21 -52t-52 -21z" />
    <glyph glyph-name="igrave" unicode="&#xec;" horiz-adv-x="253" 
d="M64 22v418q0 9 6.5 15.5t15.5 6.5h81q9 0 15.5 -6.5t6.5 -15.5v-418q0 -9 -7 -15.5t-15 -6.5h-81q-8 0 -15 6.5t-7 15.5zM208 528l-175 77q-16 8 -6 27l28 51q8 15 26 3l164 -97q12 -6 6 -19l-18 -36q-6 -14 -25 -6z" />
    <glyph glyph-name="iacute" unicode="&#xed;" horiz-adv-x="253" 
d="M64 22v418q0 9 6.5 15.5t15.5 6.5h81q9 0 15.5 -6.5t6.5 -15.5v-418q0 -9 -7 -15.5t-15 -6.5h-81q-8 0 -15 6.5t-7 15.5zM66 528q-19 -7 -26 6l-17 36q-6 11 6 19l163 97q18 12 26 -3l29 -51q9 -20 -6 -27z" />
    <glyph glyph-name="icircumflex" unicode="&#xee;" horiz-adv-x="253" 
d="M64 22v418q0 9 6.5 15.5t15.5 6.5h81q9 0 15.5 -6.5t6.5 -15.5v-418q0 -9 -7 -15.5t-15 -6.5h-81q-8 0 -15 6.5t-7 15.5zM13 529l-26 37q-7 10 6 19l130 101q10 8 21 0l130 -101q13 -9 6 -19l-26 -37q-9 -11 -23 -3l-97 61l-98 -61q-14 -8 -23 3z" />
    <glyph glyph-name="idieresis" unicode="&#xef;" horiz-adv-x="253" 
d="M64 22v418q0 9 6.5 15.5t15.5 6.5h81q9 0 15.5 -6.5t6.5 -15.5v-418q0 -9 -7 -15.5t-15 -6.5h-81q-8 0 -15 6.5t-7 15.5zM232 542q-31 0 -51.5 21t-20.5 52t20.5 51.5t51.5 20.5t52 -20.5t21 -51.5t-21 -52t-52 -21zM31 542q-31 0 -51.5 21t-20.5 52t20.5 51.5t51.5 20.5
t52 -20.5t21 -51.5t-21 -52t-52 -21z" />
    <glyph glyph-name="eth" unicode="&#xf0;" horiz-adv-x="559" 
d="M37 226q0 104 63 163.5t147 59.5q33 0 67.5 -9.5t49.5 -19.5q-21 74 -108 136l-83 -48q-17 -9 -26 6l-7 13q-10 17 6 26l60 34q-31 18 -68 31q-28 8 -19 30l24 61q6 20 29 14q75 -29 141 -73l71 41q18 9 27 -8l7 -11q9 -19 -6 -27l-54 -31q157 -132 157 -340
q0 -122 -64.5 -203t-180.5 -81q-95 0 -164 69.5t-69 166.5zM153 228q0 -49 35 -85t83 -36q58 0 89 46t31 106q-10 33 -41.5 61t-77.5 28q-49 0 -84 -35t-35 -85z" />
    <glyph glyph-name="ntilde" unicode="&#xf1;" horiz-adv-x="553" 
d="M64 22v418q0 9 6.5 15.5t15.5 6.5h38q14 0 19 -14l17 -43q60 67 149 67q185 0 185 -211v-239q0 -9 -7 -15.5t-15 -6.5h-81q-9 0 -15.5 6.5t-6.5 15.5v239q0 97 -80 97q-75 0 -100 -72v-264q0 -13 -6 -17.5t-23 -4.5h-74q-8 0 -15 6.5t-7 15.5zM173 562l-29 21
q-12 9 -6 23q8 15 12.5 22t19 25.5t33 27.5t39.5 9q28 0 59 -27.5t48 -27.5q12 0 21 9.5t13.5 19t13 15t17.5 -2.5l28 -20q13 -10 1 -31q-30 -52 -60 -67q-18 -9 -37 -9q-28 0 -61.5 28t-47.5 28q-15 0 -25 -15t-18 -25.5t-21 -2.5z" />
    <glyph glyph-name="ograve" unicode="&#xf2;" horiz-adv-x="544" 
d="M36 232q0 98 69.5 169t166.5 71q98 0 167.5 -71t69.5 -169q0 -99 -69.5 -171t-167.5 -72q-97 0 -166.5 72t-69.5 171zM152 232q0 -53 35 -91t85 -38t85.5 38t35.5 91q0 52 -35.5 89t-85.5 37t-85 -36.5t-35 -89.5zM345 528l-175 77q-16 8 -6 27l28 51q8 15 26 3l164 -97
q12 -6 6 -19l-18 -36q-6 -14 -25 -6z" />
    <glyph glyph-name="oacute" unicode="&#xf3;" horiz-adv-x="544" 
d="M36 232q0 98 69.5 169t166.5 71q98 0 167.5 -71t69.5 -169q0 -99 -69.5 -171t-167.5 -72q-97 0 -166.5 72t-69.5 171zM152 232q0 -53 35 -91t85 -38t85.5 38t35.5 91q0 52 -35.5 89t-85.5 37t-85 -36.5t-35 -89.5zM204 528q-19 -7 -26 6l-17 36q-6 11 6 19l163 97
q18 12 26 -3l29 -51q9 -20 -6 -27z" />
    <glyph glyph-name="ocircumflex" unicode="&#xf4;" horiz-adv-x="544" 
d="M36 232q0 98 69.5 169t166.5 71q98 0 167.5 -71t69.5 -169q0 -99 -69.5 -171t-167.5 -72q-97 0 -166.5 72t-69.5 171zM152 232q0 -53 35 -91t85 -38t85.5 38t35.5 91q0 52 -35.5 89t-85.5 37t-85 -36.5t-35 -89.5zM152 529l-26 37q-7 10 6 19l130 101q10 8 21 0l130 -101
q13 -9 6 -19l-26 -37q-9 -11 -23 -3l-97 61l-98 -61q-14 -8 -23 3z" />
    <glyph glyph-name="otilde" unicode="&#xf5;" horiz-adv-x="544" 
d="M36 232q0 98 69.5 169t166.5 71q98 0 167.5 -71t69.5 -169q0 -99 -69.5 -171t-167.5 -72q-97 0 -166.5 72t-69.5 171zM152 232q0 -53 35 -91t85 -38t85.5 38t35.5 91q0 52 -35.5 89t-85.5 37t-85 -36.5t-35 -89.5zM153 562l-29 21q-12 9 -6 23q8 15 12.5 22t19 25.5
t33 27.5t39.5 9q28 0 59 -27.5t48 -27.5q12 0 21 9.5t13.5 19t13 15t17.5 -2.5l28 -20q13 -10 1 -31q-30 -52 -60 -67q-18 -9 -37 -9q-28 0 -61.5 28t-47.5 28q-15 0 -25 -15t-18 -25.5t-21 -2.5z" />
    <glyph glyph-name="odieresis" unicode="&#xf6;" horiz-adv-x="544" 
d="M36 232q0 98 69.5 169t166.5 71q98 0 167.5 -71t69.5 -169q0 -99 -69.5 -171t-167.5 -72q-97 0 -166.5 72t-69.5 171zM152 232q0 -53 35 -91t85 -38t85.5 38t35.5 91q0 52 -35.5 89t-85.5 37t-85 -36.5t-35 -89.5zM373 542q-31 0 -51.5 21t-20.5 52t20.5 51.5t51.5 20.5
t52 -20.5t21 -51.5t-21 -52t-52 -21zM172 542q-31 0 -51.5 21t-20.5 52t20.5 51.5t51.5 20.5t52 -20.5t21 -51.5t-21 -52t-52 -21z" />
    <glyph glyph-name="divide" unicode="&#xf7;" 
d="M297 471q-28 0 -48.5 20.5t-20.5 48.5t20 48.5t49 20.5t49 -20.5t20 -48.5t-20.5 -48.5t-48.5 -20.5zM103 299q-7 0 -13 5.5t-6 13.5v56q0 8 6 13.5t13 5.5h394q7 0 12.5 -5.5t5.5 -13.5v-56q0 -8 -5.5 -13.5t-12.5 -5.5h-394zM228 160q0 28 20 48t48 20q29 0 49 -20
t20 -48t-20.5 -48.5t-48.5 -20.5t-48 20t-20 49z" />
    <glyph glyph-name="oslash" unicode="&#xf8;" horiz-adv-x="544" 
d="M36 232q0 98 69.5 169t166.5 71q86 0 154 -58l15 15q5 7 14 6.5t14 -6.5l11 -11q15 -14 0 -29l-17 -17q46 -63 46 -140q0 -99 -69.5 -171t-167.5 -72q-76 0 -139 47l-22 -22q-6 -5 -15 -5t-15 6l-10 11q-15 15 -1 29l21 21q-55 70 -55 156zM152 232q0 -39 21 -73l172 173
q-33 26 -73 26q-50 0 -85 -36.5t-35 -89.5zM393 232q0 28 -13 56l-166 -169q27 -16 58 -16q50 0 85.5 38t35.5 91z" />
    <glyph glyph-name="ugrave" unicode="&#xf9;" horiz-adv-x="533" 
d="M59 195v245q0 10 6.5 16t15.5 6h81q9 0 15.5 -6t6.5 -16v-245q0 -47 18 -69.5t60 -22.5q35 0 55.5 25.5t26.5 60.5v251q0 13 5 17.5t20 4.5h78q9 0 15.5 -6t6.5 -16v-418q0 -9 -6.5 -15.5t-15.5 -6.5h-36q-16 0 -22 17l-13 39q-64 -67 -143 -67q-52 0 -87.5 15
t-53.5 44.5t-25.5 64.5t-7.5 82zM334 528l-175 77q-16 8 -6 27l28 51q8 15 26 3l164 -97q12 -6 6 -19l-18 -36q-6 -14 -25 -6z" />
    <glyph glyph-name="uacute" unicode="&#xfa;" horiz-adv-x="533" 
d="M59 195v245q0 10 6.5 16t15.5 6h81q9 0 15.5 -6t6.5 -16v-245q0 -47 18 -69.5t60 -22.5q35 0 55.5 25.5t26.5 60.5v251q0 13 5 17.5t20 4.5h78q9 0 15.5 -6t6.5 -16v-418q0 -9 -6.5 -15.5t-15.5 -6.5h-36q-16 0 -22 17l-13 39q-64 -67 -143 -67q-52 0 -87.5 15
t-53.5 44.5t-25.5 64.5t-7.5 82zM193 528q-19 -7 -26 6l-17 36q-6 11 6 19l163 97q18 12 26 -3l29 -51q9 -20 -6 -27z" />
    <glyph glyph-name="ucircumflex" unicode="&#xfb;" horiz-adv-x="533" 
d="M59 195v245q0 10 6.5 16t15.5 6h81q9 0 15.5 -6t6.5 -16v-245q0 -47 18 -69.5t60 -22.5q35 0 55.5 25.5t26.5 60.5v251q0 13 5 17.5t20 4.5h78q9 0 15.5 -6t6.5 -16v-418q0 -9 -6.5 -15.5t-15.5 -6.5h-36q-16 0 -22 17l-13 39q-64 -67 -143 -67q-52 0 -87.5 15
t-53.5 44.5t-25.5 64.5t-7.5 82zM145 529l-26 37q-7 10 6 19l130 101q10 8 21 0l130 -101q13 -9 6 -19l-26 -37q-9 -11 -23 -3l-97 61l-98 -61q-14 -8 -23 3z" />
    <glyph glyph-name="udieresis" unicode="&#xfc;" horiz-adv-x="533" 
d="M59 195v245q0 10 6.5 16t15.5 6h81q9 0 15.5 -6t6.5 -16v-245q0 -47 18 -69.5t60 -22.5q35 0 55.5 25.5t26.5 60.5v251q0 13 5 17.5t20 4.5h78q9 0 15.5 -6t6.5 -16v-418q0 -9 -6.5 -15.5t-15.5 -6.5h-36q-16 0 -22 17l-13 39q-64 -67 -143 -67q-52 0 -87.5 15
t-53.5 44.5t-25.5 64.5t-7.5 82zM364 542q-31 0 -51.5 21t-20.5 52t20.5 51.5t51.5 20.5t52 -20.5t21 -51.5t-21 -52t-52 -21zM163 542q-31 0 -51.5 21t-20.5 52t20.5 51.5t51.5 20.5t52 -20.5t21 -51.5t-21 -52t-52 -21z" />
    <glyph glyph-name="yacute" unicode="&#xfd;" horiz-adv-x="499" 
d="M165 27l-144 405q-5 12 1 21t19 9h96q16 0 19 -13l83 -276h2l105 276q8 13 29 13h85q13 0 19 -9.5t1 -20.5l-272 -656q-6 -14 -20 -14h-96q-13 0 -19 9.5t-1 21.5zM202 528q-19 -7 -26 6l-17 36q-6 11 6 19l163 97q18 12 26 -3l29 -51q9 -20 -6 -27z" />
    <glyph glyph-name="thorn" unicode="&#xfe;" horiz-adv-x="566" 
d="M189 15v-231q0 -9 -6.5 -15.5t-15.5 -6.5h-81q-8 0 -15 6.5t-7 15.5v894q0 8 7 15t15 7h81q9 0 15.5 -7t6.5 -15v-238q16 12 50 22t71 10q94 0 157 -70.5t63 -170.5q0 -103 -66.5 -172.5t-164.5 -69.5q-29 0 -62 8t-48 18zM189 300v-171q38 -26 96 -26q54 0 84.5 37.5
t30.5 89.5t-29 90t-80 38q-34 0 -62.5 -18.5t-39.5 -39.5z" />
    <glyph glyph-name="ydieresis" unicode="&#xff;" horiz-adv-x="499" 
d="M165 27l-144 405q-5 12 1 21t19 9h96q16 0 19 -13l83 -276h2l105 276q8 13 29 13h85q13 0 19 -9.5t1 -20.5l-272 -656q-6 -14 -20 -14h-96q-13 0 -19 9.5t-1 21.5zM358 542q-31 0 -51.5 21t-20.5 52t20.5 51.5t51.5 20.5t52 -20.5t21 -51.5t-21 -52t-52 -21zM157 542
q-31 0 -51.5 21t-20.5 52t20.5 51.5t51.5 20.5t52 -20.5t21 -51.5t-21 -52t-52 -21z" />
    <glyph glyph-name="Amacron" unicode="&#x100;" horiz-adv-x="668" 
d="M19 0q-11 0 -16.5 8t-0.5 18l311 673q5 11 17 11h10q12 0 17 -11l308 -673q5 -10 -0.5 -18t-16.5 -8h-87q-19 0 -29 20l-49 108h-299l-49 -108q-8 -20 -29 -20h-87zM233 239h201l-100 220h-3zM205 808q-8 0 -13.5 5t-5.5 13v34q0 19 19 19h256q19 0 19 -19v-34
q0 -8 -5.5 -13t-13.5 -5h-256z" />
    <glyph glyph-name="amacron" unicode="&#x101;" horiz-adv-x="482" 
d="M119 563q-8 0 -13.5 5t-5.5 13v41q0 19 19 19h256q19 0 19 -19v-41q0 -8 -5.5 -13t-13.5 -5h-256zM32 147q0 63 49.5 104t134.5 41q21 0 43 -3t34 -7l12 -3q2 45 -13 66t-51 21q-73 0 -130 -17q-22 -7 -26 20l-10 52q-5 22 15 28q14 6 62 14.5t96 8.5q102 0 138 -49
t36 -152v-249q0 -9 -6.5 -15.5t-15.5 -6.5h-34q-13 0 -20 16l-13 31q-60 -58 -145 -58q-70 0 -113 42.5t-43 115.5zM152 147q0 -30 17.5 -47.5t49.5 -17.5q28 0 53 17t30 32v68q-31 14 -68 14q-39 0 -60.5 -17.5t-21.5 -48.5z" />
    <glyph glyph-name="Abreve" unicode="&#x102;" horiz-adv-x="668" 
d="M19 0q-11 0 -16.5 8t-0.5 18l311 673q5 11 17 11h10q12 0 17 -11l308 -673q5 -10 -0.5 -18t-16.5 -8h-87q-19 0 -29 20l-49 108h-299l-49 -108q-8 -20 -29 -20h-87zM233 239h201l-100 220h-3zM334 766q-54 0 -93 33.5t-47 84.5q-2 9 3.5 15t14.5 6h37q13 0 17 -14
q8 -23 26 -38t42 -15q21 0 39.5 15.5t26.5 37.5q3 14 17 14h39q9 0 14 -6t4 -15q-8 -51 -47.5 -84.5t-92.5 -33.5z" />
    <glyph glyph-name="abreve" unicode="&#x103;" horiz-adv-x="482" 
d="M32 147q0 63 49.5 104t134.5 41q21 0 43 -3t34 -7l12 -3q2 45 -13 66t-51 21q-73 0 -130 -17q-22 -7 -26 20l-10 52q-5 22 15 28q14 6 62 14.5t96 8.5q102 0 138 -49t36 -152v-249q0 -9 -6.5 -15.5t-15.5 -6.5h-34q-13 0 -20 16l-13 31q-60 -58 -145 -58q-70 0 -113 42.5
t-43 115.5zM152 147q0 -30 17.5 -47.5t49.5 -17.5q28 0 53 17t30 32v68q-31 14 -68 14q-39 0 -60.5 -17.5t-21.5 -48.5zM252 528q-54 0 -93 33.5t-47 84.5q-2 9 3 15.5t15 6.5h37q13 0 17 -14q8 -24 26 -38.5t42 -14.5q22 0 40 15.5t26 37.5q4 14 17 14h39q9 0 14 -6.5
t4 -15.5q-8 -51 -47.5 -84.5t-92.5 -33.5z" />
    <glyph glyph-name="Aogonek" unicode="&#x104;" horiz-adv-x="668" 
d="M19 0q-11 0 -16.5 8t-0.5 18l311 673q5 11 17 11h10q12 0 17 -11l308 -673q5 -10 -0.5 -18t-16.5 -8h-24q-94 -63 -94 -122q0 -43 39 -43q29 0 61 28q7 6 13.5 3.5t6.5 -10.5l1 -49q0 -20 -15 -31q-37 -23 -89 -23q-51 0 -78 29t-27 75q0 79 96 148l-55 123h-299
l-49 -108q-8 -20 -29 -20h-87zM233 239h201l-100 220h-3z" />
    <glyph glyph-name="aogonek" unicode="&#x105;" horiz-adv-x="482" 
d="M32 147q0 63 49.5 104t134.5 41q21 0 43 -3t34 -7l12 -3q2 45 -13 66t-51 21q-73 0 -130 -17q-22 -7 -26 20l-10 52q-5 22 15 28q14 6 62 14.5t96 8.5q102 0 138 -49t36 -152v-244q0 -18 -16 -27q-34 -22 -64.5 -55.5t-30.5 -66.5q0 -43 39 -43q29 0 61 28q7 6 13.5 3.5
t6.5 -10.5l1 -49q0 -20 -15 -31q-37 -23 -89 -23q-51 0 -78 29t-27 75q0 82 120 166l-10 24q-60 -58 -145 -58q-70 0 -113 42.5t-43 115.5zM152 147q0 -30 17.5 -47.5t49.5 -17.5q28 0 53 17t30 32v68q-31 14 -68 14q-39 0 -60.5 -17.5t-21.5 -48.5z" />
    <glyph glyph-name="Cacute" unicode="&#x106;" horiz-adv-x="688" 
d="M44 349q0 150 105.5 255.5t255.5 105.5q138 0 242 -93q15 -14 1 -28l-61 -63q-12 -13 -25 0q-67 59 -154 59q-95 0 -159 -68.5t-64 -164.5q0 -95 64.5 -163t159.5 -68q83 0 153 57q13 12 25 0l62 -64q6 -6 5.5 -13.5t-6.5 -13.5q-100 -97 -243 -97q-150 0 -255.5 104.5
t-105.5 254.5zM339 768q-18 -8 -25 7l-18 35q-6 12 6 19l164 98q18 11 26 -3l28 -52q11 -19 -6 -27z" />
    <glyph glyph-name="cacute" unicode="&#x107;" horiz-adv-x="492" 
d="M36 231q0 102 71 171.5t174 69.5q99 0 172 -78q14 -14 -5 -33l-42 -46q-13 -14 -30 3q-42 40 -92 40q-53 0 -87.5 -36.5t-34.5 -90.5q0 -55 34 -91.5t87 -36.5q54 0 98 51q5 6 14 7t15 -4l45 -38q19 -17 8 -33q-62 -97 -183 -97q-102 0 -173 69.5t-71 172.5zM209 528
q-19 -7 -26 6l-17 36q-6 11 6 19l163 97q18 12 26 -3l29 -51q9 -20 -6 -27z" />
    <glyph glyph-name="Ccircumflex" unicode="&#x108;" horiz-adv-x="688" 
d="M44 349q0 150 105.5 255.5t255.5 105.5q138 0 242 -93q15 -14 1 -28l-61 -63q-12 -13 -25 0q-67 59 -154 59q-95 0 -159 -68.5t-64 -164.5q0 -95 64.5 -163t159.5 -68q83 0 153 57q13 12 25 0l62 -64q6 -6 5.5 -13.5t-6.5 -13.5q-100 -97 -243 -97q-150 0 -255.5 104.5
t-105.5 254.5zM307 766q-14 -8 -23 3l-26 37q-7 10 6 19l130 101q10 8 21 0l130 -101q13 -9 6 -19l-26 -37q-9 -11 -23 -3l-97 61z" />
    <glyph glyph-name="ccircumflex" unicode="&#x109;" horiz-adv-x="492" 
d="M36 231q0 102 71 171.5t174 69.5q99 0 172 -78q14 -14 -5 -33l-42 -46q-13 -14 -30 3q-42 40 -92 40q-53 0 -87.5 -36.5t-34.5 -90.5q0 -55 34 -91.5t87 -36.5q54 0 98 51q5 6 14 7t15 -4l45 -38q19 -17 8 -33q-62 -97 -183 -97q-102 0 -173 69.5t-71 172.5zM160 529
l-26 37q-7 10 6 19l130 101q10 8 21 0l130 -101q13 -9 6 -19l-26 -37q-9 -11 -23 -3l-97 61l-98 -61q-14 -8 -23 3z" />
    <glyph glyph-name="Cdotaccent" unicode="&#x10a;" horiz-adv-x="688" 
d="M44 349q0 150 105.5 255.5t255.5 105.5q138 0 242 -93q15 -14 1 -28l-61 -63q-12 -13 -25 0q-67 59 -154 59q-95 0 -159 -68.5t-64 -164.5q0 -95 64.5 -163t159.5 -68q83 0 153 57q13 12 25 0l62 -64q6 -6 5.5 -13.5t-6.5 -13.5q-100 -97 -243 -97q-150 0 -255.5 104.5
t-105.5 254.5zM406 773q-33 0 -56 23.5t-23 56.5t22.5 56t56.5 23t57 -23t23 -56t-23 -56.5t-57 -23.5z" />
    <glyph glyph-name="cdotaccent" unicode="&#x10b;" horiz-adv-x="492" 
d="M36 231q0 102 71 171.5t174 69.5q99 0 172 -78q14 -14 -5 -33l-42 -46q-13 -14 -30 3q-42 40 -92 40q-53 0 -87.5 -36.5t-34.5 -90.5q0 -55 34 -91.5t87 -36.5q54 0 98 51q5 6 14 7t15 -4l45 -38q19 -17 8 -33q-62 -97 -183 -97q-102 0 -173 69.5t-71 172.5zM280 541
q-33 0 -56 23.5t-23 56.5t22.5 56t56.5 23t57 -23t23 -56t-23 -56.5t-57 -23.5z" />
    <glyph glyph-name="Ccaron" unicode="&#x10c;" horiz-adv-x="688" 
d="M44 349q0 150 105.5 255.5t255.5 105.5q138 0 242 -93q15 -14 1 -28l-61 -63q-12 -13 -25 0q-67 59 -154 59q-95 0 -159 -68.5t-64 -164.5q0 -95 64.5 -163t159.5 -68q83 0 153 57q13 12 25 0l62 -64q6 -6 5.5 -13.5t-6.5 -13.5q-100 -97 -243 -97q-150 0 -255.5 104.5
t-105.5 254.5zM394 764l-130 101q-13 9 -6 19l26 37q9 11 23 3l97 -61l98 61q14 8 23 -3l26 -37q7 -10 -6 -19l-130 -101q-10 -8 -21 0z" />
    <glyph glyph-name="ccaron" unicode="&#x10d;" horiz-adv-x="492" 
d="M36 231q0 102 71 171.5t174 69.5q99 0 172 -78q14 -14 -5 -33l-42 -46q-13 -14 -30 3q-42 40 -92 40q-53 0 -87.5 -36.5t-34.5 -90.5q0 -55 34 -91.5t87 -36.5q54 0 98 51q5 6 14 7t15 -4l45 -38q19 -17 8 -33q-62 -97 -183 -97q-102 0 -173 69.5t-71 172.5zM270 524
l-130 101q-13 9 -6 19l26 37q9 11 23 3l97 -61l98 61q14 8 23 -3l26 -37q7 -10 -6 -19l-130 -101q-10 -8 -21 0z" />
    <glyph glyph-name="Dcaron" unicode="&#x10e;" horiz-adv-x="735" 
d="M85 19v662q0 8 5.5 13.5t12.5 5.5h237q145 0 248 -102.5t103 -246.5q0 -145 -103 -248t-248 -103h-237q-7 0 -12.5 5.5t-5.5 13.5zM214 122h114q98 0 161.5 63.5t63.5 165.5q0 101 -63.5 164.5t-161.5 63.5h-114v-457zM333 764l-130 101q-13 9 -6 19l26 37q9 11 23 3
l97 -61l98 61q14 8 23 -3l26 -37q7 -10 -6 -19l-130 -101q-10 -8 -21 0z" />
    <glyph glyph-name="dcaron" unicode="&#x10f;" horiz-adv-x="567" 
d="M36 231q0 103 63.5 172t165.5 69q61 0 111 -19v225q0 8 7 15t15 7h81q9 0 15.5 -7t6.5 -15v-656q0 -9 -6.5 -15.5t-15.5 -6.5h-37q-15 0 -22 22l-12 36q-2 -3 -6 -7.5t-18.5 -16.5t-31 -21t-42.5 -16.5t-53 -7.5q-95 0 -158 68.5t-63 173.5zM376 167v165q-38 26 -96 26
q-54 0 -84.5 -37.5t-30.5 -89.5t29 -90t80 -38q41 0 67 20t35 44zM537 640q0 32 21.5 51t55.5 19q40 0 65 -25t25 -74q0 -80 -53 -137q-6 -11 -20 -2l-26 20q-13 9 -1 21q26 28 26 66v13q-20 -10 -33 -10q-27 0 -43.5 16.5t-16.5 41.5z" />
    <glyph glyph-name="Dcroat" unicode="&#x110;" horiz-adv-x="735" 
d="M85 19v302h-29q-7 0 -12.5 5.5t-5.5 13.5v13q0 8 5.5 13.5t12.5 5.5h29v309q0 8 5.5 13.5t12.5 5.5h237q145 0 248 -102.5t103 -246.5q0 -145 -103 -248t-248 -103h-237q-7 0 -12.5 5.5t-5.5 13.5zM214 122h114q97 0 161 65.5t64 163.5t-64 163t-161 65h-114v-207h165
q8 0 13.5 -5.5t5.5 -13.5v-14q0 -8 -5.5 -13t-13.5 -5h-165v-199z" />
    <glyph glyph-name="dcroat" unicode="&#x111;" horiz-adv-x="565" 
d="M36 231q0 103 63.5 172t165.5 69q61 0 111 -19v80h-108q-8 0 -13.5 5t-5.5 13v14q0 8 5.5 13.5t13.5 5.5h108v94q0 8 7 15t15 7h81q9 0 15.5 -7t6.5 -15v-94h38q7 0 12.5 -5.5t5.5 -13.5v-13q0 -8 -5.5 -13.5t-12.5 -5.5h-38v-511q0 -9 -6.5 -15.5t-15.5 -6.5h-37
q-15 0 -22 22l-12 36q-2 -3 -6 -7.5t-18.5 -16.5t-31 -21t-42.5 -16.5t-53 -7.5q-95 0 -158 68.5t-63 173.5zM376 167v165q-38 26 -96 26q-54 0 -84.5 -37.5t-30.5 -89.5t29 -90t80 -38q41 0 67 20t35 44z" />
    <glyph glyph-name="Emacron" unicode="&#x112;" horiz-adv-x="576" 
d="M85 19v662q0 8 5.5 13.5t13.5 5.5h407q8 0 13.5 -5.5t5.5 -13.5v-82q0 -8 -5.5 -13.5t-13.5 -5.5h-296v-164h247q8 0 13.5 -6t5.5 -13v-83q0 -8 -5.5 -13.5t-13.5 -5.5h-247v-175h296q8 0 13.5 -5.5t5.5 -13.5v-82q0 -8 -5.5 -13.5t-13.5 -5.5h-407q-8 0 -13.5 5.5
t-5.5 13.5zM183 808q-8 0 -13.5 5t-5.5 13v34q0 19 19 19h256q19 0 19 -19v-34q0 -8 -5.5 -13t-13.5 -5h-256z" />
    <glyph glyph-name="emacron" unicode="&#x113;" horiz-adv-x="511" 
d="M36 231q0 100 66 170.5t167 70.5q91 0 151.5 -60.5t60.5 -153.5q0 -16 -2 -30q-1 -9 -7.5 -15t-14.5 -6h-296q1 -44 33.5 -75.5t81.5 -31.5q57 0 99 34q19 16 30 0l39 -52q14 -16 -2 -30q-74 -63 -172 -63q-102 0 -168 70.5t-66 171.5zM168 289h187q-2 34 -26.5 57
t-62.5 23q-41 0 -67 -22.5t-31 -57.5zM138 570q-8 0 -13.5 5t-5.5 13v34q0 19 19 19h256q19 0 19 -19v-34q0 -8 -5.5 -13t-13.5 -5h-256z" />
    <glyph glyph-name="Ebreve" unicode="&#x114;" horiz-adv-x="576" 
d="M85 19v662q0 8 5.5 13.5t13.5 5.5h407q8 0 13.5 -5.5t5.5 -13.5v-82q0 -8 -5.5 -13.5t-13.5 -5.5h-296v-164h247q8 0 13.5 -6t5.5 -13v-83q0 -8 -5.5 -13.5t-13.5 -5.5h-247v-175h296q8 0 13.5 -5.5t5.5 -13.5v-82q0 -8 -5.5 -13.5t-13.5 -5.5h-407q-8 0 -13.5 5.5
t-5.5 13.5zM316 766q-54 0 -93 33.5t-47 84.5q-2 9 3.5 15t14.5 6h37q13 0 17 -14q8 -23 26 -38t42 -15q21 0 39.5 15.5t26.5 37.5q3 14 17 14h39q9 0 14 -6t4 -15q-8 -51 -47.5 -84.5t-92.5 -33.5z" />
    <glyph glyph-name="ebreve" unicode="&#x115;" horiz-adv-x="511" 
d="M36 231q0 100 66 170.5t167 70.5q91 0 151.5 -60.5t60.5 -153.5q0 -16 -2 -30q-1 -9 -7.5 -15t-14.5 -6h-296q1 -44 33.5 -75.5t81.5 -31.5q57 0 99 34q19 16 30 0l39 -52q14 -16 -2 -30q-74 -63 -172 -63q-102 0 -168 70.5t-66 171.5zM168 289h187q-2 34 -26.5 57
t-62.5 23q-41 0 -67 -22.5t-31 -57.5zM271 528q-54 0 -93 33.5t-47 84.5q-2 9 3 15.5t15 6.5h37q13 0 17 -14q8 -24 26 -38.5t42 -14.5q22 0 40 15.5t26 37.5q3 14 17 14h39q9 0 14 -6.5t4 -15.5q-8 -51 -47.5 -84.5t-92.5 -33.5z" />
    <glyph glyph-name="Edotaccent" unicode="&#x116;" horiz-adv-x="576" 
d="M85 19v662q0 8 5.5 13.5t13.5 5.5h407q8 0 13.5 -5.5t5.5 -13.5v-82q0 -8 -5.5 -13.5t-13.5 -5.5h-296v-164h247q8 0 13.5 -6t5.5 -13v-83q0 -8 -5.5 -13.5t-13.5 -5.5h-247v-175h296q8 0 13.5 -5.5t5.5 -13.5v-82q0 -8 -5.5 -13.5t-13.5 -5.5h-407q-8 0 -13.5 5.5
t-5.5 13.5zM316 773q-33 0 -56 23.5t-23 56.5t22.5 56t56.5 23t57 -23t23 -56t-23 -56.5t-57 -23.5z" />
    <glyph glyph-name="edotaccent" unicode="&#x117;" horiz-adv-x="511" 
d="M36 231q0 100 66 170.5t167 70.5q91 0 151.5 -60.5t60.5 -153.5q0 -16 -2 -30q-1 -9 -7.5 -15t-14.5 -6h-296q1 -44 33.5 -75.5t81.5 -31.5q57 0 99 34q19 16 30 0l39 -52q14 -16 -2 -30q-74 -63 -172 -63q-102 0 -168 70.5t-66 171.5zM168 289h187q-2 34 -26.5 57
t-62.5 23q-41 0 -67 -22.5t-31 -57.5zM270 541q-33 0 -56 23.5t-23 56.5t22.5 56t56.5 23t57 -23t23 -56t-23 -56.5t-57 -23.5z" />
    <glyph glyph-name="Eogonek" unicode="&#x118;" horiz-adv-x="576" 
d="M85 19v662q0 8 5.5 13.5t13.5 5.5h407q8 0 13.5 -5.5t5.5 -13.5v-82q0 -8 -5.5 -13.5t-13.5 -5.5h-296v-164h247q8 0 13.5 -6t5.5 -13v-83q0 -8 -5.5 -13.5t-13.5 -5.5h-247v-175h296q8 0 13.5 -5.5t5.5 -13.5v-74q0 -6 -2 -11t-4.5 -7t-6.5 -5t-5 -4q-94 -70 -94 -122
q0 -43 39 -43q29 0 61 28q7 6 13.5 3.5t6.5 -10.5l1 -49q0 -20 -15 -31q-37 -23 -89 -23q-51 0 -78 29t-27 75q0 76 92 143h-318q-8 0 -13.5 5.5t-5.5 13.5z" />
    <glyph glyph-name="eogonek" unicode="&#x119;" horiz-adv-x="511" 
d="M36 231q0 100 66 170.5t167 70.5q91 0 151.5 -60.5t60.5 -153.5q0 -16 -2 -30q-1 -9 -7.5 -15t-14.5 -6h-296q1 -44 33.5 -75.5t81.5 -31.5q57 0 99 34q19 16 30 0l39 -52q14 -16 -2 -30q-45 -38 -100 -53q-92 -64 -92 -121q0 -43 39 -43q29 0 61 28q7 6 13.5 3.5
t6.5 -10.5l1 -49q0 -20 -15 -31q-37 -23 -89 -23q-51 0 -78 29t-27 75q0 73 79 134q-91 10 -148 78.5t-57 161.5zM168 289h187q-2 34 -26.5 57t-62.5 23q-41 0 -67 -22.5t-31 -57.5z" />
    <glyph glyph-name="Ecaron" unicode="&#x11a;" horiz-adv-x="576" 
d="M85 19v662q0 8 5.5 13.5t13.5 5.5h407q8 0 13.5 -5.5t5.5 -13.5v-82q0 -8 -5.5 -13.5t-13.5 -5.5h-296v-164h247q8 0 13.5 -6t5.5 -13v-83q0 -8 -5.5 -13.5t-13.5 -5.5h-247v-175h296q8 0 13.5 -5.5t5.5 -13.5v-82q0 -8 -5.5 -13.5t-13.5 -5.5h-407q-8 0 -13.5 5.5
t-5.5 13.5zM299 764l-130 101q-13 9 -6 19l26 37q9 11 23 3l97 -61l98 61q14 8 23 -3l26 -37q7 -10 -6 -19l-130 -101q-10 -8 -21 0z" />
    <glyph glyph-name="ecaron" unicode="&#x11b;" horiz-adv-x="511" 
d="M36 231q0 100 66 170.5t167 70.5q91 0 151.5 -60.5t60.5 -153.5q0 -16 -2 -30q-1 -9 -7.5 -15t-14.5 -6h-296q1 -44 33.5 -75.5t81.5 -31.5q57 0 99 34q19 16 30 0l39 -52q14 -16 -2 -30q-74 -63 -172 -63q-102 0 -168 70.5t-66 171.5zM168 289h187q-2 34 -26.5 57
t-62.5 23q-41 0 -67 -22.5t-31 -57.5zM258 524l-130 101q-13 9 -6 19l26 37q9 11 23 3l97 -61l98 61q14 8 23 -3l26 -37q7 -10 -6 -19l-130 -101q-10 -8 -21 0z" />
    <glyph glyph-name="Gcircumflex" unicode="&#x11c;" horiz-adv-x="718" 
d="M44 349q0 150 105 255.5t254 105.5q135 0 244 -93q15 -15 1 -28l-62 -65q-12 -12 -26 0q-66 58 -151 58q-93 0 -158.5 -68.5t-65.5 -163.5q0 -94 65.5 -161.5t159.5 -67.5q57 0 119 25v85h-80q-8 0 -13.5 5t-5.5 13v79q0 19 19 19h192q7 0 12.5 -5.5t5.5 -13.5v-256
q0 -10 -8 -16q-12 -7 -33 -18t-86 -29t-129 -18q-150 0 -254.5 104t-104.5 254zM304 766q-14 -8 -23 3l-26 37q-7 10 6 19l130 101q10 8 21 0l130 -101q13 -9 6 -19l-26 -37q-9 -11 -23 -3l-97 61z" />
    <glyph glyph-name="gcircumflex" unicode="&#x11d;" horiz-adv-x="565" 
d="M170 529l-26 37q-7 10 6 19l130 101q10 8 21 0l130 -101q13 -9 6 -19l-26 -37q-9 -11 -23 -3l-97 61l-98 -61q-14 -8 -23 3zM376 294v-165q-38 -26 -96 -26q-54 0 -84.5 37.5t-30.5 89.5t29 90t80 38q41 0 67 -20t35 -44zM501 -5v445q0 9 -6.5 15.5t-15.5 6.5h-37
q-15 0 -22 -22l-12 -37q-2 3 -6 7.5t-18.5 16.5t-31 21t-42.5 16.5t-53 7.5q-95 0 -158 -68.5t-63 -173.5q0 -103 63.5 -172t165.5 -69q61 0 111 19v-13q0 -62 -26.5 -86t-82.5 -24q-51 0 -110 35q-8 4 -16 2.5t-11 -8.5l-30 -65q-9 -14 5 -26q23 -17 69.5 -34.5t96.5 -17.5
q100 0 165 58.5t65 165.5z" />
    <glyph glyph-name="Gbreve" unicode="&#x11e;" horiz-adv-x="718" 
d="M44 349q0 150 105 255.5t254 105.5q135 0 244 -93q15 -15 1 -28l-62 -65q-12 -12 -26 0q-66 58 -151 58q-93 0 -158.5 -68.5t-65.5 -163.5q0 -94 65.5 -161.5t159.5 -67.5q57 0 119 25v85h-80q-8 0 -13.5 5t-5.5 13v79q0 19 19 19h192q7 0 12.5 -5.5t5.5 -13.5v-256
q0 -10 -8 -16q-12 -7 -33 -18t-86 -29t-129 -18q-150 0 -254.5 104t-104.5 254zM404 766q-54 0 -93 33.5t-47 84.5q-2 9 3.5 15t14.5 6h37q13 0 17 -14q8 -23 26 -38t42 -15q21 0 39.5 15.5t26.5 37.5q3 14 17 14h39q9 0 14 -6t4 -15q-8 -51 -47.5 -84.5t-92.5 -33.5z" />
    <glyph glyph-name="gbreve" unicode="&#x11f;" horiz-adv-x="565" 
d="M290 528q-54 0 -93 33.5t-47 84.5q-2 9 3 15.5t15 6.5h37q13 0 17 -14q8 -24 26 -38.5t42 -14.5q22 0 40 15.5t26 37.5q4 14 17 14h39q9 0 14 -6.5t4 -15.5q-8 -51 -47.5 -84.5t-92.5 -33.5zM376 294v-165q-38 -26 -96 -26q-54 0 -84.5 37.5t-30.5 89.5t29 90t80 38
q41 0 67 -20t35 -44zM501 -5v445q0 9 -6.5 15.5t-15.5 6.5h-37q-15 0 -22 -22l-12 -37q-2 3 -6 7.5t-18.5 16.5t-31 21t-42.5 16.5t-53 7.5q-95 0 -158 -68.5t-63 -173.5q0 -103 63.5 -172t165.5 -69q61 0 111 19v-13q0 -62 -26.5 -86t-82.5 -24q-51 0 -110 35q-8 4 -16 2.5
t-11 -8.5l-30 -65q-9 -14 5 -26q23 -17 69.5 -34.5t96.5 -17.5q100 0 165 58.5t65 165.5z" />
    <glyph glyph-name="Gdotaccent" unicode="&#x120;" horiz-adv-x="718" 
d="M44 349q0 150 105 255.5t254 105.5q135 0 244 -93q15 -15 1 -28l-62 -65q-12 -12 -26 0q-66 58 -151 58q-93 0 -158.5 -68.5t-65.5 -163.5q0 -94 65.5 -161.5t159.5 -67.5q57 0 119 25v85h-80q-8 0 -13.5 5t-5.5 13v79q0 19 19 19h192q7 0 12.5 -5.5t5.5 -13.5v-256
q0 -10 -8 -16q-12 -7 -33 -18t-86 -29t-129 -18q-150 0 -254.5 104t-104.5 254zM404 773q-33 0 -56 23.5t-23 56.5t22.5 56t56.5 23t57 -23t23 -56t-23 -56.5t-57 -23.5z" />
    <glyph glyph-name="gdotaccent" unicode="&#x121;" horiz-adv-x="565" 
d="M287 541q-33 0 -56 23.5t-23 56.5t22.5 56t56.5 23t57 -23t23 -56t-23 -56.5t-57 -23.5zM376 294v-165q-38 -26 -96 -26q-54 0 -84.5 37.5t-30.5 89.5t29 90t80 38q41 0 67 -20t35 -44zM501 -5v445q0 9 -6.5 15.5t-15.5 6.5h-37q-15 0 -22 -22l-12 -37q-2 3 -6 7.5
t-18.5 16.5t-31 21t-42.5 16.5t-53 7.5q-95 0 -158 -68.5t-63 -173.5q0 -103 63.5 -172t165.5 -69q61 0 111 19v-13q0 -62 -26.5 -86t-82.5 -24q-51 0 -110 35q-8 4 -16 2.5t-11 -8.5l-30 -65q-9 -14 5 -26q23 -17 69.5 -34.5t96.5 -17.5q100 0 165 58.5t65 165.5z" />
    <glyph glyph-name="Gcommaaccent" unicode="&#x122;" horiz-adv-x="718" 
d="M44 349q0 150 105 255.5t254 105.5q135 0 244 -93q15 -15 1 -28l-62 -65q-12 -12 -26 0q-66 58 -151 58q-93 0 -158.5 -68.5t-65.5 -163.5q0 -94 65.5 -161.5t159.5 -67.5q57 0 119 25v85h-80q-8 0 -13.5 5t-5.5 13v79q0 19 19 19h192q7 0 12.5 -5.5t5.5 -13.5v-256
q0 -10 -8 -16q-12 -7 -33 -18t-86 -29t-129 -18q-150 0 -254.5 104t-104.5 254zM323 -134q0 32 21.5 51t55.5 19q40 0 65 -25t25 -74q0 -80 -53 -137q-6 -11 -20 -2l-26 20q-13 9 -1 21q26 28 26 66v13q-20 -10 -33 -10q-27 0 -43.5 16.5t-16.5 41.5z" />
    <glyph glyph-name="gcommaaccent" unicode="&#x123;" horiz-adv-x="565" 
d="M376 294v-165q-38 -26 -96 -26q-54 0 -84.5 37.5t-30.5 89.5t29 90t80 38q41 0 67 -20t35 -44zM501 -5v445q0 9 -6.5 15.5t-15.5 6.5h-37q-15 0 -22 -22l-12 -37q-2 3 -6 7.5t-18.5 16.5t-31 21t-42.5 16.5t-53 7.5q-95 0 -158 -68.5t-63 -173.5q0 -103 63.5 -172
t165.5 -69q61 0 111 19v-13q0 -62 -26.5 -86t-82.5 -24q-51 0 -110 35q-8 4 -16 2.5t-11 -8.5l-30 -65q-9 -14 5 -26q23 -17 69.5 -34.5t96.5 -17.5q100 0 165 58.5t65 165.5zM387 590q0 -32 -21.5 -51t-55.5 -19q-40 0 -65 25t-25 74q0 80 53 137q6 11 20 2l26 -20
q13 -9 1 -21q-26 -28 -26 -66v-13q20 10 33 10q27 0 43.5 -16.5t16.5 -41.5z" />
    <glyph glyph-name="Hcircumflex" unicode="&#x124;" horiz-adv-x="757" 
d="M85 19v662q0 7 5.5 13t13.5 6h93q8 0 13.5 -5.5t5.5 -13.5v-265h326v265q0 8 5.5 13.5t13.5 5.5h92q7 0 13 -6t6 -13v-662q0 -7 -6 -13t-13 -6h-92q-8 0 -13.5 5.5t-5.5 13.5v276h-326v-276q0 -8 -5.5 -13.5t-13.5 -5.5h-93q-8 0 -13.5 6t-5.5 13zM285 766q-14 -8 -23 3
l-26 37q-7 10 6 19l130 101q10 8 21 0l130 -101q13 -9 6 -19l-26 -37q-9 -11 -23 -3l-97 61z" />
    <glyph glyph-name="hcircumflex" unicode="&#x125;" horiz-adv-x="552" 
d="M64 22v656q0 8 7 15t15 7h81q9 0 15.5 -7t6.5 -15v-245q45 39 118 39q187 0 187 -218v-232q0 -9 -7 -15.5t-15 -6.5h-81q-9 0 -15.5 6.5t-6.5 15.5v233q0 49 -21.5 76t-62.5 27q-75 0 -96 -81v-255q0 -22 -24 -22h-79q-8 0 -15 6.5t-7 15.5zM2 746l-26 37q-7 10 6 19
l130 101q10 8 21 0l130 -101q13 -9 6 -19l-26 -37q-9 -11 -23 -3l-97 61l-98 -61q-14 -8 -23 3z" />
    <glyph glyph-name="Hbar" unicode="&#x126;" horiz-adv-x="757" 
d="M85 19v514h-26q-7 0 -12.5 5.5t-5.5 13.5v13q0 8 5.5 13.5t12.5 5.5h26v97q0 7 5.5 13t13.5 6h93q8 0 13.5 -5.5t5.5 -13.5v-97h326v97q0 8 5.5 13.5t13.5 5.5h92q7 0 13 -6t6 -13v-97h26q8 0 13.5 -5.5t5.5 -13.5v-14q0 -8 -5.5 -13t-13.5 -5h-26v-514q0 -7 -6 -13
t-13 -6h-92q-8 0 -13.5 5.5t-5.5 13.5v276h-326v-276q0 -8 -5.5 -13.5t-13.5 -5.5h-93q-8 0 -13.5 6t-5.5 13zM216 416h326v117h-326v-117z" />
    <glyph glyph-name="hbar" unicode="&#x127;" horiz-adv-x="572" 
d="M64 22v511h-35q-7 0 -12.5 5.5t-5.5 13.5v13q0 8 5.5 13.5t12.5 5.5h35v94q0 8 7 15t15 7h81q9 0 15.5 -7t6.5 -15v-94h110q8 0 13.5 -5.5t5.5 -13.5v-14q0 -8 -5.5 -13t-13.5 -5h-110v-100q45 39 128 39q103 0 150 -61t47 -157v-232q0 -9 -7 -15.5t-15 -6.5h-81
q-9 0 -15.5 6.5t-6.5 15.5v233q0 47 -26 75t-68 28q-40 0 -68.5 -22.5t-37.5 -58.5v-255q0 -22 -24 -22h-79q-8 0 -15 6.5t-7 15.5z" />
    <glyph glyph-name="Itilde" unicode="&#x128;" horiz-adv-x="301" 
d="M85 19v662q0 7 5.5 13t13.5 6h93q7 0 13 -6t6 -13v-662q0 -7 -6 -13t-13 -6h-93q-8 0 -13.5 6t-5.5 13zM31 789l-29 21q-12 9 -6 23q8 15 12.5 22t19 25.5t33 27.5t39.5 9q28 0 59 -27.5t48 -27.5q12 0 21 9.5t13.5 19t13 15t17.5 -2.5l28 -20q13 -10 1 -31
q-30 -52 -60 -67q-17 -9 -37 -9q-28 0 -61.5 28t-47.5 28q-15 0 -25 -15t-18 -25.5t-21 -2.5z" />
    <glyph glyph-name="itilde" unicode="&#x129;" horiz-adv-x="253" 
d="M64 22v418q0 9 6.5 15.5t15.5 6.5h81q9 0 15.5 -6.5t6.5 -15.5v-418q0 -9 -7 -15.5t-15 -6.5h-81q-8 0 -15 6.5t-7 15.5zM14 562l-29 21q-12 9 -6 23q8 15 12.5 22t19 25.5t33 27.5t39.5 9q28 0 59 -27.5t48 -27.5q12 0 21 9.5t13.5 19t13 15t17.5 -2.5l28 -20
q13 -10 1 -31q-30 -52 -60 -67q-17 -9 -37 -9q-28 0 -61.5 28t-47.5 28q-15 0 -25 -15t-18 -25.5t-21 -2.5z" />
    <glyph glyph-name="Imacron" unicode="&#x12a;" horiz-adv-x="301" 
d="M85 19v662q0 7 5.5 13t13.5 6h93q7 0 13 -6t6 -13v-662q0 -7 -6 -13t-13 -6h-93q-8 0 -13.5 6t-5.5 13zM23 808q-8 0 -13.5 5t-5.5 13v34q0 19 19 19h256q19 0 19 -19v-34q0 -8 -5.5 -13t-13.5 -5h-256z" />
    <glyph glyph-name="imacron" unicode="&#x12b;" horiz-adv-x="253" 
d="M64 22v418q0 9 6.5 15.5t15.5 6.5h81q9 0 15.5 -6.5t6.5 -15.5v-418q0 -9 -7 -15.5t-15 -6.5h-81q-8 0 -15 6.5t-7 15.5zM7 570q-8 0 -13.5 5t-5.5 13v34q0 19 19 19h256q19 0 19 -19v-34q0 -8 -5.5 -13t-13.5 -5h-256z" />
    <glyph glyph-name="Ibreve" unicode="&#x12c;" horiz-adv-x="301" 
d="M85 19v662q0 7 5.5 13t13.5 6h93q7 0 13 -6t6 -13v-662q0 -7 -6 -13t-13 -6h-93q-8 0 -13.5 6t-5.5 13zM151 766q-54 0 -93 33.5t-47 84.5q-2 9 3.5 15t14.5 6h37q13 0 17 -14q8 -23 26 -38t42 -15q21 0 39.5 15.5t26.5 37.5q3 14 17 14h39q9 0 14 -6t4 -15
q-8 -51 -47.5 -84.5t-92.5 -33.5z" />
    <glyph glyph-name="ibreve" unicode="&#x12d;" horiz-adv-x="253" 
d="M64 22v418q0 9 6.5 15.5t15.5 6.5h81q9 0 15.5 -6.5t6.5 -15.5v-418q0 -9 -7 -15.5t-15 -6.5h-81q-8 0 -15 6.5t-7 15.5zM135 528q-54 0 -93 33.5t-47 84.5q-2 9 3 15.5t15 6.5h37q13 0 17 -14q8 -24 26 -38.5t42 -14.5q22 0 40 15.5t26 37.5q3 14 17 14h39q9 0 14 -6.5
t4 -15.5q-8 -51 -47.5 -84.5t-92.5 -33.5z" />
    <glyph glyph-name="Iogonek" unicode="&#x12e;" horiz-adv-x="301" 
d="M85 19v662q0 7 5.5 13t13.5 6h93q7 0 13 -6t6 -13v-653q0 -19 -17 -28q-94 -63 -94 -122q0 -43 39 -43q29 0 61 28q7 6 13.5 3.5t6.5 -10.5l1 -49q0 -21 -15 -31q-33 -23 -89 -23q-51 0 -78 29t-27 75q0 76 92 143h-5q-8 0 -13.5 6t-5.5 13z" />
    <glyph glyph-name="iogonek" unicode="&#x12f;" horiz-adv-x="253" 
d="M64 22v418q0 9 6.5 15.5t15.5 6.5h81q9 0 15.5 -6.5t6.5 -15.5v-403q0 -21 -21 -37q-94 -63 -94 -122q0 -43 39 -43q29 0 61 28q7 6 13.5 3.5t6.5 -10.5l1 -49q0 -20 -15 -31q-37 -23 -89 -23q-51 0 -78 29t-27 75q0 77 93 144q-15 6 -15 21zM125 541q-33 0 -56 23.5
t-23 56.5t22.5 56t56.5 23t57 -23t23 -56t-23 -56.5t-57 -23.5z" />
    <glyph glyph-name="Idotaccent" unicode="&#x130;" horiz-adv-x="301" 
d="M85 19v662q0 7 5.5 13t13.5 6h93q7 0 13 -6t6 -13v-662q0 -7 -6 -13t-13 -6h-93q-8 0 -13.5 6t-5.5 13zM151 773q-33 0 -56 23.5t-23 56.5t22.5 56t56.5 23t57 -23t23 -56t-23 -56.5t-57 -23.5z" />
    <glyph glyph-name="dotlessi" unicode="&#x131;" horiz-adv-x="253" 
d="M64 22v418q0 9 6.5 15.5t15.5 6.5h81q9 0 15.5 -6.5t6.5 -15.5v-418q0 -9 -7 -15.5t-15 -6.5h-81q-8 0 -15 6.5t-7 15.5z" />
    <glyph glyph-name="IJ" unicode="&#x132;" horiz-adv-x="752" 
d="M85 19v662q0 7 5.5 13t13.5 6h93q7 0 13 -6t6 -13v-662q0 -7 -6 -13t-13 -6h-93q-8 0 -13.5 6t-5.5 13zM310 63q-8 13 2 25l52 53q15 14 30 -1q30 -32 66 -32q35 0 57.5 21.5t22.5 69.5v482q0 8 5.5 13.5t13.5 5.5h94q8 0 13.5 -5.5t5.5 -13.5v-482q0 -100 -59 -154.5
t-151 -54.5q-93 0 -152 73z" />
    <glyph glyph-name="ij" unicode="&#x133;" horiz-adv-x="511" 
d="M64 22v418q0 9 6.5 15.5t15.5 6.5h81q9 0 15.5 -6.5t6.5 -15.5v-418q0 -9 -7 -15.5t-15 -6.5h-81q-8 0 -15 6.5t-7 15.5zM125 541q-33 0 -56 23.5t-23 56.5t22.5 56t56.5 23t57 -23t23 -56t-23 -56.5t-57 -23.5zM447 440v-459q0 -95 -37 -146.5t-103 -79.5
q-34 -15 -44 10l-24 56q-11 28 12 40q22 12 34.5 21.5t24.5 31t12 50.5v476q0 9 6.5 15.5t15.5 6.5h81q9 0 15.5 -6.5t6.5 -15.5zM383 541q-33 0 -56 23.5t-23 56.5t22.5 56t56.5 23t57 -23t23 -56t-23 -56.5t-57 -23.5z" />
    <glyph glyph-name="Jcircumflex" unicode="&#x134;" horiz-adv-x="456" 
d="M14 63q-8 13 2 25l52 53q15 14 30 -1q30 -32 66 -32q35 0 57.5 21.5t22.5 69.5v482q0 8 5.5 13.5t13.5 5.5h94q8 0 13.5 -5.5t5.5 -13.5v-482q0 -100 -59 -154.5t-151 -54.5q-93 0 -152 73zM214 766q-14 -8 -23 3l-26 37q-7 10 6 19l130 101q10 8 21 0l130 -101
q13 -9 6 -19l-26 -37q-9 -11 -23 -3l-97 61z" />
    <glyph glyph-name="jcircumflex" unicode="&#x135;" horiz-adv-x="253" 
d="M189 440v-459q0 -95 -37 -146.5t-103 -79.5q-34 -15 -44 10l-24 56q-11 28 12 40q22 12 34.5 21.5t24.5 31t12 50.5v476q0 9 6.5 15.5t15.5 6.5h81q9 0 15.5 -6.5t6.5 -15.5zM6 529l-26 37q-7 10 6 19l130 101q10 8 21 0l130 -101q13 -9 6 -19l-26 -37q-9 -11 -23 -3
l-97 61l-98 -61q-14 -8 -23 3z" />
    <glyph glyph-name="Kcommaaccent" unicode="&#x136;" horiz-adv-x="642" 
d="M85 24v652q0 10 7 17t17 7h88q10 0 17 -7t7 -17v-270l252 284q8 10 19 10h100q14 0 20 -12.5t-4 -23.5l-261 -294l280 -335q8 -10 2 -22.5t-20 -12.5h-109q-13 0 -18 7l-261 322v-305q0 -10 -7 -17t-17 -7h-88q-10 0 -17 7t-7 17zM267 -134q0 32 21.5 51t55.5 19
q40 0 65 -25t25 -74q0 -80 -53 -137q-6 -11 -20 -2l-26 20q-13 9 -1 21q26 28 26 66v13q-20 -10 -33 -10q-27 0 -43.5 16.5t-16.5 41.5z" />
    <glyph glyph-name="kcommaaccent" unicode="&#x137;" horiz-adv-x="517" 
d="M64 22v656q0 8 7 15t15 7h81q9 0 15.5 -7t6.5 -15v-391l159 161q16 14 29 14h94q14 0 19 -12t-4 -22l-183 -180l192 -215q9 -10 4.5 -21.5t-18.5 -11.5h-98q-15 0 -20 9l-174 208v-195q0 -9 -6.5 -15.5t-15.5 -6.5h-81q-8 0 -15 6.5t-7 15.5zM191 -134q0 32 21.5 51
t55.5 19q40 0 65 -25t25 -74q0 -80 -53 -137q-6 -11 -20 -2l-26 20q-13 9 -1 21q26 28 26 66v13q-20 -10 -33 -10q-27 0 -43.5 16.5t-16.5 41.5z" />
    <glyph glyph-name="kgreenlandic" unicode="&#x138;" horiz-adv-x="536" 
d="M64 22v418q0 8 7 15t15 7h81q9 0 15.5 -7t6.5 -15v-184l174 192q12 14 30 14h92q15 0 19 -12t-5 -22l-191 -202l210 -193q9 -10 4.5 -21.5t-18.5 -11.5h-113q-9 0 -20 9l-182 178v-165q0 -9 -6.5 -15.5t-15.5 -6.5h-81q-8 0 -15 6.5t-7 15.5z" />
    <glyph glyph-name="Lacute" unicode="&#x139;" horiz-adv-x="505" 
d="M85 19v662q0 8 5.5 13.5t13.5 5.5h92q8 0 13.5 -6t5.5 -13v-561h255q8 0 13.5 -5.5t5.5 -13.5v-82q0 -8 -5.5 -13.5t-13.5 -5.5h-366q-8 0 -13.5 5.5t-5.5 13.5zM79 768q-18 -8 -25 7l-18 35q-6 12 6 19l164 98q18 11 26 -3l28 -52q11 -19 -6 -27z" />
    <glyph glyph-name="lacute" unicode="&#x13a;" horiz-adv-x="255" 
d="M65 22v656q0 8 7 15t15 7h81q8 0 15 -7t7 -15v-656q0 -9 -7 -15.5t-15 -6.5h-81q-8 0 -15 6.5t-7 15.5zM64 745q-19 -7 -26 6l-17 36q-6 11 6 19l163 97q18 12 26 -3l29 -51q9 -20 -6 -27z" />
    <glyph glyph-name="Lcommaaccent" unicode="&#x13b;" horiz-adv-x="505" 
d="M85 19v662q0 8 5.5 13.5t13.5 5.5h92q8 0 13.5 -6t5.5 -13v-561h255q8 0 13.5 -5.5t5.5 -13.5v-82q0 -8 -5.5 -13.5t-13.5 -5.5h-366q-8 0 -13.5 5.5t-5.5 13.5zM210 -134q0 32 21.5 51t55.5 19q40 0 65 -25t25 -74q0 -80 -53 -137q-6 -11 -20 -2l-26 20q-13 9 -1 21
q26 28 26 66v13q-20 -10 -33 -10q-27 0 -43.5 16.5t-16.5 41.5z" />
    <glyph glyph-name="lcommaaccent" unicode="&#x13c;" horiz-adv-x="255" 
d="M65 22v656q0 8 7 15t15 7h81q8 0 15 -7t7 -15v-656q0 -9 -7 -15.5t-15 -6.5h-81q-8 0 -15 6.5t-7 15.5zM45 -134q0 32 21.5 51t55.5 19q40 0 65 -25t25 -74q0 -80 -53 -137q-6 -11 -20 -2l-26 20q-13 9 -1 21q26 28 26 66v13q-20 -10 -33 -10q-27 0 -43.5 16.5
t-16.5 41.5z" />
    <glyph glyph-name="Lcaron" unicode="&#x13d;" horiz-adv-x="513" 
d="M85 19v662q0 8 5.5 13.5t13.5 5.5h92q8 0 13.5 -6t5.5 -13v-561h255q8 0 13.5 -5.5t5.5 -13.5v-82q0 -8 -5.5 -13.5t-13.5 -5.5h-366q-8 0 -13.5 5.5t-5.5 13.5zM311 640q0 32 21.5 51t55.5 19q40 0 65 -25t25 -74q0 -80 -53 -137q-6 -11 -20 -2l-26 20q-13 9 -1 21
q26 28 26 66v13q-20 -10 -33 -10q-27 0 -43.5 16.5t-16.5 41.5z" />
    <glyph glyph-name="lcaron" unicode="&#x13e;" horiz-adv-x="256" 
d="M65 22v656q0 8 7 15t15 7h81q8 0 15 -7t7 -15v-656q0 -9 -7 -15.5t-15 -6.5h-81q-8 0 -15 6.5t-7 15.5zM226 640q0 32 21.5 51t55.5 19q40 0 65 -25t25 -74q0 -80 -53 -137q-6 -11 -20 -2l-26 20q-13 9 -1 21q26 28 26 66v13q-20 -10 -33 -10q-27 0 -43.5 16.5
t-16.5 41.5z" />
    <glyph glyph-name="Ldot" unicode="&#x13f;" horiz-adv-x="536" 
d="M85 19v662q0 8 5.5 13.5t13.5 5.5h92q8 0 13.5 -6t5.5 -13v-561h255q8 0 13.5 -5.5t5.5 -13.5v-82q0 -8 -5.5 -13.5t-13.5 -5.5h-366q-8 0 -13.5 5.5t-5.5 13.5zM447 295q-33 0 -56 23.5t-23 56.5t22.5 56t56.5 23t57 -23t23 -56t-23 -56.5t-57 -23.5z" />
    <glyph glyph-name="ldot" unicode="&#x140;" horiz-adv-x="408" 
d="M65 22v656q0 8 7 15t15 7h81q8 0 15 -7t7 -15v-656q0 -9 -7 -15.5t-15 -6.5h-81q-8 0 -15 6.5t-7 15.5zM331 264q-33 0 -56 23.5t-23 56.5t22.5 56t56.5 23t57 -23t23 -56t-23 -56.5t-57 -23.5z" />
    <glyph glyph-name="Lslash" unicode="&#x141;" horiz-adv-x="505" 
d="M85 19v287l-23 -12q-6 -4 -13.5 -2t-11.5 9l-7 12q-10 16 6 25l49 27v316q0 8 5.5 13.5t13.5 5.5h92q8 0 13.5 -6t5.5 -13v-240l87 51q16 8 26 -7l7 -13q9 -14 -7 -25l-113 -66v-261h255q8 0 13.5 -5.5t5.5 -13.5v-82q0 -8 -5.5 -13.5t-13.5 -5.5h-366q-8 0 -13.5 5.5
t-5.5 13.5z" />
    <glyph glyph-name="lslash" unicode="&#x142;" horiz-adv-x="287" 
d="M78 22v287l-30 -17q-17 -10 -26 7l-6 12q-10 16 6 25l56 32v310q0 8 7 15t15 7h81q8 0 15 -7t7 -15v-237l64 38q17 10 26 -7l7 -13q4 -6 2 -13.5t-9 -11.5l-90 -52v-360q0 -9 -7 -15.5t-15 -6.5h-81q-8 0 -15 6.5t-7 15.5z" />
    <glyph glyph-name="Nacute" unicode="&#x143;" horiz-adv-x="761" 
d="M85 19v673q0 7 5.5 12.5t13.5 5.5h15q10 0 17 -7l408 -435h2v413q0 8 5.5 13.5t13.5 5.5h92q7 0 13 -6t6 -13v-673q0 -7 -5.5 -12.5t-13.5 -5.5h-14q-10 0 -17 7l-410 452h-2v-430q0 -8 -5.5 -13.5t-13.5 -5.5h-91q-8 0 -13.5 6t-5.5 13zM313 768q-18 -8 -25 7l-18 35
q-6 12 6 19l164 98q18 11 26 -3l28 -52q11 -19 -6 -27z" />
    <glyph glyph-name="nacute" unicode="&#x144;" horiz-adv-x="553" 
d="M64 22v418q0 9 6.5 15.5t15.5 6.5h38q14 0 19 -14l17 -43q60 67 149 67q185 0 185 -211v-239q0 -9 -7 -15.5t-15 -6.5h-81q-9 0 -15.5 6.5t-6.5 15.5v239q0 97 -80 97q-75 0 -100 -72v-264q0 -13 -6 -17.5t-23 -4.5h-74q-8 0 -15 6.5t-7 15.5zM218 528q-19 -7 -26 6
l-17 36q-6 11 6 19l163 97q18 12 26 -3l29 -51q9 -20 -6 -27z" />
    <glyph glyph-name="Ncommaaccent" unicode="&#x145;" horiz-adv-x="761" 
d="M85 19v673q0 7 5.5 12.5t13.5 5.5h15q10 0 17 -7l408 -435h2v413q0 8 5.5 13.5t13.5 5.5h92q7 0 13 -6t6 -13v-673q0 -7 -5.5 -12.5t-13.5 -5.5h-14q-10 0 -17 7l-410 452h-2v-430q0 -8 -5.5 -13.5t-13.5 -5.5h-91q-8 0 -13.5 6t-5.5 13zM317 -134q0 32 21.5 51t55.5 19
q40 0 65 -25t25 -74q0 -80 -53 -137q-6 -11 -20 -2l-26 20q-13 9 -1 21q26 28 26 66v13q-20 -10 -33 -10q-27 0 -43.5 16.5t-16.5 41.5z" />
    <glyph glyph-name="ncommaaccent" unicode="&#x146;" horiz-adv-x="553" 
d="M64 22v418q0 9 6.5 15.5t15.5 6.5h38q14 0 19 -14l17 -43q60 67 149 67q185 0 185 -211v-239q0 -9 -7 -15.5t-15 -6.5h-81q-9 0 -15.5 6.5t-6.5 15.5v239q0 97 -80 97q-75 0 -100 -72v-264q0 -13 -6 -17.5t-23 -4.5h-74q-8 0 -15 6.5t-7 15.5zM207 -134q0 32 21.5 51
t55.5 19q40 0 65 -25t25 -74q0 -80 -53 -137q-6 -11 -20 -2l-26 20q-13 9 -1 21q26 28 26 66v13q-20 -10 -33 -10q-27 0 -43.5 16.5t-16.5 41.5z" />
    <glyph glyph-name="Ncaron" unicode="&#x147;" horiz-adv-x="761" 
d="M85 19v673q0 7 5.5 12.5t13.5 5.5h15q10 0 17 -7l408 -435h2v413q0 8 5.5 13.5t13.5 5.5h92q7 0 13 -6t6 -13v-673q0 -7 -5.5 -12.5t-13.5 -5.5h-14q-10 0 -17 7l-410 452h-2v-430q0 -8 -5.5 -13.5t-13.5 -5.5h-91q-8 0 -13.5 6t-5.5 13zM368 764l-130 101q-13 9 -6 19
l26 37q9 11 23 3l97 -61l98 61q14 8 23 -3l26 -37q7 -10 -6 -19l-130 -101q-10 -8 -21 0z" />
    <glyph glyph-name="ncaron" unicode="&#x148;" horiz-adv-x="553" 
d="M64 22v418q0 9 6.5 15.5t15.5 6.5h38q14 0 19 -14l17 -43q60 67 149 67q185 0 185 -211v-239q0 -9 -7 -15.5t-15 -6.5h-81q-9 0 -15.5 6.5t-6.5 15.5v239q0 97 -80 97q-75 0 -100 -72v-264q0 -13 -6 -17.5t-23 -4.5h-74q-8 0 -15 6.5t-7 15.5zM282 524l-130 101
q-13 9 -6 19l26 37q9 11 23 3l97 -61l98 61q14 8 23 -3l26 -37q7 -10 -6 -19l-130 -101q-10 -8 -21 0z" />
    <glyph glyph-name="napostrophe" unicode="&#x149;" horiz-adv-x="553" 
d="M-90 640q0 32 21.5 51t55.5 19q40 0 65 -25t25 -74q0 -80 -53 -137q-6 -11 -20 -2l-26 20q-13 9 -1 21q26 28 26 66v13q-20 -10 -33 -10q-27 0 -43.5 16.5t-16.5 41.5zM64 22v418q0 9 6.5 15.5t15.5 6.5h38q14 0 19 -14l17 -43q60 67 149 67q185 0 185 -211v-239
q0 -9 -7 -15.5t-15 -6.5h-81q-9 0 -15.5 6.5t-6.5 15.5v239q0 97 -80 97q-75 0 -100 -72v-264q0 -13 -6 -17.5t-23 -4.5h-74q-8 0 -15 6.5t-7 15.5z" />
    <glyph glyph-name="Eng" unicode="&#x14a;" horiz-adv-x="761" 
d="M676 681v-700q0 -95 -37 -145.5t-103 -79.5q-34 -15 -44 10l-24 56q-11 28 12 40q22 12 34.5 21t24.5 30.5t12 50.5v115l-336 370h-1v-430q0 -8 -5.5 -13.5t-13.5 -5.5h-91q-8 0 -13.5 6t-5.5 13v673q0 7 5.5 12.5t13.5 5.5h15q10 0 17 -7l409 -435h1v413q0 8 5.5 13.5
t13.5 5.5h92q7 0 13 -6t6 -13z" />
    <glyph glyph-name="eng" unicode="&#x14b;" horiz-adv-x="553" 
d="M494 261v-280q0 -95 -37 -146.5t-103 -79.5q-34 -15 -44 10l-24 56q-11 28 12 40q22 12 34.5 21.5t24.5 31t12 50.5v297q0 97 -80 97q-75 0 -100 -72v-264q0 -13 -6 -17.5t-23 -4.5h-74q-8 0 -15 6.5t-7 15.5v418q0 9 6.5 15.5t15.5 6.5h38q14 0 19 -14l17 -43
q60 67 149 67q185 0 185 -211z" />
    <glyph glyph-name="Omacron" unicode="&#x14c;" horiz-adv-x="807" 
d="M44 349q0 150 104.5 255.5t254.5 105.5t255 -105.5t105 -255.5t-105 -254.5t-255 -104.5t-254.5 104.5t-104.5 254.5zM174 349q0 -95 67 -162t162 -67t162.5 67.5t67.5 161.5q0 95 -68 163t-162 68t-161.5 -68t-67.5 -163zM275 808q-8 0 -13.5 5t-5.5 13v34q0 19 19 19
h256q19 0 19 -19v-34q0 -8 -5.5 -13t-13.5 -5h-256z" />
    <glyph glyph-name="omacron" unicode="&#x14d;" horiz-adv-x="544" 
d="M36 232q0 98 69.5 169t166.5 71q98 0 167.5 -71t69.5 -169q0 -99 -69.5 -171t-167.5 -72q-97 0 -166.5 72t-69.5 171zM152 232q0 -53 35 -91t85 -38t85.5 38t35.5 91q0 52 -35.5 89t-85.5 37t-85 -36.5t-35 -89.5zM146 570q-8 0 -13.5 5t-5.5 13v34q0 19 19 19h256
q19 0 19 -19v-34q0 -8 -5.5 -13t-13.5 -5h-256z" />
    <glyph glyph-name="Obreve" unicode="&#x14e;" horiz-adv-x="807" 
d="M44 349q0 150 104.5 255.5t254.5 105.5t255 -105.5t105 -255.5t-105 -254.5t-255 -104.5t-254.5 104.5t-104.5 254.5zM174 349q0 -95 67 -162t162 -67t162.5 67.5t67.5 161.5q0 95 -68 163t-162 68t-161.5 -68t-67.5 -163zM403 766q-54 0 -93 33.5t-47 84.5q-2 9 3.5 15
t14.5 6h37q13 0 17 -14q8 -23 26 -38t42 -15q21 0 39.5 15.5t26.5 37.5q3 14 17 14h39q9 0 14 -6t4 -15q-8 -51 -47.5 -84.5t-92.5 -33.5z" />
    <glyph glyph-name="obreve" unicode="&#x14f;" horiz-adv-x="544" 
d="M36 232q0 98 69.5 169t166.5 71q98 0 167.5 -71t69.5 -169q0 -99 -69.5 -171t-167.5 -72q-97 0 -166.5 72t-69.5 171zM152 232q0 -53 35 -91t85 -38t85.5 38t35.5 91q0 52 -35.5 89t-85.5 37t-85 -36.5t-35 -89.5zM274 528q-54 0 -93 33.5t-47 84.5q-2 9 3 15.5t15 6.5
h37q13 0 17 -14q8 -24 26 -38.5t42 -14.5q22 0 40 15.5t26 37.5q4 14 17 14h39q9 0 14 -6.5t4 -15.5q-8 -51 -47.5 -84.5t-92.5 -33.5z" />
    <glyph glyph-name="Ohungarumlaut" unicode="&#x150;" horiz-adv-x="807" 
d="M44 349q0 150 104.5 255.5t254.5 105.5t255 -105.5t105 -255.5t-105 -254.5t-255 -104.5t-254.5 104.5t-104.5 254.5zM174 349q0 -95 67 -162t162 -67t162.5 67.5t67.5 161.5q0 95 -68 163t-162 68t-161.5 -68t-67.5 -163zM482 768q-11 0 -16 5.5t-3 13.5l37 141
q6 19 19 19h76q14 0 19 -8t-1 -17l-78 -139q-7 -15 -18 -15h-35zM316 768q-11 0 -16 5.5t-3 13.5l37 141q6 19 19 19h76q14 0 19 -7.5t-1 -17.5l-78 -139q-7 -15 -18 -15h-35z" />
    <glyph glyph-name="ohungarumlaut" unicode="&#x151;" horiz-adv-x="544" 
d="M36 232q0 98 69.5 169t166.5 71q98 0 167.5 -71t69.5 -169q0 -99 -69.5 -171t-167.5 -72q-97 0 -166.5 72t-69.5 171zM152 232q0 -53 35 -91t85 -38t85.5 38t35.5 91q0 52 -35.5 89t-85.5 37t-85 -36.5t-35 -89.5zM346 521q-11 0 -16 5.5t-3 13.5l37 141q6 19 19 19h76
q14 0 19 -8t-1 -17l-78 -139q-7 -15 -18 -15h-35zM180 521q-11 0 -16 5.5t-3 13.5l37 141q6 19 19 19h76q14 0 19 -7.5t-1 -17.5l-78 -139q-7 -15 -18 -15h-35z" />
    <glyph glyph-name="OE" unicode="&#x152;" horiz-adv-x="972" 
d="M44 349q0 150 104.5 255.5t254.5 105.5q24 0 48.5 -2.5t36.5 -5.5l12 -2h407q8 0 13.5 -5.5t5.5 -13.5v-82q0 -8 -5.5 -13.5t-13.5 -5.5h-296v-164h247q8 0 13.5 -6t5.5 -13v-83q0 -8 -5.5 -13.5t-13.5 -5.5h-247v-175h296q8 0 13.5 -5.5t5.5 -13.5v-82q0 -8 -5.5 -13.5
t-13.5 -5.5h-407q-56 -10 -97 -10q-150 0 -254.5 104.5t-104.5 254.5zM174 349q0 -95 67.5 -163t161.5 -68q45 0 78 13v437q-39 14 -78 14q-94 0 -161.5 -69t-67.5 -164z" />
    <glyph glyph-name="oe" unicode="&#x153;" horiz-adv-x="849" 
d="M507 289h187q-2 34 -26.5 57t-62.5 23q-41 0 -67 -22.5t-31 -57.5zM152 232q0 -53 35 -91t85 -38t85.5 38t35.5 91q0 52 -35.5 89t-85.5 37t-85 -36.5t-35 -89.5zM605 -11q-103 1 -167 72q-67 -72 -166 -72q-97 0 -166.5 72.5t-69.5 171.5q0 98 69.5 168.5t166.5 70.5
q99 0 168 -72q64 72 164 72q89 0 152 -61t63 -154q0 -16 -2 -30q-1 -9 -7.5 -14.5t-14.5 -5.5h-295q2 -46 34.5 -76.5t80.5 -30.5q63 0 99 34q17 15 30 0l39 -51q13 -19 -1 -30q-69 -65 -177 -64z" />
    <glyph glyph-name="Racute" unicode="&#x154;" horiz-adv-x="660" 
d="M85 19v662q0 8 5.5 13.5t13.5 5.5h286q90 0 154 -63t64 -152q0 -68 -40.5 -121.5t-107.5 -80.5l137 -254q6 -10 0.5 -19.5t-17.5 -9.5h-105q-11 0 -16 9l-133 265h-111v-255q0 -7 -5.5 -13t-13.5 -6h-92q-8 0 -13.5 5.5t-5.5 13.5zM216 381h163q40 0 69.5 30t29.5 72
q0 40 -29.5 68.5t-69.5 28.5h-163v-199zM252 768q-18 -8 -25 7l-18 35q-6 12 6 19l164 98q18 11 26 -3l28 -52q11 -19 -6 -27z" />
    <glyph glyph-name="racute" unicode="&#x155;" horiz-adv-x="387" 
d="M64 22v418q0 9 6.5 15.5t15.5 6.5h37q14 0 20 -15l17 -45q49 70 130 70q44 0 70 -12t17 -33l-30 -68q-8 -18 -27 -10q-20 9 -43 9q-33 0 -56.5 -16t-31.5 -32v-288q0 -22 -26 -22h-77q-8 0 -15 6.5t-7 15.5zM137 528q-19 -7 -26 6l-17 36q-6 11 6 19l163 97q18 12 26 -3
l29 -51q9 -20 -6 -27z" />
    <glyph glyph-name="Rcommaaccent" unicode="&#x156;" horiz-adv-x="660" 
d="M85 19v662q0 8 5.5 13.5t13.5 5.5h286q90 0 154 -63t64 -152q0 -68 -40.5 -121.5t-107.5 -80.5l137 -254q6 -10 0.5 -19.5t-17.5 -9.5h-105q-11 0 -16 9l-133 265h-111v-255q0 -7 -5.5 -13t-13.5 -6h-92q-8 0 -13.5 5.5t-5.5 13.5zM216 381h163q40 0 69.5 30t29.5 72
q0 40 -29.5 68.5t-69.5 28.5h-163v-199zM256 -134q0 32 21.5 51t55.5 19q40 0 65 -25t25 -74q0 -80 -53 -137q-6 -11 -20 -2l-26 20q-13 9 -1 21q26 28 26 66v13q-20 -10 -33 -10q-27 0 -43.5 16.5t-16.5 41.5z" />
    <glyph glyph-name="rcommaaccent" unicode="&#x157;" horiz-adv-x="387" 
d="M64 22v418q0 9 6.5 15.5t15.5 6.5h37q14 0 20 -15l17 -45q49 70 130 70q44 0 70 -12t17 -33l-30 -68q-8 -18 -27 -10q-20 9 -43 9q-33 0 -56.5 -16t-31.5 -32v-288q0 -22 -26 -22h-77q-8 0 -15 6.5t-7 15.5zM54 -134q0 32 21.5 51t55.5 19q40 0 65 -25t25 -74
q0 -80 -53 -137q-6 -11 -20 -2l-26 20q-13 9 -1 21q26 28 26 66v13q-20 -10 -33 -10q-27 0 -43.5 16.5t-16.5 41.5z" />
    <glyph glyph-name="Rcaron" unicode="&#x158;" horiz-adv-x="660" 
d="M85 19v662q0 8 5.5 13.5t13.5 5.5h286q90 0 154 -63t64 -152q0 -68 -40.5 -121.5t-107.5 -80.5l137 -254q6 -10 0.5 -19.5t-17.5 -9.5h-105q-11 0 -16 9l-133 265h-111v-255q0 -7 -5.5 -13t-13.5 -6h-92q-8 0 -13.5 5.5t-5.5 13.5zM216 381h163q40 0 69.5 30t29.5 72
q0 40 -29.5 68.5t-69.5 28.5h-163v-199zM307 764l-130 101q-13 9 -6 19l26 37q9 11 23 3l97 -61l98 61q14 8 23 -3l26 -37q7 -10 -6 -19l-130 -101q-10 -8 -21 0z" />
    <glyph glyph-name="rcaron" unicode="&#x159;" horiz-adv-x="387" 
d="M64 22v418q0 9 6.5 15.5t15.5 6.5h37q14 0 20 -15l17 -45q49 70 130 70q44 0 70 -12t17 -33l-30 -68q-8 -18 -27 -10q-20 9 -43 9q-33 0 -56.5 -16t-31.5 -32v-288q0 -22 -26 -22h-77q-8 0 -15 6.5t-7 15.5zM188 524l-130 101q-13 9 -6 19l26 37q9 11 23 3l97 -61l98 61
q14 8 23 -3l26 -37q7 -10 -6 -19l-130 -101q-10 -8 -21 0z" />
    <glyph glyph-name="Sacute" unicode="&#x15a;" horiz-adv-x="545" 
d="M276 -10q-130 0 -220 78q-15 12 -5 30l36 62q6 10 17 11.5t17 -4.5q39 -30 73 -46t78 -16q39 0 65 22.5t26 54.5q0 37 -31 65.5t-96 54.5q-84 34 -136 85t-52 131q0 76 57.5 134t167.5 58q111 0 200 -67q7 -4 9 -15t-3 -18l-38 -57q-16 -24 -35 -12q-32 20 -45 27.5
t-40.5 17.5t-53.5 10q-41 0 -64.5 -20t-23.5 -50q0 -35 28 -61t90 -51q43 -17 74.5 -34.5t65 -44t51.5 -64t18 -83.5q0 -81 -64 -139.5t-166 -58.5zM204 768q-18 -8 -25 7l-18 35q-6 12 6 19l164 98q18 11 26 -3l28 -52q11 -19 -6 -27z" />
    <glyph glyph-name="sacute" unicode="&#x15b;" horiz-adv-x="413" 
d="M201 -11q-90 0 -151 42q-14 9 -6 25l30 60q9 20 27 8q48 -30 102 -30q51 0 51 33q0 30 -87 64q-68 26 -98.5 60t-30.5 86q0 57 43 96t123 39q84 0 137 -34q19 -15 10 -32l-26 -53q-10 -16 -29 -9q-51 23 -92 23q-22 0 -33 -9t-11 -21q0 -15 14.5 -25t51.5 -25
q80 -32 116.5 -64.5t36.5 -95.5q0 -58 -47.5 -98t-130.5 -40zM147 528q-19 -7 -26 6l-17 36q-6 11 6 19l163 97q18 12 26 -3l29 -51q9 -20 -6 -27z" />
    <glyph glyph-name="Scircumflex" unicode="&#x15c;" horiz-adv-x="545" 
d="M276 -10q-130 0 -220 78q-15 12 -5 30l36 62q6 10 17 11.5t17 -4.5q39 -30 73 -46t78 -16q39 0 65 22.5t26 54.5q0 37 -31 65.5t-96 54.5q-84 34 -136 85t-52 131q0 76 57.5 134t167.5 58q111 0 200 -67q7 -4 9 -15t-3 -18l-38 -57q-16 -24 -35 -12q-32 20 -45 27.5
t-40.5 17.5t-53.5 10q-41 0 -64.5 -20t-23.5 -50q0 -35 28 -61t90 -51q43 -17 74.5 -34.5t65 -44t51.5 -64t18 -83.5q0 -81 -64 -139.5t-166 -58.5zM174 766q-14 -8 -23 3l-26 37q-7 10 6 19l130 101q10 8 21 0l130 -101q13 -9 6 -19l-26 -37q-9 -11 -23 -3l-97 61z" />
    <glyph glyph-name="scircumflex" unicode="&#x15d;" horiz-adv-x="413" 
d="M201 -11q-90 0 -151 42q-14 9 -6 25l30 60q9 20 27 8q48 -30 102 -30q51 0 51 33q0 30 -87 64q-68 26 -98.5 60t-30.5 86q0 57 43 96t123 39q84 0 137 -34q19 -15 10 -32l-26 -53q-10 -16 -29 -9q-51 23 -92 23q-22 0 -33 -9t-11 -21q0 -15 14.5 -25t51.5 -25
q80 -32 116.5 -64.5t36.5 -95.5q0 -58 -47.5 -98t-130.5 -40zM90 529l-26 37q-7 10 6 19l130 101q10 8 21 0l130 -101q13 -9 6 -19l-26 -37q-9 -11 -23 -3l-97 61l-98 -61q-14 -8 -23 3z" />
    <glyph glyph-name="Scedilla" unicode="&#x15e;" horiz-adv-x="545" 
d="M56 68q-14 14 -5 30l36 62q6 10 17 11.5t17 -4.5l5 -3q5 -4 11.5 -8t16.5 -10t20 -11.5t23 -11t25 -9.5t25 -6.5t25 -2.5q39 0 65 22.5t26 54.5q0 37 -31 65.5t-96 54.5q-84 34 -136 85t-52 131q0 76 57.5 134t167.5 58q111 0 200 -67q7 -4 9 -15t-3 -18l-38 -57
q-16 -24 -35 -12q-88 55 -139 55q-40 0 -64 -22t-24 -48q0 -35 28 -61t90 -51q43 -17 74.5 -34.5t65 -44t51.5 -64t18 -83.5q0 -77 -58 -134t-153 -63l-33 -53q10 3 21 3q36 0 60.5 -23.5t24.5 -63.5q0 -46 -34 -73t-86 -27q-54 0 -84 25q-10 10 0 28l9 20q9 21 27 9
q19 -16 43 -16q47 0 47 39q0 38 -46 38q-8 0 -15 -2t-14 -5t-9 -4q-7 -3 -14 4t-3 14l43 89q-64 7 -109.5 30.5t-66.5 44.5z" />
    <glyph glyph-name="scedilla" unicode="&#x15f;" horiz-adv-x="413" 
d="M379 127q0 -52 -39 -90.5t-108 -45.5l-33 -53q11 3 21 3q36 0 60.5 -23.5t24.5 -63.5q0 -46 -34 -73t-86 -27q-54 0 -84 25q-10 10 0 28l9 20q9 21 27 9q19 -16 43 -16q47 0 47 39q0 38 -46 38q-8 0 -15 -2t-14 -5t-9 -4q-7 -3 -14 4t-3 14l43 87q-72 6 -119 40
q-14 9 -6 25l30 60q9 20 27 8q48 -30 102 -30q23 0 37 9t14 24q0 30 -87 64q-68 26 -98.5 60t-30.5 86q0 57 43 96t123 39q84 0 137 -34q19 -15 10 -32l-26 -53q-10 -16 -29 -9q-51 23 -92 23q-22 0 -33 -9t-11 -21q0 -15 14.5 -25t51.5 -25q80 -32 116.5 -64.5t36.5 -95.5z
" />
    <glyph glyph-name="Scaron" unicode="&#x160;" horiz-adv-x="545" 
d="M276 -10q-130 0 -220 78q-15 12 -5 30l36 62q6 10 17 11.5t17 -4.5q39 -30 73 -46t78 -16q39 0 65 22.5t26 54.5q0 37 -31 65.5t-96 54.5q-84 34 -136 85t-52 131q0 76 57.5 134t167.5 58q111 0 200 -67q7 -4 9 -15t-3 -18l-38 -57q-16 -24 -35 -12q-32 20 -45 27.5
t-40.5 17.5t-53.5 10q-41 0 -64.5 -20t-23.5 -50q0 -35 28 -61t90 -51q43 -17 74.5 -34.5t65 -44t51.5 -64t18 -83.5q0 -81 -64 -139.5t-166 -58.5zM262 764l-130 101q-13 9 -6 19l26 37q9 11 23 3l97 -61l98 61q14 8 23 -3l26 -37q7 -10 -6 -19l-130 -101q-10 -8 -21 0z
" />
    <glyph glyph-name="scaron" unicode="&#x161;" horiz-adv-x="413" 
d="M201 -11q-90 0 -151 42q-14 9 -6 25l30 60q9 20 27 8q48 -30 102 -30q51 0 51 33q0 30 -87 64q-68 26 -98.5 60t-30.5 86q0 57 43 96t123 39q84 0 137 -34q19 -15 10 -32l-26 -53q-10 -16 -29 -9q-51 23 -92 23q-22 0 -33 -9t-11 -21q0 -15 14.5 -25t51.5 -25
q80 -32 116.5 -64.5t36.5 -95.5q0 -58 -47.5 -98t-130.5 -40zM204 524l-130 101q-13 9 -6 19l26 37q9 11 23 3l97 -61l98 61q14 8 23 -3l26 -37q7 -10 -6 -19l-130 -101q-10 -8 -21 0z" />
    <glyph glyph-name="Tcommaaccent" unicode="&#x162;" horiz-adv-x="527" 
d="M198 19v561h-153q-8 0 -13.5 5.5t-5.5 13.5v82q0 8 5.5 13.5t13.5 5.5h437q8 0 13.5 -5.5t5.5 -13.5v-82q0 -8 -5.5 -13.5t-13.5 -5.5h-153v-561q0 -7 -5.5 -13t-13.5 -6h-17l-39 -62q10 3 21 3q36 0 60.5 -23.5t24.5 -63.5q0 -46 -34 -73t-86 -27q-54 0 -84 25
q-10 10 0 28l9 20q9 21 27 9q19 -16 43 -16q47 0 47 39q0 38 -46 38q-8 0 -15 -2t-14 -5t-9 -4q-7 -3 -14 4t-3 14l47 96h-11q-7 0 -13 6t-6 13z" />
    <glyph glyph-name="tcommaaccent" unicode="&#x163;" horiz-adv-x="392" 
d="M97 138v212h-45q-9 0 -15 6.5t-6 15.5v68q0 10 6 16t15 6h45v128q0 9 7 15.5t15 6.5h82q9 0 15 -6.5t6 -15.5v-128h108q9 0 15.5 -6t6.5 -16v-68q0 -8 -6.5 -15t-15.5 -7h-108v-208q0 -22 9.5 -30t28.5 -8q25 0 70 15q10 4 17 0t9 -12l13 -61q4 -18 -13 -27
q-12 -7 -45 -16t-63 -12l-33 -53q11 3 21 3q36 0 60.5 -23.5t24.5 -63.5q0 -46 -34 -73t-86 -27q-54 0 -84 25q-10 10 0 28l9 20q9 21 27 9q19 -16 43 -16q47 0 47 39q0 38 -46 38q-8 0 -15 -2t-14 -5t-9 -4q-7 -3 -14 4t-3 14l44 89q-89 20 -89 145z" />
    <glyph glyph-name="Tcaron" unicode="&#x164;" horiz-adv-x="527" 
d="M198 19v561h-153q-8 0 -13.5 5.5t-5.5 13.5v82q0 8 5.5 13.5t13.5 5.5h437q8 0 13.5 -5.5t5.5 -13.5v-82q0 -8 -5.5 -13.5t-13.5 -5.5h-153v-561q0 -7 -5.5 -13t-13.5 -6h-93q-7 0 -13 6t-6 13zM252 764l-130 101q-13 9 -6 19l26 37q9 11 23 3l97 -61l98 61q14 8 23 -3
l26 -37q7 -10 -6 -19l-130 -101q-10 -8 -21 0z" />
    <glyph glyph-name="tcaron" unicode="&#x165;" horiz-adv-x="390" 
d="M95 138v212h-45q-9 0 -15 6.5t-6 15.5v68q0 10 6 16t15 6h45v128q0 9 7 15.5t15 6.5h82q9 0 15 -6.5t6 -15.5v-128h108q9 0 15.5 -6t6.5 -16v-68q0 -8 -6.5 -15t-15.5 -7h-108v-208q0 -22 9.5 -30t28.5 -8q25 0 70 15q10 4 17 0t9 -12l13 -61q4 -18 -13 -27
q-15 -9 -56.5 -19.5t-73.5 -10.5q-129 0 -129 149zM320 640q0 32 21.5 51t55.5 19q40 0 65 -25t25 -74q0 -80 -53 -137q-6 -11 -20 -2l-26 20q-13 9 -1 21q26 28 26 66v13q-20 -10 -33 -10q-27 0 -43.5 16.5t-16.5 41.5z" />
    <glyph glyph-name="Tbar" unicode="&#x166;" horiz-adv-x="527" 
d="M198 19v272h-94q-7 0 -12.5 5.5t-5.5 13.5v13q0 8 5.5 13.5t12.5 5.5h94v238h-153q-8 0 -13.5 5.5t-5.5 13.5v82q0 8 5.5 13.5t13.5 5.5h437q8 0 13.5 -5.5t5.5 -13.5v-82q0 -8 -5.5 -13.5t-13.5 -5.5h-153v-238h98q8 0 13.5 -5.5t5.5 -13.5v-14q0 -8 -5.5 -13t-13.5 -5
h-98v-272q0 -7 -5.5 -13t-13.5 -6h-93q-7 0 -13 6t-6 13z" />
    <glyph glyph-name="tbar" unicode="&#x167;" horiz-adv-x="390" 
d="M95 138v58h-42q-9 0 -15 6.5t-6 15.5v15q0 9 6 15.5t15 6.5h42v95h-45q-9 0 -15 6.5t-6 15.5v68q0 10 6 16t15 6h45v128q0 9 7 15.5t15 6.5h82q9 0 15 -6.5t6 -15.5v-128h108q9 0 15.5 -6t6.5 -16v-68q0 -8 -6.5 -15t-15.5 -7h-108v-95h99q10 0 16 -6.5t6 -15.5v-16
q0 -9 -6.5 -15t-15.5 -6h-99v-54q0 -22 9.5 -30t28.5 -8q25 0 70 15q10 4 17 0t9 -12l13 -61q4 -18 -13 -27q-15 -9 -56.5 -19.5t-73.5 -10.5q-129 0 -129 149z" />
    <glyph glyph-name="Utilde" unicode="&#x168;" horiz-adv-x="713" 
d="M78 257v424q0 7 6 13t13 6h95q8 0 13.5 -5.5t5.5 -13.5v-417q0 -64 40 -104t105 -40t105.5 40t40.5 103v418q0 8 5.5 13.5t13.5 5.5h95q8 0 13.5 -6t5.5 -13v-424q0 -114 -80 -190.5t-199 -76.5q-118 0 -198 76.5t-80 190.5zM238 789l-29 21q-12 9 -6 23q8 15 12.5 22
t19 25.5t33 27.5t39.5 9q28 0 59 -27.5t48 -27.5q12 0 21 9.5t13.5 19t13 15t17.5 -2.5l28 -20q13 -10 1 -31q-30 -52 -60 -67q-18 -9 -37 -9q-28 0 -61.5 28t-47.5 28q-15 0 -25 -15t-18 -25.5t-21 -2.5z" />
    <glyph glyph-name="utilde" unicode="&#x169;" horiz-adv-x="533" 
d="M59 195v245q0 10 6.5 16t15.5 6h81q9 0 15.5 -6t6.5 -16v-245q0 -47 18 -69.5t60 -22.5q35 0 55.5 25.5t26.5 60.5v251q0 13 5 17.5t20 4.5h78q9 0 15.5 -6t6.5 -16v-418q0 -9 -6.5 -15.5t-15.5 -6.5h-36q-16 0 -22 17l-13 39q-64 -67 -143 -67q-52 0 -87.5 15
t-53.5 44.5t-25.5 64.5t-7.5 82zM145 562l-29 21q-12 9 -6 23q8 15 12.5 22t19 25.5t33 27.5t39.5 9q28 0 59 -27.5t48 -27.5q12 0 21 9.5t13.5 19t13 15t17.5 -2.5l28 -20q13 -10 1 -31q-30 -52 -60 -67q-18 -9 -37 -9q-28 0 -61.5 28t-47.5 28q-15 0 -25 -15t-18 -25.5
t-21 -2.5z" />
    <glyph glyph-name="Umacron" unicode="&#x16a;" horiz-adv-x="713" 
d="M78 257v424q0 7 6 13t13 6h95q8 0 13.5 -5.5t5.5 -13.5v-417q0 -64 40 -104t105 -40t105.5 40t40.5 103v418q0 8 5.5 13.5t13.5 5.5h95q8 0 13.5 -6t5.5 -13v-424q0 -114 -80 -190.5t-199 -76.5q-118 0 -198 76.5t-80 190.5zM230 808q-8 0 -13.5 5t-5.5 13v34q0 19 19 19
h256q19 0 19 -19v-34q0 -8 -5.5 -13t-13.5 -5h-256z" />
    <glyph glyph-name="umacron" unicode="&#x16b;" horiz-adv-x="533" 
d="M59 195v245q0 10 6.5 16t15.5 6h81q9 0 15.5 -6t6.5 -16v-245q0 -47 18 -69.5t60 -22.5q35 0 55.5 25.5t26.5 60.5v251q0 13 5 17.5t20 4.5h78q9 0 15.5 -6t6.5 -16v-418q0 -9 -6.5 -15.5t-15.5 -6.5h-36q-16 0 -22 17l-13 39q-64 -67 -143 -67q-52 0 -87.5 15
t-53.5 44.5t-25.5 64.5t-7.5 82zM137 570q-8 0 -13.5 5t-5.5 13v34q0 19 19 19h256q19 0 19 -19v-34q0 -8 -5.5 -13t-13.5 -5h-256z" />
    <glyph glyph-name="Ubreve" unicode="&#x16c;" horiz-adv-x="713" 
d="M78 257v424q0 7 6 13t13 6h95q8 0 13.5 -5.5t5.5 -13.5v-417q0 -64 40 -104t105 -40t105.5 40t40.5 103v418q0 8 5.5 13.5t13.5 5.5h95q8 0 13.5 -6t5.5 -13v-424q0 -114 -80 -190.5t-199 -76.5q-118 0 -198 76.5t-80 190.5zM359 766q-54 0 -93 33.5t-47 84.5
q-2 9 3.5 15t14.5 6h37q13 0 17 -14q8 -23 26 -38t42 -15q21 0 39.5 15.5t26.5 37.5q3 14 17 14h39q9 0 14 -6t4 -15q-8 -51 -47.5 -84.5t-92.5 -33.5z" />
    <glyph glyph-name="ubreve" unicode="&#x16d;" horiz-adv-x="533" 
d="M59 195v245q0 10 6.5 16t15.5 6h81q9 0 15.5 -6t6.5 -16v-245q0 -47 18 -69.5t60 -22.5q35 0 55.5 25.5t26.5 60.5v251q0 13 5 17.5t20 4.5h78q9 0 15.5 -6t6.5 -16v-418q0 -9 -6.5 -15.5t-15.5 -6.5h-36q-16 0 -22 17l-13 39q-64 -67 -143 -67q-52 0 -87.5 15
t-53.5 44.5t-25.5 64.5t-7.5 82zM266 528q-54 0 -93 33.5t-47 84.5q-2 9 3 15.5t15 6.5h37q13 0 17 -14q8 -24 26 -38.5t42 -14.5q22 0 40 15.5t26 37.5q4 14 17 14h39q9 0 14 -6.5t4 -15.5q-8 -51 -47.5 -84.5t-92.5 -33.5z" />
    <glyph glyph-name="Uring" unicode="&#x16e;" horiz-adv-x="713" 
d="M78 257v424q0 7 6 13t13 6h95q8 0 13.5 -5.5t5.5 -13.5v-417q0 -64 40 -104t105 -40t105.5 40t40.5 103v418q0 8 5.5 13.5t13.5 5.5h95q8 0 13.5 -6t5.5 -13v-424q0 -114 -80 -190.5t-199 -76.5q-118 0 -198 76.5t-80 190.5zM359 754q-47 0 -80 33t-33 80t33 80t80 33
t80 -33t33 -80t-33 -80t-80 -33zM359 817q19 0 33.5 15t14.5 35q0 19 -14.5 33.5t-33.5 14.5q-20 0 -35 -14.5t-15 -33.5t15.5 -34.5t34.5 -15.5z" />
    <glyph glyph-name="uring" unicode="&#x16f;" horiz-adv-x="533" 
d="M59 195v245q0 10 6.5 16t15.5 6h81q9 0 15.5 -6t6.5 -16v-245q0 -47 18 -69.5t60 -22.5q35 0 55.5 25.5t26.5 60.5v251q0 13 5 17.5t20 4.5h78q9 0 15.5 -6t6.5 -16v-418q0 -9 -6.5 -15.5t-15.5 -6.5h-36q-16 0 -22 17l-13 39q-64 -67 -143 -67q-52 0 -87.5 15
t-53.5 44.5t-25.5 64.5t-7.5 82zM263 503q-47 0 -80 33t-33 80t33 80t80 33t80 -33t33 -80t-33 -80t-80 -33zM263 566q19 0 33.5 15t14.5 35t-14.5 34t-33.5 14q-20 0 -35 -14.5t-15 -33.5q0 -20 15.5 -35t34.5 -15z" />
    <glyph glyph-name="Uhungarumlaut" unicode="&#x170;" horiz-adv-x="713" 
d="M78 257v424q0 7 6 13t13 6h95q8 0 13.5 -5.5t5.5 -13.5v-417q0 -64 40 -104t105 -40t105.5 40t40.5 103v418q0 8 5.5 13.5t13.5 5.5h95q8 0 13.5 -6t5.5 -13v-424q0 -114 -80 -190.5t-199 -76.5q-118 0 -198 76.5t-80 190.5zM429 768q-11 0 -16 5.5t-3 13.5l37 141
q6 19 19 19h76q14 0 19 -8t-1 -17l-78 -139q-8 -15 -18 -15h-35zM263 768q-11 0 -16 5.5t-3 13.5l37 141q6 19 19 19h76q14 0 19 -7.5t-1 -17.5l-78 -139q-8 -15 -18 -15h-35z" />
    <glyph glyph-name="uhungarumlaut" unicode="&#x171;" horiz-adv-x="533" 
d="M59 195v245q0 10 6.5 16t15.5 6h81q9 0 15.5 -6t6.5 -16v-245q0 -47 18 -69.5t60 -22.5q35 0 55.5 25.5t26.5 60.5v251q0 13 5 17.5t20 4.5h78q9 0 15.5 -6t6.5 -16v-418q0 -9 -6.5 -15.5t-15.5 -6.5h-36q-16 0 -22 17l-13 39q-64 -67 -143 -67q-52 0 -87.5 15
t-53.5 44.5t-25.5 64.5t-7.5 82zM338 521q-11 0 -16 5.5t-3 13.5l37 141q6 19 19 19h76q14 0 19 -8t-1 -17l-78 -139q-7 -15 -18 -15h-35zM172 521q-11 0 -16 5.5t-3 13.5l37 141q6 19 19 19h76q14 0 19 -7.5t-1 -17.5l-78 -139q-7 -15 -18 -15h-35z" />
    <glyph glyph-name="Uogonek" unicode="&#x172;" horiz-adv-x="713" 
d="M78 265v416q0 7 6 13t13 6h95q8 0 13.5 -5.5t5.5 -13.5v-409q0 -65 40.5 -108.5t104.5 -43.5t105 43.5t41 107.5v410q0 8 5.5 13.5t13.5 5.5h95q8 0 13.5 -6t5.5 -13v-416q0 -101 -64 -177t-163 -93q-86 -61 -86 -117q0 -43 39 -43q29 0 61 28q7 6 13.5 3.5t6.5 -10.5
l1 -49q0 -20 -15 -31q-37 -23 -89 -23q-51 0 -78 29t-27 75q0 72 82 136q-103 14 -170.5 91t-67.5 181z" />
    <glyph glyph-name="uogonek" unicode="&#x173;" horiz-adv-x="533" 
d="M59 205v235q0 10 6.5 16t15.5 6h81q9 0 15.5 -6t6.5 -16v-235q0 -102 78 -102q35 0 55.5 25.5t26.5 60.5v251q0 13 5 17.5t20 4.5h78q9 0 15.5 -6t6.5 -16v-411q0 -17 -16 -29q-95 -65 -95 -122q0 -43 39 -43q29 0 61 28q7 6 13.5 3.5t6.5 -10.5l1 -49q0 -20 -15 -31
q-37 -23 -89 -23q-51 0 -78 29t-27 75q0 49 36 91t82 70l-12 38q-2 -2 -13.5 -14t-20 -18.5t-24.5 -16t-37.5 -14t-47.5 -4.5q-52 0 -87.5 16.5t-53.5 48t-25.5 67.5t-7.5 84z" />
    <glyph glyph-name="Wcircumflex" unicode="&#x174;" horiz-adv-x="885" 
d="M211 4l-189 672q-3 10 2 17t16 7h92q14 0 18 -14l104 -399h4l159 412q4 11 17 11h18q13 0 17 -11l160 -412h4l102 399q4 14 18 14h92q11 0 16 -7t2 -17l-189 -672q-4 -14 -18 -14h-16q-13 0 -17 11l-179 453h-5l-177 -453q-6 -11 -17 -11h-16q-15 0 -18 14zM345 766
q-14 -8 -23 3l-26 37q-7 10 6 19l130 101q10 8 21 0l130 -101q13 -9 6 -19l-26 -37q-9 -11 -23 -3l-97 61z" />
    <glyph glyph-name="wcircumflex" unicode="&#x175;" horiz-adv-x="713" 
d="M167 2l-141 434q-5 10 1 18t18 8h78q17 0 20 -14l70 -220h1l121 234q4 10 18 10h9q14 0 19 -10l120 -234h1l69 220q4 14 26 14h70q12 0 18.5 -8t2.5 -18l-142 -434q-4 -13 -21 -13h-4q-12 0 -19 11l-145 278h-1l-145 -278q-5 -11 -18 -11h-6q-16 0 -20 13zM239 529
l-26 37q-7 10 6 19l130 101q10 8 21 0l130 -101q13 -9 6 -19l-26 -37q-9 -11 -23 -3l-97 61l-98 -61q-14 -8 -23 3z" />
    <glyph glyph-name="Ycircumflex" unicode="&#x176;" horiz-adv-x="593" 
d="M231 19v318l-228 334q-6 10 -1 19.5t17 9.5h102q9 0 16 -9l160 -230l160 230q7 9 16 9h103q12 0 17 -9.5t-1 -19.5l-231 -333v-319q0 -7 -5.5 -13t-13.5 -6h-92q-8 0 -13.5 5.5t-5.5 13.5zM200 766q-14 -8 -23 3l-26 37q-7 10 6 19l130 101q10 8 21 0l130 -101
q13 -9 6 -19l-26 -37q-9 -11 -23 -3l-97 61z" />
    <glyph glyph-name="ycircumflex" unicode="&#x177;" horiz-adv-x="499" 
d="M165 27l-144 405q-5 12 1 21t19 9h96q16 0 19 -13l83 -276h2l105 276q8 13 29 13h85q13 0 19 -9.5t1 -20.5l-272 -656q-6 -14 -20 -14h-96q-13 0 -19 9.5t-1 21.5zM131 529l-26 37q-7 10 6 19l130 101q10 8 21 0l130 -101q13 -9 6 -19l-26 -37q-9 -11 -23 -3l-97 61
l-98 -61q-14 -8 -23 3z" />
    <glyph glyph-name="Ydieresis" unicode="&#x178;" horiz-adv-x="593" 
d="M231 19v318l-228 334q-6 10 -1 19.5t17 9.5h102q9 0 16 -9l160 -230l160 230q7 9 16 9h103q12 0 17 -9.5t-1 -19.5l-231 -333v-319q0 -7 -5.5 -13t-13.5 -6h-92q-8 0 -13.5 5.5t-5.5 13.5zM420 766q-31 0 -51.5 21t-20.5 52t20.5 51.5t51.5 20.5t52 -20.5t21 -51.5
t-21 -52t-52 -21zM173 766q-31 0 -51.5 21t-20.5 52t20.5 51.5t51.5 20.5t52 -20.5t21 -51.5t-21 -52t-52 -21z" />
    <glyph glyph-name="Zacute" unicode="&#x179;" horiz-adv-x="538" 
d="M216 123v-2h255q8 0 13.5 -5.5t5.5 -13.5v-83q0 -8 -5.5 -13.5t-13.5 -5.5h-427q-8 0 -13.5 6t-5.5 13q0 18 7 31l291 525v4h-250q-7 0 -13 5.5t-6 13.5v83q0 7 6 13t13 6h418q7 0 13 -6t6 -13q0 -13 -9 -29zM214 768q-18 -8 -25 7l-18 35q-6 12 6 19l164 98q18 11 26 -3
l28 -52q11 -19 -6 -27z" />
    <glyph glyph-name="zacute" unicode="&#x17a;" horiz-adv-x="408" 
d="M207 113h132q9 0 15.5 -6.5t6.5 -15.5v-69q0 -9 -6.5 -15.5t-15.5 -6.5h-285q-9 0 -15.5 6.5t-6.5 15.5q0 12 5 21l165 303v2h-139q-8 0 -14.5 7t-6.5 15v70q0 10 6 16t15 6h298q23 0 23 -21q0 -5 -3 -11l-174 -315v-2zM139 528q-19 -7 -26 6l-17 36q-6 11 6 19l163 97
q18 12 26 -3l29 -51q9 -20 -6 -27z" />
    <glyph glyph-name="Zdotaccent" unicode="&#x17b;" horiz-adv-x="538" 
d="M216 123v-2h255q8 0 13.5 -5.5t5.5 -13.5v-83q0 -8 -5.5 -13.5t-13.5 -5.5h-427q-8 0 -13.5 6t-5.5 13q0 18 7 31l291 525v4h-250q-7 0 -13 5.5t-6 13.5v83q0 7 6 13t13 6h418q7 0 13 -6t6 -13q0 -13 -9 -29zM281 773q-33 0 -56 23.5t-23 56.5t22.5 56t56.5 23t57 -23
t23 -56t-23 -56.5t-57 -23.5z" />
    <glyph glyph-name="zdotaccent" unicode="&#x17c;" horiz-adv-x="408" 
d="M207 113h132q9 0 15.5 -6.5t6.5 -15.5v-69q0 -9 -6.5 -15.5t-15.5 -6.5h-285q-9 0 -15.5 6.5t-6.5 15.5q0 12 5 21l165 303v2h-139q-8 0 -14.5 7t-6.5 15v70q0 10 6 16t15 6h298q23 0 23 -21q0 -5 -3 -11l-174 -315v-2zM224 541q-33 0 -56 23.5t-23 56.5t22.5 56t56.5 23
t57 -23t23 -56t-23 -56.5t-57 -23.5z" />
    <glyph glyph-name="Zcaron" unicode="&#x17d;" horiz-adv-x="538" 
d="M216 123v-2h255q8 0 13.5 -5.5t5.5 -13.5v-83q0 -8 -5.5 -13.5t-13.5 -5.5h-427q-8 0 -13.5 6t-5.5 13q0 18 7 31l291 525v4h-250q-7 0 -13 5.5t-6 13.5v83q0 7 6 13t13 6h418q7 0 13 -6t6 -13q0 -13 -9 -29zM269 764l-130 101q-13 9 -6 19l26 37q9 11 23 3l97 -61l98 61
q14 8 23 -3l26 -37q7 -10 -6 -19l-130 -101q-10 -8 -21 0z" />
    <glyph glyph-name="zcaron" unicode="&#x17e;" horiz-adv-x="408" 
d="M207 113h132q9 0 15.5 -6.5t6.5 -15.5v-69q0 -9 -6.5 -15.5t-15.5 -6.5h-285q-9 0 -15.5 6.5t-6.5 15.5q0 12 5 21l165 303v2h-139q-8 0 -14.5 7t-6.5 15v70q0 10 6 16t15 6h298q23 0 23 -21q0 -5 -3 -11l-174 -315v-2zM205 524l-130 101q-13 9 -6 19l26 37q9 11 23 3
l97 -61l98 61q14 8 23 -3l26 -37q7 -10 -6 -19l-130 -101q-10 -8 -21 0z" />
    <glyph glyph-name="florin" unicode="&#x192;" horiz-adv-x="385" 
d="M118 -47v343h-75q-8 0 -13.5 5.5t-5.5 13.5v66q0 19 19 19h75v109q0 95 53.5 148t139.5 53q64 0 111 -39q12 -12 4 -24l-37 -62q-10 -14 -24 -5q-5 4 -22.5 10.5t-30.5 6.5q-29 0 -49 -22.5t-20 -66.5v-108h100q19 0 19 -19v-66q0 -8 -5.5 -13.5t-13.5 -5.5h-100v-344
q0 -95 -54 -148t-140 -53q-64 0 -111 39q-11 11 -4 24l38 62q9 14 24 5q4 -4 21.5 -10.5t30.5 -6.5q29 0 49.5 22.5t20.5 66.5z" />
    <glyph glyph-name="Aringacute" unicode="&#x1fa;" horiz-adv-x="670" 
d="M243 886l-18 35q-6 12 6 19l164 98q18 11 26 -3l28 -52q11 -19 -6 -27l-175 -77q-18 -8 -25 7zM20 0q-11 0 -16.5 8t-0.5 18l293 634q-32 12 -51.5 40.5t-19.5 64.5q0 47 33 80t80 33t80 -33t33 -80q0 -36 -21 -65.5t-54 -41.5l290 -632q5 -10 -0.5 -18t-16.5 -8h-87
q-19 0 -29 20l-49 108h-299l-49 -108q-8 -20 -29 -20h-87zM338 715q19 0 33.5 15t14.5 35q0 19 -14 33.5t-34 14.5t-35 -14.5t-15 -33.5t15 -34.5t35 -15.5zM234 239h201l-100 220h-3z" />
    <glyph glyph-name="aringacute" unicode="&#x1fb;" horiz-adv-x="482" 
d="M249 499q-48 0 -80.5 28.5t-32.5 74.5t32.5 74.5t80.5 28.5t80.5 -28.5t32.5 -74.5t-32.5 -74.5t-80.5 -28.5zM249 562q20 0 34 10.5t14 29.5t-13.5 28.5t-34.5 9.5t-35.5 -10t-14.5 -28q0 -19 14.5 -29.5t35.5 -10.5zM178 714q-19 -7 -26 6l-15 36q-7 14 6 19l161 77
q21 11 29 -3l26 -51q10 -19 -6 -27zM32 147q0 63 49.5 104t134.5 41q21 0 43 -3t34 -7l12 -3q2 45 -13 66t-51 21q-73 0 -130 -17q-22 -7 -26 20l-10 52q-5 22 15 28q14 6 62 14.5t96 8.5q102 0 138 -49t36 -152v-249q0 -9 -6.5 -15.5t-15.5 -6.5h-34q-13 0 -20 16l-13 31
q-60 -58 -145 -58q-70 0 -113 42.5t-43 115.5zM152 147q0 -30 17.5 -47.5t49.5 -17.5q28 0 53 17t30 32v68q-31 14 -68 14q-39 0 -60.5 -17.5t-21.5 -48.5z" />
    <glyph glyph-name="AEacute" unicode="&#x1fc;" horiz-adv-x="896" 
d="M3 0q-11 0 -14.5 8t2.5 18l401 643q15 24 25 28q7 3 19 3h395q8 0 13.5 -5.5t5.5 -13.5v-82q0 -8 -5.5 -13.5t-13.5 -5.5h-299v-164h250q8 0 13.5 -6t5.5 -13v-83q0 -8 -5.5 -13.5t-13.5 -5.5h-250v-175h299q8 0 13.5 -5.5t5.5 -13.5v-82q0 -8 -5.5 -13.5t-13.5 -5.5
h-408q-8 0 -13.5 5.5t-5.5 13.5v109h-210l-71 -113q-10 -15 -25 -15h-95zM264 239h140v226zM553 769q-18 -8 -25 7l-18 35q-6 12 6 19l164 98q18 11 26 -3l28 -52q11 -19 -6 -27z" />
    <glyph glyph-name="aeacute" unicode="&#x1fd;" horiz-adv-x="773" 
d="M33 147q0 63 48.5 104t130.5 41q21 0 43.5 -3t34.5 -6l12 -3q-2 48 -14.5 67t-49.5 19q-70 0 -125 -17q-9 -3 -16.5 2t-9.5 14l-12 62q-3 17 18 23q85 22 156 22q100 0 139 -50q60 50 139 50q90 0 153.5 -60.5t63.5 -153.5q0 -51 -26 -51h-294q0 -40 32 -73.5t84 -33.5
q57 0 101 36q16 13 27 -2l39 -51q13 -19 -2 -30q-66 -64 -177 -64q-104 0 -172 81q-20 -29 -64 -55t-101 -26q-71 0 -114.5 42.5t-43.5 115.5zM153 147q0 -30 17.5 -47.5t49.5 -17.5q28 0 53 17t30 32v68q-31 14 -68 14q-39 0 -60.5 -17.5t-21.5 -48.5zM431 289h187
q-2 34 -26.5 57t-62.5 23q-41 0 -67 -22.5t-31 -57.5zM365 528q-19 -7 -26 6l-17 36q-6 11 6 19l163 97q18 12 26 -3l29 -51q9 -20 -6 -27z" />
    <glyph glyph-name="Oslashacute" unicode="&#x1fe;" horiz-adv-x="806" 
d="M66 23q-5 5 -5.5 13t4.5 13l65 64q-86 100 -86 236q0 150 104.5 255.5t254.5 105.5q133 0 236 -88l68 67q13 13 26 0l10 -10q12 -12 0 -26l-68 -68q88 -103 88 -235q0 -150 -105 -255t-255 -105q-138 0 -236 87l-65 -65q-12 -12 -26 1zM224 207l323 322q-66 51 -144 51
q-94 0 -161.5 -68t-67.5 -163q0 -79 50 -142zM260 170q63 -50 143 -50q95 0 162.5 68t67.5 162q0 81 -51 142zM333 768q-18 -8 -25 7l-18 35q-6 12 6 19l164 98q18 11 26 -3l28 -52q11 -19 -6 -27z" />
    <glyph glyph-name="oslashacute" unicode="&#x1ff;" horiz-adv-x="544" 
d="M36 232q0 98 69.5 169t166.5 71q86 0 154 -58l15 15q5 7 14 6.5t14 -6.5l11 -11q15 -14 0 -29l-17 -17q46 -63 46 -140q0 -99 -69.5 -171t-167.5 -72q-76 0 -139 47l-22 -22q-6 -5 -15 -5t-15 6l-10 11q-15 15 -1 29l21 21q-55 70 -55 156zM152 232q0 -39 21 -73l172 173
q-33 26 -73 26q-50 0 -85 -36.5t-35 -89.5zM393 232q0 28 -13 56l-166 -169q27 -16 58 -16q50 0 85.5 38t35.5 91zM203 528q-19 -7 -26 6l-17 36q-6 11 6 19l163 97q18 12 26 -3l29 -51q9 -20 -6 -27z" />
    <glyph glyph-name="Scommaaccent" unicode="&#x218;" horiz-adv-x="545" 
d="M276 -10q-130 0 -220 78q-15 12 -5 30l36 62q6 10 17 11.5t17 -4.5q39 -30 73 -46t78 -16q39 0 65 22.5t26 54.5q0 37 -31 65.5t-96 54.5q-84 34 -136 85t-52 131q0 76 57.5 134t167.5 58q111 0 200 -67q7 -4 9 -15t-3 -18l-38 -57q-16 -24 -35 -12q-32 20 -45 27.5
t-40.5 17.5t-53.5 10q-41 0 -64.5 -20t-23.5 -50q0 -35 28 -61t90 -51q43 -17 74.5 -34.5t65 -44t51.5 -64t18 -83.5q0 -81 -64 -139.5t-166 -58.5zM200 -134q0 32 21.5 51t55.5 19q40 0 65 -25t25 -74q0 -80 -53 -137q-6 -11 -20 -2l-26 20q-13 9 -1 21q26 28 26 66v13
q-20 -10 -33 -10q-27 0 -43.5 16.5t-16.5 41.5z" />
    <glyph glyph-name="scommaaccent" unicode="&#x219;" horiz-adv-x="413" 
d="M201 -11q-90 0 -151 42q-14 9 -6 25l30 60q9 20 27 8q48 -30 102 -30q51 0 51 33q0 30 -87 64q-68 26 -98.5 60t-30.5 86q0 57 43 96t123 39q84 0 137 -34q19 -15 10 -32l-26 -53q-10 -16 -29 -9q-51 23 -92 23q-22 0 -33 -9t-11 -21q0 -15 14.5 -25t51.5 -25
q80 -32 116.5 -64.5t36.5 -95.5q0 -58 -47.5 -98t-130.5 -40zM121 -134q0 32 21.5 51t55.5 19q40 0 65 -25t25 -74q0 -80 -53 -137q-6 -11 -20 -2l-26 20q-13 9 -1 21q26 28 26 66v13q-20 -10 -33 -10q-27 0 -43.5 16.5t-16.5 41.5z" />
    <glyph glyph-name="uni021A" unicode="&#x21a;" horiz-adv-x="527" 
d="M198 19v561h-153q-8 0 -13.5 5.5t-5.5 13.5v82q0 8 5.5 13.5t13.5 5.5h437q8 0 13.5 -5.5t5.5 -13.5v-82q0 -8 -5.5 -13.5t-13.5 -5.5h-153v-561q0 -7 -5.5 -13t-13.5 -6h-93q-7 0 -13 6t-6 13zM183 -134q0 32 21.5 51t55.5 19q40 0 65 -25t25 -74q0 -80 -53 -137
q-6 -11 -20 -2l-26 20q-13 9 -1 21q26 28 26 66v13q-20 -10 -33 -10q-27 0 -43.5 16.5t-16.5 41.5z" />
    <glyph glyph-name="uni021B" unicode="&#x21b;" horiz-adv-x="390" 
d="M95 138v212h-45q-9 0 -15 6.5t-6 15.5v68q0 10 6 16t15 6h45v128q0 9 7 15.5t15 6.5h82q9 0 15 -6.5t6 -15.5v-128h108q9 0 15.5 -6t6.5 -16v-68q0 -8 -6.5 -15t-15.5 -7h-108v-208q0 -22 9.5 -30t28.5 -8q25 0 70 15q10 4 17 0t9 -12l13 -61q4 -18 -13 -27
q-15 -9 -56.5 -19.5t-73.5 -10.5q-129 0 -129 149zM130 -134q0 32 21.5 51t55.5 19q40 0 65 -25t25 -74q0 -80 -53 -137q-6 -11 -20 -2l-26 20q-13 9 -1 21q26 28 26 66v13q-20 -10 -33 -10q-27 0 -43.5 16.5t-16.5 41.5z" />
    <glyph glyph-name="dotlessj" unicode="&#x237;" horiz-adv-x="253" 
d="M189 440v-459q0 -95 -37 -146.5t-103 -79.5q-34 -15 -44 10l-24 56q-11 28 12 40q22 12 34.5 21.5t24.5 31t12 50.5v476q0 9 6.5 15.5t15.5 6.5h81q9 0 15.5 -6.5t6.5 -15.5z" />
    <glyph glyph-name="circumflex" unicode="&#x2c6;" horiz-adv-x="373" 
d="M63 529l-26 37q-7 10 6 19l130 101q10 8 21 0l130 -101q13 -9 6 -19l-26 -37q-9 -11 -23 -3l-97 61l-98 -61q-14 -8 -23 3z" />
    <glyph glyph-name="caron" unicode="&#x2c7;" horiz-adv-x="373" 
d="M174 524l-130 101q-13 9 -6 19l26 37q9 11 23 3l97 -61l98 61q14 8 23 -3l26 -37q7 -10 -6 -19l-130 -101q-10 -8 -21 0z" />
    <glyph glyph-name="uni02C9" unicode="&#x2c9;" horiz-adv-x="414" 
d="M79 570q-8 0 -13.5 5t-5.5 13v34q0 19 19 19h256q19 0 19 -19v-34q0 -8 -5.5 -13t-13.5 -5h-256z" />
    <glyph glyph-name="breve" unicode="&#x2d8;" horiz-adv-x="346" 
d="M173 528q-54 0 -93 33.5t-47 84.5q-2 9 3 15.5t15 6.5h37q13 0 17 -14q8 -24 26 -38.5t42 -14.5q22 0 40 15.5t26 37.5q3 14 17 14h39q9 0 14 -6.5t4 -15.5q-8 -51 -47.5 -84.5t-92.5 -33.5z" />
    <glyph glyph-name="dotaccent" unicode="&#x2d9;" horiz-adv-x="219" 
d="M110 528q-33 0 -56 23.5t-23 56.5t22.5 56t56.5 23t57 -23t23 -56t-23 -56.5t-57 -23.5z" />
    <glyph glyph-name="ring" unicode="&#x2da;" horiz-adv-x="290" 
d="M145 484q-47 0 -80 33t-33 80t33 80t80 33t80 -33t33 -80t-33 -80t-80 -33zM145 547q19 0 33.5 15t14.5 35q0 19 -14.5 33.5t-33.5 14.5q-20 0 -35 -14.5t-15 -33.5t15.5 -34.5t34.5 -15.5z" />
    <glyph glyph-name="ogonek" unicode="&#x2db;" horiz-adv-x="276" 
d="M210 3q-35 -22 -67 -56.5t-32 -68.5q0 -43 39 -43q29 0 61 28q7 6 13.5 3.5t6.5 -10.5l1 -49q0 -20 -15 -31q-37 -23 -89 -23q-51 0 -78 29t-27 75q0 77 99 148z" />
    <glyph glyph-name="tilde" unicode="&#x2dc;" horiz-adv-x="380" 
d="M70 562l-29 21q-12 9 -6 23q8 15 12.5 22t19 25.5t33 27.5t39.5 9q28 0 59 -27.5t48 -27.5q12 0 21 9.5t13.5 19t13 15t17.5 -2.5l28 -20q13 -10 1 -31q-30 -52 -60 -67q-18 -9 -37 -9q-28 0 -61.5 28t-47.5 28q-15 0 -25 -15t-18 -25.5t-21 -2.5z" />
    <glyph glyph-name="hungarumlaut" unicode="&#x2dd;" horiz-adv-x="392" 
d="M224 521q-11 0 -16 5.5t-3 13.5l37 141q6 19 19 19h76q14 0 19 -8t-1 -17l-78 -139q-7 -15 -18 -15h-35zM58 521q-11 0 -16 5.5t-3 13.5l37 141q6 19 19 19h76q14 0 19 -7.5t-1 -17.5l-78 -139q-7 -15 -18 -15h-35z" />
    <glyph glyph-name="uni0394" unicode="&#x394;" horiz-adv-x="731" 
d="M43 43l303 657q5 10 16 10h9q11 0 16 -10l302 -659q8 -15 3 -28t-23 -13h-600q-20 0 -27.5 10.5t1.5 32.5zM214 119h304l-153 340h-1z" />
    <glyph glyph-name="uni03A9" unicode="&#x3a9;" horiz-adv-x="834" 
d="M60 18v88q0 7 5.5 12.5t12.5 5.5h86q-47 32 -77 98t-30 134q0 149 104.5 251.5t255.5 102.5t255.5 -102.5t104.5 -251.5q0 -68 -30.5 -134t-78.5 -98h88q7 0 12.5 -5.5t5.5 -12.5v-88q0 -8 -5 -13t-13 -5h-270q-17 0 -17 18v54q0 12 3.5 19.5t6.5 10t14 8.5
q70 34 111 100.5t41 138.5q0 93 -67.5 161.5t-160.5 68.5t-161 -68.5t-68 -161.5q0 -72 41 -138t111 -101q11 -6 14.5 -8.5t7 -9.5t3.5 -20v-54q0 -18 -18 -18h-269q-8 0 -13 5t-5 13z" />
    <glyph glyph-name="uni03BC" unicode="&#x3bc;" horiz-adv-x="548" 
d="M79 205v235q0 10 6.5 16t15.5 6h81q9 0 15.5 -6t6.5 -16v-235q0 -102 78 -102q35 0 55.5 25.5t26.5 60.5v251q0 13 5 17.5t20 4.5h78q9 0 15.5 -6t6.5 -16v-418q0 -9 -6.5 -15.5t-15.5 -6.5h-36q-16 0 -22 17l-13 39q-2 -2 -13.5 -14t-20 -18.5t-24.5 -16t-37.5 -14
t-47.5 -4.5t-49 5v-210q0 -9 -7 -15.5t-15 -6.5h-81q-8 0 -15 6.5t-7 15.5v421z" />
    <glyph glyph-name="pi" unicode="&#x3c0;" horiz-adv-x="678" 
d="M130 20v330h-91q-8 0 -13.5 6t-5.5 14v72q0 8 5.5 14t13.5 6h601q18 0 18 -19v-73q0 -20 -18 -20h-98v-330q0 -8 -5.5 -14t-13.5 -6h-86q-8 0 -14 6t-6 14v330h-162v-330q0 -8 -6 -14t-14 -6h-85q-8 0 -14 6t-6 14z" />
    <glyph glyph-name="Wgrave" unicode="&#x1e80;" horiz-adv-x="885" 
d="M211 4l-189 672q-3 10 2 17t16 7h92q14 0 18 -14l104 -399h4l159 412q4 11 17 11h18q13 0 17 -11l160 -412h4l102 399q4 14 18 14h92q11 0 16 -7t2 -17l-189 -672q-4 -14 -18 -14h-16q-13 0 -17 11l-179 453h-5l-177 -453q-6 -11 -17 -11h-16q-15 0 -18 14zM513 768
l-175 77q-17 8 -6 27l28 52q8 14 26 3l164 -98q12 -7 6 -19l-18 -35q-7 -15 -25 -7z" />
    <glyph glyph-name="wgrave" unicode="&#x1e81;" horiz-adv-x="713" 
d="M167 2l-141 434q-5 10 1 18t18 8h78q17 0 20 -14l70 -220h1l121 234q4 10 18 10h9q14 0 19 -10l120 -234h1l69 220q4 14 26 14h70q12 0 18.5 -8t2.5 -18l-142 -434q-4 -13 -21 -13h-4q-12 0 -19 11l-145 278h-1l-145 -278q-5 -11 -18 -11h-6q-16 0 -20 13zM430 528
l-175 77q-16 8 -6 27l28 51q8 15 26 3l164 -97q12 -6 6 -19l-18 -36q-6 -14 -25 -6z" />
    <glyph glyph-name="Wacute" unicode="&#x1e82;" horiz-adv-x="885" 
d="M211 4l-189 672q-3 10 2 17t16 7h92q14 0 18 -14l104 -399h4l159 412q4 11 17 11h18q13 0 17 -11l160 -412h4l102 399q4 14 18 14h92q11 0 16 -7t2 -17l-189 -672q-4 -14 -18 -14h-16q-13 0 -17 11l-179 453h-5l-177 -453q-6 -11 -17 -11h-16q-15 0 -18 14zM372 768
q-18 -8 -25 7l-18 35q-6 12 6 19l164 98q18 11 26 -3l28 -52q11 -19 -6 -27z" />
    <glyph glyph-name="wacute" unicode="&#x1e83;" horiz-adv-x="713" 
d="M167 2l-141 434q-5 10 1 18t18 8h78q17 0 20 -14l70 -220h1l121 234q4 10 18 10h9q14 0 19 -10l120 -234h1l69 220q4 14 26 14h70q12 0 18.5 -8t2.5 -18l-142 -434q-4 -13 -21 -13h-4q-12 0 -19 11l-145 278h-1l-145 -278q-5 -11 -18 -11h-6q-16 0 -20 13zM289 528
q-19 -7 -26 6l-17 36q-6 11 6 19l163 97q18 12 26 -3l29 -51q9 -20 -6 -27z" />
    <glyph glyph-name="Wdieresis" unicode="&#x1e84;" horiz-adv-x="885" 
d="M211 4l-189 672q-3 10 2 17t16 7h92q14 0 18 -14l104 -399h4l159 412q4 11 17 11h18q13 0 17 -11l160 -412h4l102 399q4 14 18 14h92q11 0 16 -7t2 -17l-189 -672q-4 -14 -18 -14h-16q-13 0 -17 11l-179 453h-5l-177 -453q-6 -11 -17 -11h-16q-15 0 -18 14zM565 766
q-31 0 -51.5 21t-20.5 52t20.5 51.5t51.5 20.5t52 -20.5t21 -51.5t-21 -52t-52 -21zM318 766q-31 0 -51.5 21t-20.5 52t20.5 51.5t51.5 20.5t52 -20.5t21 -51.5t-21 -52t-52 -21z" />
    <glyph glyph-name="wdieresis" unicode="&#x1e85;" horiz-adv-x="713" 
d="M167 2l-141 434q-5 10 1 18t18 8h78q17 0 20 -14l70 -220h1l121 234q4 10 18 10h9q14 0 19 -10l120 -234h1l69 220q4 14 26 14h70q12 0 18.5 -8t2.5 -18l-142 -434q-4 -13 -21 -13h-4q-12 0 -19 11l-145 278h-1l-145 -278q-5 -11 -18 -11h-6q-16 0 -20 13zM459 542
q-31 0 -51.5 21t-20.5 52t20.5 51.5t51.5 20.5t52 -20.5t21 -51.5t-21 -52t-52 -21zM258 542q-31 0 -51.5 21t-20.5 52t20.5 51.5t51.5 20.5t52 -20.5t21 -51.5t-21 -52t-52 -21z" />
    <glyph glyph-name="Ygrave" unicode="&#x1ef2;" horiz-adv-x="593" 
d="M231 19v318l-228 334q-6 10 -1 19.5t17 9.5h102q9 0 16 -9l160 -230l160 230q7 9 16 9h103q12 0 17 -9.5t-1 -19.5l-231 -333v-319q0 -7 -5.5 -13t-13.5 -6h-92q-8 0 -13.5 5.5t-5.5 13.5zM368 768l-175 77q-17 8 -6 27l28 52q8 14 26 3l164 -98q12 -7 6 -19l-18 -35
q-7 -15 -25 -7z" />
    <glyph glyph-name="ygrave" unicode="&#x1ef3;" horiz-adv-x="499" 
d="M165 27l-144 405q-5 12 1 21t19 9h96q16 0 19 -13l83 -276h2l105 276q8 13 29 13h85q13 0 19 -9.5t1 -20.5l-272 -656q-6 -14 -20 -14h-96q-13 0 -19 9.5t-1 21.5zM301 528l-175 77q-16 8 -6 27l28 51q8 15 26 3l164 -97q12 -6 6 -19l-18 -36q-6 -14 -25 -6z" />
    <glyph glyph-name="endash" unicode="&#x2013;" horiz-adv-x="547" 
d="M76 210q-8 0 -13.5 5t-5.5 13v37q0 19 19 19h395q19 0 19 -19v-37q0 -8 -5.5 -13t-13.5 -5h-395z" />
    <glyph glyph-name="emdash" unicode="&#x2014;" horiz-adv-x="767" 
d="M76 210q-8 0 -13.5 5t-5.5 13v37q0 19 19 19h615q19 0 19 -19v-37q0 -8 -5.5 -13t-13.5 -5h-615z" />
    <glyph glyph-name="quoteleft" unicode="&#x2018;" horiz-adv-x="241" 
d="M208 460q0 -32 -22 -52.5t-56 -20.5q-39 0 -64.5 31.5t-25.5 87.5q0 101 72 197q8 12 21 1l28 -20q10 -8 -1 -23q-50 -65 -50 -122q0 -7 2 -19q15 10 34 10q29 0 45.5 -20t16.5 -50z" />
    <glyph glyph-name="quoteright" unicode="&#x2019;" horiz-adv-x="237" 
d="M31 637q0 32 22 52.5t56 20.5q39 0 64.5 -31.5t25.5 -87.5q0 -101 -72 -197q-7 -10 -21 -1l-28 20q-10 8 1 23q50 65 50 122q0 7 -2 19q-15 -10 -34 -10q-29 0 -45.5 20t-16.5 50z" />
    <glyph glyph-name="quotesinglbase" unicode="&#x201a;" horiz-adv-x="250" 
d="M41 70q0 32 22 52.5t56 20.5q39 0 64.5 -31.5t25.5 -87.5q0 -101 -72 -197q-7 -10 -21 -1l-28 20q-10 8 1 23q50 65 50 122q0 7 -2 19q-15 -10 -34 -10q-29 0 -45.5 20t-16.5 50z" />
    <glyph glyph-name="quotedblleft" unicode="&#x201c;" horiz-adv-x="454" 
d="M208 460q0 -32 -22 -52.5t-56 -20.5q-39 0 -64.5 31.5t-25.5 87.5q0 101 72 197q8 12 21 1l28 -20q10 -8 -1 -23q-50 -65 -50 -122q0 -7 2 -19q15 10 34 10q29 0 45.5 -20t16.5 -50zM421 460q0 -32 -22 -52.5t-56 -20.5q-39 0 -64.5 31.5t-25.5 87.5q0 101 72 197
q8 12 21 1l28 -20q10 -8 -1 -23q-50 -65 -50 -122q0 -7 2 -19q15 10 34 10q29 0 45.5 -20t16.5 -50z" />
    <glyph glyph-name="quotedblright" unicode="&#x201d;" horiz-adv-x="450" 
d="M31 637q0 32 22 52.5t56 20.5q39 0 64.5 -31.5t25.5 -87.5q0 -101 -72 -197q-7 -10 -21 -1l-28 20q-10 8 1 23q50 65 50 122q0 7 -2 19q-15 -10 -34 -10q-29 0 -45.5 20t-16.5 50zM244 637q0 32 22 52.5t56 20.5q39 0 64.5 -31.5t25.5 -87.5q0 -101 -72 -197
q-7 -10 -21 -1l-28 20q-10 8 1 23q50 65 50 122q0 7 -2 19q-15 -10 -34 -10q-29 0 -45.5 20t-16.5 50z" />
    <glyph glyph-name="quotedblbase" unicode="&#x201e;" horiz-adv-x="463" 
d="M41 70q0 32 22 52.5t56 20.5q39 0 64.5 -31.5t25.5 -87.5q0 -101 -72 -197q-7 -10 -21 -1l-28 20q-10 8 1 23q50 65 50 122q0 7 -2 19q-15 -10 -34 -10q-29 0 -45.5 20t-16.5 50zM254 70q0 32 22 52.5t56 20.5q39 0 64.5 -31.5t25.5 -87.5q0 -101 -72 -197q-7 -10 -21 -1
l-28 20q-10 8 1 23q50 65 50 122q0 7 -2 19q-15 -10 -34 -10q-29 0 -45.5 20t-16.5 50z" />
    <glyph glyph-name="dagger" unicode="&#x2020;" 
d="M60 286q-8 0 -13.5 6t-5.5 13v76q0 7 5.5 13t13.5 6h170v281q0 7 6 13t13 6h96q7 0 13 -6t6 -13v-281h177q7 0 12.5 -5.5t5.5 -13.5v-76q0 -8 -5.5 -13.5t-12.5 -5.5h-184l-32 -508q0 -6 -6 -11t-13 -5h-18q-7 0 -13 5t-6 11l-32 508h-177z" />
    <glyph glyph-name="daggerdbl" unicode="&#x2021;" horiz-adv-x="616" 
d="M79 20v75q0 7 5.5 13t13.5 6h155l-15 284v1h-170q-8 0 -13.5 5.5t-5.5 13.5v76q0 8 5.5 13.5t13.5 5.5h170v168q0 7 6 13t13 6h96q7 0 13 -6t6 -13v-168h177q7 0 12.5 -5.5t5.5 -13.5v-76q0 -8 -5.5 -13.5t-12.5 -5.5h-177l-15 -285h162q7 0 12.5 -5.5t5.5 -13.5v-75
q0 -8 -5.5 -13.5t-12.5 -5.5h-170l-16 -223q0 -6 -6 -11t-13 -5h-18q-7 0 -13 5t-6 11l-17 223h-162q-8 0 -13.5 5.5t-5.5 13.5z" />
    <glyph glyph-name="bullet" unicode="&#x2022;" horiz-adv-x="390" 
d="M193 125q-52 0 -90.5 38.5t-38.5 90.5q0 54 38.5 93.5t90.5 39.5q55 0 94 -39t39 -94q0 -53 -39 -91t-94 -38z" />
    <glyph glyph-name="ellipsis" unicode="&#x2026;" horiz-adv-x="656" 
d="M471 62q0 30 21 51t51 21t51 -21t21 -51q0 -29 -21 -50.5t-51 -21.5t-51 21.5t-21 50.5zM258 62q0 30 21 51t50 21q30 0 51.5 -21t21.5 -51q0 -29 -21.5 -50.5t-51.5 -21.5q-29 0 -50 21.5t-21 50.5zM41 62q0 30 21 51t50 21q30 0 51.5 -21t21.5 -51q0 -29 -21.5 -50.5
t-51.5 -21.5q-29 0 -50 21.5t-21 50.5z" />
    <glyph glyph-name="perthousand" unicode="&#x2030;" horiz-adv-x="995" 
d="M184 440q-56 0 -95.5 39.5t-39.5 95.5t39.5 95.5t95.5 39.5t95.5 -39.5t39.5 -95.5t-39.5 -95.5t-95.5 -39.5zM131 27l343 663q5 10 17 10h50q11 0 16.5 -8.5t0.5 -18.5l-345 -663q-5 -10 -17 -10h-48q-11 0 -16.5 8.5t-0.5 18.5zM184 526q20 0 34 14.5t14 34.5
q0 19 -14 33.5t-34 14.5t-34.5 -14t-14.5 -34t14.5 -34.5t34.5 -14.5zM681 125q0 56 39.5 95.5t95.5 39.5t96 -39.5t40 -95.5t-40 -95.5t-96 -39.5t-95.5 39.5t-39.5 95.5zM378 125q0 56 39.5 95.5t95.5 39.5t96 -39.5t40 -95.5t-40 -95.5t-96 -39.5t-95.5 39.5t-39.5 95.5z
M768 125q0 -20 14 -34.5t34 -14.5t34.5 14.5t14.5 34.5t-14.5 34t-34.5 14t-34 -14.5t-14 -33.5zM464 125q0 -20 14.5 -34.5t34.5 -14.5t34.5 14.5t14.5 34.5q0 19 -14.5 33.5t-34.5 14.5t-34.5 -14t-14.5 -34z" />
    <glyph glyph-name="guilsinglleft" unicode="&#x2039;" horiz-adv-x="287" 
d="M143 69l-104 155q-8 11 0 24l109 148q7 12 18 12h57q13 0 17 -9.5t-2 -21.5l-68 -139l65 -147q6 -12 1.5 -21t-16.5 -9h-62q-9 0 -15 8z" />
    <glyph glyph-name="guilsinglright" unicode="&#x203a;" horiz-adv-x="287" 
d="M66 61q-12 0 -16.5 9t1.5 21l65 147l-68 139q-6 12 -2 21.5t17 9.5h57q11 0 18 -12l109 -148q8 -13 0 -24l-104 -155q-6 -8 -15 -8h-62z" />
    <glyph glyph-name="fraction" unicode="&#x2044;" horiz-adv-x="120" 
d="M-71 10q-5 -10 -17 -10h-48q-11 0 -16.5 8.5t-0.5 18.5l343 663q5 10 17 10h50q11 0 16.5 -8.5t0.5 -18.5z" />
    <glyph glyph-name="zerosuperior" unicode="&#x2070;" horiz-adv-x="320" 
d="M161 494q-61 0 -94 42t-33 116q0 75 32.5 116.5t94.5 41.5q61 0 93 -41.5t32 -116.5t-32 -116.5t-93 -41.5zM161 564q44 0 44 88t-44 88t-44 -88t44 -88z" />
    <glyph glyph-name="foursuperior" unicode="&#x2074;" horiz-adv-x="322" 
d="M179 504q-10 0 -10 9v48h-137q-9 0 -9 8v51l163 177q3 3 8 3h41q9 0 9 -9v-170h40q9 0 9 -8v-43q0 -9 -9 -9h-40v-48q0 -9 -9 -9h-56zM96 620h74v83z" />
    <glyph glyph-name="fivesuperior" unicode="&#x2075;" horiz-adv-x="288" 
d="M134 494q-63 0 -96 38q-7 7 -1 15l27 33q7 10 15 2q21 -21 57 -21q18 0 31.5 11t13.5 27q0 17 -13 27t-35 10h-74q-15 0 -15 16v139q0 9 9 9h160q9 0 9 -9v-44q0 -9 -9 -9h-103v-39h35q54 0 84 -26t30 -73q0 -46 -34.5 -76t-90.5 -30z" />
    <glyph glyph-name="sixsuperior" unicode="&#x2076;" horiz-adv-x="296" 
d="M152 494q-56 0 -88 35t-32 89q0 46 20 83.5t50.5 60t53.5 34.5t42 18q13 4 18 -8l13 -34q4 -12 -9 -16q-27 -8 -60.5 -28t-43.5 -46q26 13 55 13q38 0 66.5 -25.5t28.5 -71.5q0 -43 -33.5 -73.5t-80.5 -30.5zM152 563q17 0 28.5 11t11.5 27t-11.5 27.5t-28.5 11.5
q-15 0 -28 -9.5t-17 -20.5q1 -18 13.5 -32.5t31.5 -14.5z" />
    <glyph glyph-name="sevensuperior" unicode="&#x2077;" horiz-adv-x="266" 
d="M46 504q-11 0 -11 8v6l116 218h-109q-10 0 -10 8v47q0 9 10 9h199q9 0 9 -9v-14l-132 -264q-5 -9 -15 -9h-57z" />
    <glyph glyph-name="eightsuperior" unicode="&#x2078;" horiz-adv-x="310" 
d="M154 494q-53 0 -86.5 24.5t-33.5 61.5q0 21 14.5 39.5t26 26t19.5 10.5v1q-19 8 -35 26t-16 44q0 37 32 60t79 23q48 0 80.5 -23t32.5 -60q0 -26 -16.5 -44t-35.5 -26v-1q23 -7 42 -26.5t19 -49.5q0 -37 -33.5 -61.5t-88.5 -24.5zM155 686q15 1 23.5 10t8.5 21t-9.5 21.5
t-23.5 9.5q-13 0 -22.5 -9.5t-9.5 -21.5q0 -28 33 -31zM155 556q16 0 27 9t11 23q0 13 -10.5 24t-27.5 12q-17 -1 -28 -12t-11 -24q0 -14 11.5 -23t27.5 -9z" />
    <glyph glyph-name="ninesuperior" unicode="&#x2079;" horiz-adv-x="296" 
d="M98 488q-13 -4 -18 8l-13 34q-4 12 9 16q27 8 60.5 28t43.5 46q-26 -13 -55 -13q-38 0 -66.5 25.5t-28.5 71.5q0 43 33.5 73.5t80.5 30.5q56 0 88 -35t32 -89q0 -46 -20 -83.5t-50.5 -60t-53.5 -34.5t-42 -18zM144 662q15 0 28 9.5t17 20.5q-1 18 -13.5 32.5t-31.5 14.5
q-17 0 -28.5 -11t-11.5 -27t11.5 -27.5t28.5 -11.5z" />
    <glyph glyph-name="zeroinferior" unicode="&#x2080;" horiz-adv-x="322" 
d="M35 -2q0 75 32.5 116.5t94.5 41.5q61 0 93 -41.5t32 -116.5t-32 -116.5t-93 -41.5t-94 42t-33 116zM118 -2q0 -88 44 -88t44 88t-44 88t-44 -88z" />
    <glyph glyph-name="oneinferior" unicode="&#x2081;" horiz-adv-x="208" 
d="M24 57l-2 31q0 5 7 11l74 47h51q9 0 9 -9v-278q0 -9 -9 -9h-62q-10 0 -10 9v193l-49 -4q-9 0 -9 9z" />
    <glyph glyph-name="twoinferior" unicode="&#x2082;" horiz-adv-x="281" 
d="M62 70l-22 31q-9 12 3 21q41 34 94 34q47 0 76.5 -25.5t29.5 -66.5t-37 -86l-54 -64h80q9 0 9 -9v-46q0 -9 -9 -9h-195q-10 0 -10 9v17l110 126q25 28 25 50q0 15 -11 25t-29 10q-26 0 -44 -20q-9 -6 -16 3z" />
    <glyph glyph-name="threeinferior" unicode="&#x2083;" horiz-adv-x="279" 
d="M69 15q0 14 15 14h29q19 0 30 8.5t11 22.5q0 13 -10.5 21.5t-27.5 8.5q-21 0 -39 -16q-9 -5 -15 3l-24 29q-11 11 1 18q33 32 89 32q48 0 78 -22.5t30 -60.5q0 -25 -15.5 -43t-35.5 -27v-1q60 -23 60 -76q0 -40 -33.5 -63t-83.5 -23q-58 0 -95 33q-8 8 -1 18l22 29
q6 9 17 2l3 -2q2 -1 6.5 -3.5t10 -5t13 -4t14.5 -1.5q42 0 42 31q0 33 -47 33h-29q-15 0 -15 14v31z" />
    <glyph glyph-name="fourinferior" unicode="&#x2084;" horiz-adv-x="323" 
d="M23 -34l163 177q3 3 8 3h41q9 0 9 -9v-170h40q9 0 9 -8v-43q0 -9 -9 -9h-40v-48q0 -9 -9 -9h-56q-10 0 -10 9v48h-137q-9 0 -9 8v51zM96 -34h74v83z" />
    <glyph glyph-name="fiveinferior" unicode="&#x2085;" horiz-adv-x="290" 
d="M45 -2v139q0 9 9 9h160q9 0 9 -9v-44q0 -9 -9 -9h-103v-39h35q54 0 84 -26t30 -73q0 -46 -34.5 -76t-90.5 -30q-63 0 -96 38q-7 7 -1 15l27 33q7 10 15 2q21 -21 57 -21q18 0 31.5 11t13.5 27q0 17 -13 27t-35 10h-74q-15 0 -15 16z" />
    <glyph glyph-name="sixinferior" unicode="&#x2086;" horiz-adv-x="297" 
d="M32 -36q0 46 20 83.5t50.5 60t53.5 34.5t42 18q13 4 18 -8l13 -34q4 -12 -9 -16q-27 -8 -60.5 -28t-43.5 -46q26 13 55 13q38 0 66.5 -25.5t28.5 -71.5q0 -43 -33.5 -73.5t-80.5 -30.5q-56 0 -88 35t-32 89zM107 -44q1 -18 13.5 -32.5t31.5 -14.5q17 0 28.5 11t11.5 27
t-11.5 27.5t-28.5 11.5q-15 0 -28 -9.5t-17 -20.5z" />
    <glyph glyph-name="seveninferior" unicode="&#x2087;" horiz-adv-x="267" 
d="M43 82q-10 0 -10 8v47q0 9 10 9h199q9 0 9 -9v-14l-132 -264q-5 -9 -15 -9h-57q-11 0 -11 8v6l116 218h-109z" />
    <glyph glyph-name="eightinferior" unicode="&#x2088;" horiz-adv-x="310" 
d="M34 -74q0 21 14.5 39.5t26 26t19.5 10.5v1q-19 8 -35 26t-16 44q0 37 32 60t79 23q48 0 80.5 -23t32.5 -60q0 -26 -16.5 -44t-35.5 -26v-1q23 -7 42 -26.5t19 -49.5q0 -37 -33.5 -61.5t-88.5 -24.5q-53 0 -86.5 24.5t-33.5 61.5zM122 63q0 -28 33 -31q15 1 23.5 10
t8.5 21t-9.5 21.5t-23.5 9.5q-13 0 -22.5 -9.5t-9.5 -21.5zM116 -66q0 -14 11.5 -23t27.5 -9t27 9t11 23q0 13 -10.5 24t-27.5 12q-17 -1 -28 -12t-11 -24z" />
    <glyph glyph-name="nineinferior" unicode="&#x2089;" horiz-adv-x="296" 
d="M30 50q0 43 33.5 73.5t80.5 30.5q56 0 88 -35t32 -89q0 -46 -20 -83.5t-50.5 -60t-53.5 -34.5t-42 -18q-13 -4 -18 8l-13 34q-4 12 9 16q27 8 60.5 28t43.5 46q-26 -13 -55 -13q-38 0 -66.5 25.5t-28.5 71.5zM104 47q0 -16 11.5 -27.5t28.5 -11.5q15 0 28 9.5t17 20.5
q-1 18 -13.5 32.5t-31.5 14.5q-17 0 -28.5 -11t-11.5 -27z" />
    <glyph glyph-name="Euro" unicode="&#x20ac;" 
d="M369 -11q-108 0 -179 71t-93 190h-45q-7 0 -12.5 5.5t-5.5 13.5v13q0 8 5.5 13.5t12.5 5.5h38q-2 15 -2 48v20h-36q-7 0 -12.5 5.5t-5.5 13.5v14q0 8 5.5 13.5t12.5 5.5h41q18 125 90 207t186 82t192 -83q14 -15 1 -28l-51 -71q-5 -6 -13.5 -6.5t-13.5 6.5
q-48 57 -112 57q-51 0 -88 -44.5t-50 -119.5h198q8 0 13.5 -5.5t5.5 -13.5v-15q0 -8 -5.5 -13t-13.5 -5h-203v-17q0 -35 2 -51h161q8 0 13.5 -5.5t5.5 -13.5v-14q0 -8 -5.5 -13t-13.5 -5h-152q15 -60 48.5 -94.5t84.5 -34.5q24 0 45.5 8.5t29.5 14.5t28 22q13 12 25 0
l53 -67q6 -6 5.5 -13.5t-6.5 -13.5q-90 -83 -184 -83z" />
    <glyph glyph-name="afii61289" unicode="&#x2113;" horiz-adv-x="476" 
d="M98 154q0 18 4 56q-29 -8 -44 -11q-14 -2 -15 11l-5 38q-2 17 15 20q44 8 64 15q8 46 16 85q34 171 83 256.5t124 85.5q54 0 84.5 -37.5t30.5 -101.5q0 -121 -79.5 -206t-201.5 -131q-9 -45 -9 -78q0 -42 18.5 -70t56.5 -28q76 0 147 44q17 10 26 -5l14 -21q7 -9 7 -14
t-9 -13q-10 -8 -31 -20t-65.5 -25.5t-88.5 -13.5q-72 0 -107 47t-35 117zM187 304q91 40 146 107.5t55 159.5q0 32 -13 51t-35 19q-90 0 -143 -284z" />
    <glyph glyph-name="uni2117" unicode="&#x2117;" horiz-adv-x="829" 
d="M55 350q0 149 105.5 254.5t253.5 105.5t254 -106t106 -254t-105.5 -253.5t-254.5 -105.5q-148 0 -253.5 105.5t-105.5 253.5zM133 350q0 -116 82.5 -198.5t198.5 -82.5q117 0 199 82.5t82 198.5q0 117 -82 199t-199 82q-116 0 -198.5 -82t-82.5 -199zM293 187v328
q0 8 5.5 13.5t13.5 5.5h155q49 0 86 -34t37 -90q0 -51 -36 -85.5t-98 -34.5h-76v-103q0 -8 -5.5 -13.5t-13.5 -5.5h-49q-8 0 -13.5 5.5t-5.5 13.5zM377 368h79q18 0 29.5 12t11.5 29q0 18 -11.5 29.5t-29.5 11.5h-79v-82z" />
    <glyph glyph-name="trademark" unicode="&#x2122;" horiz-adv-x="780" 
d="M367 385q-10 0 -15.5 7t-3.5 16l52 282q2 15 19 15h4q13 0 17 -11l87 -185l89 185q5 11 17 11h4q17 0 19 -15l53 -283q1 -9 -4.5 -15.5t-14.5 -6.5h-39q-15 0 -19 17l-22 125l-64 -136q-4 -9 -16 -9h-6q-12 0 -17 10l-61 135l-24 -126q-1 -6 -7 -11t-12 -5h-36zM174 385
q-8 0 -13.5 5.5t-5.5 13.5v222h-64q-8 0 -13.5 5.5t-5.5 13.5v36q0 7 6 13t13 6h205q8 0 13.5 -5.5t5.5 -13.5v-36q0 -19 -19 -19h-64v-222q0 -8 -6 -13.5t-13 -5.5h-39z" />
    <glyph glyph-name="Omega" unicode="&#x2126;" horiz-adv-x="834" 
d="M60 18v88q0 7 5.5 12.5t12.5 5.5h86q-47 32 -77 98t-30 134q0 149 104.5 251.5t255.5 102.5t255.5 -102.5t104.5 -251.5q0 -68 -30.5 -134t-78.5 -98h88q7 0 12.5 -5.5t5.5 -12.5v-88q0 -8 -5 -13t-13 -5h-270q-17 0 -17 18v54q0 12 3.5 19.5t6.5 10t14 8.5
q70 34 111 100.5t41 138.5q0 93 -67.5 161.5t-160.5 68.5t-161 -68.5t-68 -161.5q0 -72 41 -138t111 -101q11 -6 14.5 -8.5t7 -9.5t3.5 -20v-54q0 -18 -18 -18h-269q-8 0 -13 5t-5 13z" />
    <glyph glyph-name="estimated" unicode="&#x212e;" horiz-adv-x="836" 
d="M187 168q37 -52 101.5 -82.5t135.5 -30.5q108 0 202 81q15 15 28 2l21 -22q11 -12 -6 -29q-104 -97 -245 -97q-152 0 -257.5 104t-105.5 255q0 152 105.5 256.5t257.5 104.5q151 0 256.5 -106t107.5 -258q0 -29 -24 -29h-577v-149zM187 380h476v150q-41 53 -103.5 83.5
t-135.5 30.5q-152 0 -237 -112v-152z" />
    <glyph glyph-name="onethird" unicode="&#x2153;" horiz-adv-x="692" 
d="M114 27l343 663q5 10 17 10h50q11 0 16.5 -8.5t0.5 -18.5l-345 -663q-5 -10 -17 -10h-48q-11 0 -16.5 8.5t-0.5 18.5zM116 404q-10 0 -10 9v193l-49 -4q-9 0 -9 9l-2 31q0 5 7 11l74 47h51q9 0 9 -9v-278q0 -9 -9 -9h-62zM428 23q-8 8 -1 18l22 29q6 9 17 2l2 -2
q3 -1 7.5 -3.5t10 -5t13 -4t14.5 -1.5q42 0 42 31q0 33 -47 33h-29q-15 0 -15 14v31q0 14 15 14h29q19 0 30 8.5t11 22.5q0 13 -10.5 21.5t-27.5 8.5q-21 0 -39 -16q-9 -5 -15 3l-24 29q-11 11 1 18q33 32 89 32q48 0 78 -22.5t30 -60.5q0 -25 -15.5 -43t-35.5 -27v-1
q60 -23 60 -76q0 -40 -33.5 -63t-83.5 -23q-58 0 -95 33z" />
    <glyph glyph-name="twothirds" unicode="&#x2154;" horiz-adv-x="736" 
d="M60 404q-10 0 -10 9v17l110 126q25 28 25 50q0 15 -11 25t-29 10q-26 0 -44 -20q-9 -6 -16 3l-22 31q-9 12 3 21q41 34 94 34q47 0 76.5 -25.5t29.5 -66.5t-37 -86l-54 -64h80q9 0 9 -9v-46q0 -9 -9 -9h-195zM161 27l343 663q5 10 17 10h50q11 0 16.5 -8.5t0.5 -18.5
l-345 -663q-5 -10 -17 -10h-48q-11 0 -16.5 8.5t-0.5 18.5zM475 23q-8 8 -1 18l22 29q6 9 17 2l3 -2q2 -1 6.5 -3.5t10 -5t13 -4t14.5 -1.5q42 0 42 31q0 33 -47 33h-29q-15 0 -15 14v31q0 14 15 14h29q19 0 30 8.5t11 22.5q0 13 -10.5 21.5t-27.5 8.5q-21 0 -39 -16
q-9 -5 -15 3l-24 29q-11 11 1 18q33 32 89 32q48 0 78 -22.5t30 -60.5q0 -25 -15.5 -43t-35.5 -27v-1q60 -23 60 -76q0 -40 -33.5 -63t-83.5 -23q-58 0 -95 33z" />
    <glyph glyph-name="oneeighth" unicode="&#x215b;" horiz-adv-x="718" 
d="M114 27l343 663q5 10 17 10h50q11 0 16.5 -8.5t0.5 -18.5l-345 -663q-5 -10 -17 -10h-48q-11 0 -16.5 8.5t-0.5 18.5zM116 404q-10 0 -10 9v193l-49 -4q-9 0 -9 9l-2 31q0 5 7 11l74 47h51q9 0 9 -9v-278q0 -9 -9 -9h-62zM426 76q0 21 14.5 39.5t26 26t19.5 10.5v1
q-19 8 -35 26t-16 44q0 37 32 60t79 23q48 0 80.5 -23t32.5 -60q0 -26 -16.5 -44t-35.5 -26v-1q23 -7 42 -26.5t19 -49.5q0 -37 -33.5 -61.5t-88.5 -24.5q-53 0 -86.5 24.5t-33.5 61.5zM514 213q0 -28 33 -31q15 1 23.5 10t8.5 21t-9.5 21.5t-23.5 9.5q-13 0 -22.5 -9.5
t-9.5 -21.5zM508 84q0 -14 11.5 -23t27.5 -9t27 9t11 23q0 13 -10.5 24t-27.5 12q-17 -1 -28 -12t-11 -24z" />
    <glyph glyph-name="threeeighths" unicode="&#x215c;" horiz-adv-x="749" 
d="M149 394q-58 0 -95 33q-8 8 -1 18l22 29q6 9 17 2l2 -2q3 -1 7.5 -3.5t10 -5t13 -4t14.5 -1.5q42 0 42 31q0 33 -47 33h-29q-15 0 -15 14v31q0 14 15 14h29q19 0 30 8.5t11 22.5q0 13 -10.5 21.5t-27.5 8.5q-21 0 -39 -16q-9 -5 -15 3l-24 29q-11 11 1 18q33 32 89 32
q48 0 78 -22.5t30 -60.5q0 -25 -15.5 -43t-35.5 -27v-1q60 -23 60 -76q0 -40 -33.5 -63t-83.5 -23zM147 27l343 663q5 10 17 10h50q11 0 16.5 -8.5t0.5 -18.5l-345 -663q-5 -10 -17 -10h-48q-11 0 -16.5 8.5t-0.5 18.5zM459 76q0 21 14.5 39.5t26 26t19.5 10.5v1
q-19 8 -35 26t-16 44q0 37 32 60t79 23q48 0 80.5 -23t32.5 -60q0 -26 -16.5 -44t-35.5 -26v-1q23 -7 42 -26.5t19 -49.5q0 -37 -33.5 -61.5t-88.5 -24.5q-53 0 -86.5 24.5t-33.5 61.5zM547 213q0 -28 33 -31q15 1 23.5 10t8.5 21t-9.5 21.5t-23.5 9.5q-13 0 -22.5 -9.5
t-9.5 -21.5zM541 84q0 -14 11.5 -23t27.5 -9t27 9t11 23q0 13 -10.5 24t-27.5 12q-17 -1 -28 -12t-11 -24z" />
    <glyph glyph-name="fiveeighths" unicode="&#x215d;" horiz-adv-x="752" 
d="M151 27l343 663q5 10 17 10h50q11 0 16.5 -8.5t0.5 -18.5l-345 -663q-5 -10 -17 -10h-48q-11 0 -16.5 8.5t-0.5 18.5zM153 394q-63 0 -96 38q-7 7 -1 15l27 33q7 10 15 2q21 -21 57 -21q18 0 31.5 11t13.5 27q0 17 -13 27t-35 10h-74q-15 0 -15 16v139q0 9 9 9h160
q9 0 9 -9v-44q0 -9 -9 -9h-103v-39h35q54 0 84 -26t30 -73q0 -46 -34.5 -76t-90.5 -30zM463 76q0 21 14.5 39.5t26 26t19.5 10.5v1q-19 8 -35 26t-16 44q0 37 32 60t79 23q48 0 80.5 -23t32.5 -60q0 -26 -16.5 -44t-35.5 -26v-1q23 -7 42 -26.5t19 -49.5q0 -37 -33.5 -61.5
t-88.5 -24.5q-53 0 -86.5 24.5t-33.5 61.5zM551 213q0 -28 33 -31q15 1 23.5 10t8.5 21t-9.5 21.5t-23.5 9.5q-13 0 -22.5 -9.5t-9.5 -21.5zM545 84q0 -14 11.5 -23t27.5 -9t27 9t11 23q0 13 -10.5 24t-27.5 12q-17 -1 -28 -12t-11 -24z" />
    <glyph glyph-name="seveneighths" unicode="&#x215e;" horiz-adv-x="715" 
d="M113 27l343 663q5 10 17 10h50q11 0 16.5 -8.5t0.5 -18.5l-345 -663q-5 -10 -17 -10h-48q-11 0 -16.5 8.5t-0.5 18.5zM70 404q-11 0 -11 8v6l116 218h-109q-10 0 -10 8v47q0 9 10 9h199q9 0 9 -9v-14l-132 -264q-5 -9 -15 -9h-57zM425 76q0 21 14.5 39.5t26 26t19.5 10.5
v1q-19 8 -35 26t-16 44q0 37 32 60t79 23q48 0 80.5 -23t32.5 -60q0 -26 -16.5 -44t-35.5 -26v-1q23 -7 42 -26.5t19 -49.5q0 -37 -33.5 -61.5t-88.5 -24.5q-53 0 -86.5 24.5t-33.5 61.5zM513 213q0 -28 33 -31q15 1 23.5 10t8.5 21t-9.5 21.5t-23.5 9.5q-13 0 -22.5 -9.5
t-9.5 -21.5zM507 84q0 -14 11.5 -23t27.5 -9t27 9t11 23q0 13 -10.5 24t-27.5 12q-17 -1 -28 -12t-11 -24z" />
    <glyph glyph-name="partialdiff" unicode="&#x2202;" horiz-adv-x="587" 
d="M52 226q0 104 63 163.5t147 59.5q33 0 67.5 -9.5t49.5 -19.5q-11 40 -41 76.5t-66.5 60.5t-66.5 39t-52 22q-28 8 -19 30l24 61q6 20 29 14q34 -11 70.5 -28.5t87.5 -55.5t90 -85t67 -121t28 -159q0 -122 -64.5 -203t-181.5 -81q-95 0 -163.5 69.5t-68.5 166.5zM168 225
q0 -49 34.5 -85t82.5 -36q59 0 91 47.5t32 107.5q-10 33 -42.5 61t-79.5 28q-48 0 -83 -36.5t-35 -86.5z" />
    <glyph glyph-name="Delta" unicode="&#x2206;" horiz-adv-x="731" 
d="M43 43l303 657q5 10 16 10h9q11 0 16 -10l302 -659q8 -15 3 -28t-23 -13h-600q-20 0 -27.5 10.5t1.5 32.5zM214 119h304l-153 340h-1z" />
    <glyph glyph-name="product" unicode="&#x220f;" horiz-adv-x="777" 
d="M95 18v664q0 8 5.5 13t12.5 5h552q7 0 12 -5.5t5 -12.5v-664q0 -7 -5 -12.5t-12 -5.5h-98q-17 0 -17 18v558h-322v-558q0 -8 -5 -13t-13 -5h-97q-7 0 -12.5 5t-5.5 13z" />
    <glyph glyph-name="summation" unicode="&#x2211;" horiz-adv-x="562" 
d="M51 18v40l278 296l-278 294v34q0 18 17 18h411q7 0 12.5 -5t5.5 -13v-88q0 -8 -5.5 -13t-12.5 -5h-216l167 -157q18 -15 18 -36v-56q0 -16 -18 -34l-167 -169h216q7 0 12.5 -5t5.5 -13v-88q0 -8 -5.5 -13t-12.5 -5h-411q-17 0 -17 18z" />
    <glyph glyph-name="minus" unicode="&#x2212;" 
d="M103 300q-7 0 -13 6t-6 13v56q0 7 6 13t13 6h394q7 0 12.5 -5.5t5.5 -13.5v-56q0 -8 -5.5 -13.5t-12.5 -5.5h-394z" />
    <glyph glyph-name="uni2215" unicode="&#x2215;" horiz-adv-x="120" 
d="M-71 10q-5 -10 -17 -10h-48q-11 0 -16.5 8.5t-0.5 18.5l343 663q5 10 17 10h50q11 0 16.5 -8.5t0.5 -18.5z" />
    <glyph glyph-name="uni2219" unicode="&#x2219;" horiz-adv-x="265" 
d="M131 167q-36 0 -62.5 26.5t-26.5 62.5q0 38 26.5 65t62.5 27q38 0 65 -27t27 -65q0 -36 -27 -62.5t-65 -26.5z" />
    <glyph glyph-name="radical" unicode="&#x221a;" horiz-adv-x="660" 
d="M196 1l-172 376q-5 9 0 16t15 7h94q13 0 15 -10l67 -153h5l204 452q4 11 17 11h188q17 0 17 -18v-72q0 -18 -17 -18h-119l-273 -591q-5 -11 -16 -11h-9q-10 0 -16 11z" />
    <glyph glyph-name="infinity" unicode="&#x221e;" horiz-adv-x="615" 
d="M201 156q-58 0 -99 41t-41 99t41 99t99 41q61 0 105 -55q48 55 107 55t100 -41t41 -99t-41.5 -99t-99.5 -41q-61 0 -107 55q-43 -55 -105 -55zM357 296q0 -22 15 -37t37 -15t37.5 15t15.5 37t-15.5 37t-37.5 15t-37 -15t-15 -37zM204 244q22 0 37.5 15t15.5 37t-15.5 37
t-37.5 15q-21 0 -36 -15t-15 -37t15 -37t36 -15z" />
    <glyph glyph-name="integral" unicode="&#x222b;" horiz-adv-x="497" 
d="M186 -47v556q0 95 53.5 148t139.5 53q64 0 111 -39q12 -12 4 -24l-37 -62q-10 -14 -24 -5q-5 4 -22.5 10.5t-30.5 6.5q-29 0 -49 -22.5t-20 -66.5v-556q0 -95 -54 -148t-140 -53q-64 0 -111 39q-11 11 -4 24l38 62q9 14 24 5q4 -4 21.5 -10.5t30.5 -6.5q29 0 49.5 22.5
t20.5 66.5z" />
    <glyph glyph-name="approxequal" unicode="&#x2248;" 
d="M154 314l-39 33q-12 10 -2 20q2 3 6.5 9t17.5 20t26.5 25t33.5 20t38 9q10 0 19.5 -2t18.5 -7t14 -8t15 -10t12 -9q37 -25 57 -25q29 0 57 47q9 12 23 2l37 -32q10 -10 1 -21q-2 -3 -6 -8.5t-17 -20t-26.5 -25t-33 -19.5t-37.5 -9q-11 0 -21 2.5t-19.5 7.5t-15 8.5
t-15 11t-12.5 9.5q-32 21 -51 21q-30 0 -59 -46q-4 -6 -11 -7t-11 4zM154 116l-39 33q-10 10 -2 20q2 3 6.5 8.5t17.5 20t26.5 25t33.5 19.5t38 9q7 0 14 -1t14 -3.5t11.5 -4.5t11.5 -6.5t9.5 -6.5t10 -7.5t8.5 -6.5q38 -25 57 -25q28 0 57 47q9 12 23 2l37 -32
q10 -10 1 -21q-2 -3 -6 -8.5t-17 -20t-26.5 -25t-33 -19.5t-37.5 -9q-11 0 -21 2.5t-19.5 7.5t-15 8.5t-15 11t-12.5 9.5q-32 21 -51 21q-32 0 -59 -46q-4 -7 -11 -7t-11 5z" />
    <glyph glyph-name="notequal" unicode="&#x2260;" 
d="M190 51q-17 8 -10 24l24 52h-68q-8 0 -13.5 5.5t-5.5 13.5v57q0 8 5.5 13.5t13.5 5.5h113l53 116h-166q-8 0 -13.5 5.5t-5.5 13.5v56q0 8 5.5 13.5t13.5 5.5h210l35 75q7 17 25 9l12 -6q8 -3 10.5 -10t-1.5 -14l-25 -54h60q8 0 13.5 -5.5t5.5 -13.5v-56q0 -8 -5.5 -13.5
t-13.5 -5.5h-104l-53 -116h157q8 0 13.5 -5.5t5.5 -13.5v-57q0 -8 -5.5 -13.5t-13.5 -5.5h-201l-34 -74q-7 -16 -25 -8z" />
    <glyph glyph-name="lessequal" unicode="&#x2264;" 
d="M88 381q-10 5 -10 17v12q0 11 10 16l395 188q10 5 17.5 0.5t7.5 -15.5v-72q0 -11 -8 -14l-250 -106l250 -102q8 -5 8 -14v-73q0 -11 -8 -15.5t-17 0.5zM95 47q-7 0 -13 5.5t-6 13.5v56q0 8 6 13.5t13 5.5h394q7 0 12.5 -5.5t5.5 -13.5v-56q0 -8 -5.5 -13.5t-12.5 -5.5
h-394z" />
    <glyph glyph-name="greaterequal" unicode="&#x2265;" 
d="M117 203q-9 -5 -17 -0.5t-8 15.5v73q0 9 8 14l250 102l-250 106q-8 3 -8 14v72q0 11 7.5 15.5t17.5 -0.5l395 -188q10 -5 10 -16v-12q0 -12 -10 -17zM111 47q-7 0 -12.5 5.5t-5.5 13.5v56q0 8 5.5 13.5t12.5 5.5h394q7 0 13 -5.5t6 -13.5v-56q0 -8 -6 -13.5t-13 -5.5
h-394z" />
    <glyph glyph-name="lozenge" unicode="&#x25ca;" horiz-adv-x="650" 
d="M65 312q-19 25 -13 55q4 18 18 35l234 298q8 10 17 10h9q8 0 16 -10l235 -297q23 -31 18 -58q-2 -15 -19 -38l-234 -307q-5 -10 -16 -10h-9q-10 0 -16 10zM324 157h2l143 198l-143 190h-2l-143 -190z" />
    <glyph glyph-name="commaaccent" unicode="&#xf6c3;" horiz-adv-x="292" 
d="M70 -134q0 32 21.5 51t55.5 19q40 0 65 -25t25 -74q0 -80 -53 -137q-6 -11 -20 -2l-26 20q-13 9 -1 21q26 28 26 66v13q-20 -10 -33 -10q-27 0 -43.5 16.5t-16.5 41.5z" />
    <glyph glyph-name="uniF8FF" unicode="&#xf8ff;" horiz-adv-x="599" 
d="M50 30v640q0 30 30 30h439q30 0 30 -30v-640q0 -30 -30 -30h-439q-30 0 -30 30zM262 314q0 -12 14 -12h36q15 0 15 13v26q0 16 16.5 32t36 28.5t36 36.5t16.5 53q0 48 -35.5 79.5t-89.5 31.5q-24 0 -46.5 -6.5t-37 -15t-25.5 -17.5t-16 -15l-5 -7q-8 -12 0 -18l22 -22
q8 -6 17 0q1 1 7.5 7t9.5 9t11.5 8.5t15.5 8.5t18 5.5t22 2.5q29 0 45 -15t16 -37q0 -21 -15.5 -39t-34 -30t-34 -32.5t-15.5 -45.5v-29zM245 156q0 -20 14.5 -34t33.5 -14q20 0 34.5 14t14.5 34t-14.5 34t-34.5 14q-19 0 -33.5 -14t-14.5 -34z" />
    <glyph glyph-name="g.alt" horiz-adv-x="537" 
d="M23 78q0 25 9 46.5t21.5 34.5t25 22t21.5 13l9 3q-4 3 -10 8.5t-15.5 29t-9.5 54.5q0 80 58 131.5t144 51.5h210q22 0 22 -22v-37q0 -17 -13 -20l-67 -21q5 -3 13.5 -9.5t22 -32.5t13.5 -58q0 -70 -54 -115.5t-144 -45.5q-25 0 -55.5 5t-36.5 5q-16 0 -31 -10t-15 -29
q0 -32 46 -32h151q186 0 186 -141q0 -158 -248 -158q-236 0 -236 120q0 67 69 94v3q-86 23 -86 110zM194 283q0 -36 23.5 -55.5t61.5 -19.5t61 19.5t23 55.5t-23 55.5t-61 19.5t-61.5 -19.5t-23.5 -55.5zM165 -97q-3 -51 110 -51q123 0 123 50q0 37 -56 37h-120
q-55 0 -57 -36z" />
    <glyph glyph-name="grave.cap" horiz-adv-x="302" 
d="M224 768l-175 77q-17 8 -6 27l28 52q8 14 26 3l164 -98q12 -7 6 -19l-18 -35q-7 -15 -25 -7z" />
    <glyph glyph-name="acute.cap" horiz-adv-x="302" 
d="M84 768q-18 -8 -25 7l-18 35q-6 12 6 19l164 98q18 11 26 -3l28 -52q11 -19 -6 -27z" />
    <glyph glyph-name="circumflex.cap" horiz-adv-x="373" 
d="M86 766q-14 -8 -23 3l-26 37q-7 10 6 19l130 101q10 8 21 0l130 -101q13 -9 6 -19l-26 -37q-9 -11 -23 -3l-97 61z" />
    <glyph glyph-name="caron.cap" horiz-adv-x="373" 
d="M174 764l-130 101q-13 9 -6 19l26 37q9 11 23 3l97 -61l98 61q14 8 23 -3l26 -37q7 -10 -6 -19l-130 -101q-10 -8 -21 0z" />
    <glyph glyph-name="caron.alt" horiz-adv-x="373" 
d="M99 640q0 32 21.5 51t55.5 19q40 0 65 -25t25 -74q0 -80 -53 -137q-6 -11 -20 -2l-26 20q-13 9 -1 21q26 28 26 66v13q-20 -10 -33 -10q-27 0 -43.5 16.5t-16.5 41.5z" />
    <glyph glyph-name="tilde.cap" horiz-adv-x="380" 
d="M70 789l-29 21q-12 9 -6 23q8 15 12.5 22t19 25.5t33 27.5t39.5 9q28 0 59 -27.5t48 -27.5q12 0 21 9.5t13.5 19t13 15t17.5 -2.5l28 -20q13 -10 1 -31q-30 -52 -60 -67q-18 -9 -37 -9q-28 0 -61.5 28t-47.5 28q-15 0 -25 -15t-18 -25.5t-21 -2.5z" />
    <glyph glyph-name="dieresis.cap" horiz-adv-x="474" 
d="M360 766q-31 0 -51.5 21t-20.5 52t20.5 51.5t51.5 20.5t52 -20.5t21 -51.5t-21 -52t-52 -21zM113 766q-31 0 -51.5 21t-20.5 52t20.5 51.5t51.5 20.5t52 -20.5t21 -51.5t-21 -52t-52 -21z" />
    <glyph glyph-name="macron.cap" horiz-adv-x="414" 
d="M79 808q-8 0 -13.5 5t-5.5 13v34q0 19 19 19h256q19 0 19 -19v-34q0 -8 -5.5 -13t-13.5 -5h-256z" />
    <glyph glyph-name="breve.cap" horiz-adv-x="346" 
d="M173 766q-54 0 -93 33.5t-47 84.5q-2 9 3.5 15t14.5 6h37q13 0 17 -14q8 -23 26 -38t42 -15q21 0 39.5 15.5t26.5 37.5q3 14 17 14h39q9 0 14 -6t4 -15q-8 -51 -47.5 -84.5t-92.5 -33.5z" />
    <glyph glyph-name="ring.cap" horiz-adv-x="290" 
d="M145 754q-47 0 -80 33t-33 80t33 80t80 33t80 -33t33 -80t-33 -80t-80 -33zM145 817q19 0 33.5 15t14.5 35q0 19 -14.5 33.5t-33.5 14.5q-20 0 -35 -14.5t-15 -33.5t15.5 -34.5t34.5 -15.5z" />
    <glyph glyph-name="hungarumlaut.cap" horiz-adv-x="392" 
d="M220 768q-11 0 -16 5.5t-3 13.5l37 141q6 19 19 19h76q14 0 19 -8t-1 -17l-78 -139q-7 -15 -18 -15h-35zM54 768q-11 0 -16 5.5t-3 13.5l37 141q6 19 19 19h76q14 0 19 -7.5t-1 -17.5l-78 -139q-7 -15 -18 -15h-35z" />
    <glyph glyph-name="dotaccent.cap" horiz-adv-x="219" 
d="M109 773q-33 0 -56 23.5t-23 56.5t22.5 56t56.5 23t57 -23t23 -56t-23 -56.5t-57 -23.5z" />
    <glyph glyph-name="cedilla.cap" horiz-adv-x="247" 
d="M110 3h65l-41 -65q10 3 21 3q36 0 60.5 -23.5t24.5 -63.5q0 -46 -34 -73t-86 -27q-54 0 -84 25q-10 10 0 28l9 20q9 21 27 9q19 -16 43 -16q47 0 47 39q0 38 -46 38q-8 0 -15 -2t-14 -5t-9 -4q-7 -3 -14 4t-3 14z" />
    <glyph glyph-name="ogonek.cap" horiz-adv-x="276" 
d="M210 3q-35 -22 -67 -56.5t-32 -68.5q0 -43 39 -43q29 0 61 28q7 6 13.5 3.5t6.5 -10.5l1 -49q0 -20 -15 -31q-37 -23 -89 -23q-51 0 -78 29t-27 75q0 77 99 148z" />
    <glyph glyph-name="commaaccent.alt" horiz-adv-x="292" 
d="M237 590q0 -32 -21.5 -51t-55.5 -19q-40 0 -65 25t-25 74q0 80 53 137q6 11 20 2l26 -20q13 -9 1 -21q-26 -28 -26 -66v-13q20 10 33 10q27 0 43.5 -16.5t16.5 -41.5z" />
    <glyph glyph-name="commaaccent.cap" horiz-adv-x="292" 
d="M70 -134q0 32 21.5 51t55.5 19q40 0 65 -25t25 -74q0 -80 -53 -137q-6 -11 -20 -2l-26 20q-13 9 -1 21q26 28 26 66v13q-20 -10 -33 -10q-27 0 -43.5 16.5t-16.5 41.5z" />
    <glyph glyph-name="brokenbar.case" horiz-adv-x="186" 
d="M87 462q-8 0 -13.5 5.5t-5.5 12.5v331q0 8 5.5 13.5t13.5 5.5h13q8 0 13 -5.5t5 -13.5v-331q0 -7 -5.5 -12.5t-13.5 -5.5h-12zM68 181q0 8 5.5 13.5t13.5 5.5h13q8 0 13 -5.5t5 -13.5v-331q0 -7 -5.5 -12.5t-13.5 -5.5h-12q-8 0 -13.5 5.5t-5.5 12.5v331z" />
    <glyph glyph-name="zero.tf" 
d="M300 -10q-123 0 -189 95t-66 265q0 171 66 265.5t189 94.5t189 -94.5t66 -265.5q0 -170 -66 -265t-189 -95zM300 108q59 0 92 63.5t33 178.5t-33 178t-92 63t-92 -63t-33 -178t33 -178.5t92 -63.5z" />
    <glyph glyph-name="one.tf" 
d="M113 0q-8 0 -14 5.5t-6 13.5v73q0 8 6 13.5t14 5.5h152v432l-141 -60q-17 -4 -21 14l-10 55q-3 17 13 27l178 111q17 10 37 10h52q7 0 12.5 -5.5t5.5 -13.5v-570h132q19 0 19 -19v-73q0 -19 -19 -19h-410z" />
    <glyph glyph-name="two.tf" 
d="M270 112v-2h221q7 0 13 -6t6 -13v-71q0 -8 -5.5 -14t-13.5 -6h-406q-9 0 -14.5 6t-5.5 14v10q0 12 9 24q101 125 258 331q52 63 52 115q0 38 -28.5 65.5t-80.5 27.5q-57 0 -115 -60q-14 -16 -28 0l-49 49q-6 5 -6.5 13t5.5 14q3 4 9.5 11t26.5 24.5t42.5 30.5t56.5 24
t68 11q106 0 167.5 -59t61.5 -146q0 -32 -10.5 -62t-22 -49t-36.5 -56q-34 -50 -175 -226z" />
    <glyph glyph-name="three.tf" 
d="M69 81q-10 13 1 26l53 51q13 12 27 0q21 -18 32 -26t38 -19t56 -11q50 0 79.5 27t29.5 70q0 42 -37.5 72t-104.5 30h-57q-20 0 -20 20v65q0 21 20 21h57q62 0 95 26t33 68q0 41 -29.5 67.5t-70.5 26.5q-62 0 -104 -49q-12 -14 -28 -1l-50 47q-12 11 0 27q78 91 193 91
q93 0 156.5 -52t63.5 -137q0 -55 -31 -96t-75 -63v-4q48 -19 86 -62t38 -105q0 -89 -65.5 -145t-171.5 -56q-133 0 -214 91z" />
    <glyph glyph-name="four.tf" 
d="M44 149q-8 0 -13.5 6t-5.5 14v65q0 20 12 36l327 428q9 12 26 12h49q8 0 13.5 -6t5.5 -14v-434h83q8 0 13.5 -5t5.5 -13v-69q0 -8 -5.5 -14t-13.5 -6h-83l1 -129q0 -8 -5.5 -14t-13.5 -6h-86q-8 0 -13.5 6t-5.5 14v129h-291zM155 256v-3h184v247h-2z" />
    <glyph glyph-name="five.tf" 
d="M87 75q-11 12 -11.5 19t9.5 16l51 51q13 11 25 1q64 -58 133 -58q52 0 85.5 34.5t33.5 87.5q0 50 -32.5 82.5t-91.5 32.5h-159q-14 0 -23 11t-9 25v304q0 8 5.5 13.5t14.5 5.5h325q9 0 14.5 -5.5t5.5 -13.5v-70q0 -8 -5.5 -14t-14.5 -6h-228v-137h88q108 0 172 -63
t64 -165q0 -98 -72 -167t-177 -69q-73 0 -124.5 26.5t-78.5 58.5z" />
    <glyph glyph-name="six.tf" 
d="M64 274q0 85 28 158.5t66.5 119.5t90.5 83.5t88 54.5t70 28q23 6 29 -14l24 -61q9 -22 -19 -30q-23 -7 -52 -21t-66 -37.5t-67 -59t-41 -75.5q15 10 49.5 19.5t67.5 9.5q84 0 147 -59.5t63 -163.5q0 -97 -69 -166.5t-164 -69.5q-116 0 -180.5 81t-64.5 203zM188 259
q0 -63 31 -108.5t89 -45.5q50 0 84 34.5t34 88.5q0 50 -35 85.5t-84 35.5q-46 0 -77.5 -28t-41.5 -62z" />
    <glyph glyph-name="seven.tf" 
d="M380 587v2h-285q-8 0 -13.5 6t-5.5 14v72q0 7 6 13t13 6h436q7 0 13 -6t6 -13t-5 -18l-286 -635q-12 -28 -35 -28h-76q-26 0 -26 20q0 11 5 21z" />
    <glyph glyph-name="eight.tf" 
d="M56 187q0 62 37 105.5t88 66.5v4q-42 18 -74 60.5t-32 97.5q0 85 64 137t159 52q98 0 163 -52t65 -137q0 -54 -32.5 -96t-73.5 -61v-5q53 -22 89 -66t36 -106q0 -86 -67.5 -141.5t-179.5 -55.5q-109 0 -175.5 56t-66.5 141zM301 419q46 11 69.5 37t23.5 60
q0 37 -26.5 62.5t-69.5 25.5q-40 0 -65.5 -25.5t-25.5 -62.5q0 -74 94 -97zM193 190q0 -43 29.5 -69t78.5 -26q48 0 77.5 26t29.5 69q0 36 -28.5 66.5t-78.5 42.5q-50 -12 -79 -42.5t-29 -66.5z" />
    <glyph glyph-name="nine.tf" 
d="M139 57q-8 20 19 30q23 7 52 21t66 37.5t67 59t41 74.5q-16 -10 -50.5 -19.5t-66.5 -9.5q-84 0 -147 60t-63 164q0 97 69 166.5t164 69.5q116 0 180.5 -81t64.5 -203q0 -85 -28 -158.5t-66.5 -119.5t-90.5 -83.5t-88 -54.5t-70 -28q-22 -7 -29 14zM292 350
q46 0 77.5 28.5t41.5 62.5q0 59 -31 106t-89 47q-48 0 -83 -36.5t-35 -85.5q0 -50 35 -86t84 -36z" />
    <glyph glyph-name="zero.denom" horiz-adv-x="332" 
d="M40 148q0 75 32.5 116.5t94.5 41.5q61 0 93 -41.5t32 -116.5t-32 -116.5t-93 -41.5t-94 42t-33 116zM167 60q44 0 44 88t-44 88t-44 -88t44 -88z" />
    <glyph glyph-name="one.denom" horiz-adv-x="227" 
d="M90 9v193l-49 -4q-9 0 -9 9l-2 31q0 5 7 11l74 47h51q9 0 9 -9v-278q0 -9 -9 -9h-62q-10 0 -10 9z" />
    <glyph glyph-name="two.denom" horiz-adv-x="300" 
d="M38 9v17l110 126q25 28 25 50q0 15 -11 25t-29 10q-26 0 -44 -20q-9 -6 -16 3l-22 31q-9 12 3 21q41 34 94 34q47 0 76.5 -25.5t29.5 -66.5t-37 -86l-54 -64h80q9 0 9 -9v-46q0 -9 -9 -9h-195q-10 0 -10 9z" />
    <glyph glyph-name="three.denom" horiz-adv-x="299" 
d="M45 23q-8 8 -1 18l22 29q6 9 17 2l3 -2q2 -1 6.5 -3.5t10 -5t13 -4t14.5 -1.5q42 0 42 31q0 33 -47 33h-29q-15 0 -15 14v31q0 14 15 14h29q19 0 30 8.5t11 22.5q0 13 -10.5 21.5t-27.5 8.5q-21 0 -39 -16q-9 -5 -15 3l-24 29q-11 11 1 18q33 32 89 32q48 0 78 -22.5
t30 -60.5q0 -25 -15.5 -43t-35.5 -27v-1q60 -23 60 -76q0 -40 -33.5 -63t-83.5 -23q-58 0 -95 33z" />
    <glyph glyph-name="four.denom" horiz-adv-x="330" 
d="M26 65v51l163 177q3 3 8 3h41q9 0 9 -9v-170h40q9 0 9 -8v-43q0 -9 -9 -9h-40v-48q0 -9 -9 -9h-56q-10 0 -10 9v48h-137q-9 0 -9 8zM99 116h74v83z" />
    <glyph glyph-name="five.denom" horiz-adv-x="310" 
d="M52 28q-7 7 -1 15l27 33q7 10 15 2q21 -21 57 -21q18 0 31.5 11t13.5 27q0 17 -13 27t-35 10h-74q-15 0 -15 16v139q0 9 9 9h160q9 0 9 -9v-44q0 -9 -9 -9h-103v-39h35q54 0 84 -26t30 -73q0 -46 -34.5 -76t-90.5 -30q-63 0 -96 38z" />
    <glyph glyph-name="six.denom" horiz-adv-x="324" 
d="M46 114q0 46 20 83.5t50.5 60t53.5 34.5t42 18q13 4 18 -8l13 -34q4 -12 -9 -16q-27 -8 -60.5 -28t-43.5 -46q26 13 55 13q38 0 66.5 -25.5t28.5 -71.5q0 -43 -33.5 -73.5t-80.5 -30.5q-56 0 -88 35t-32 89zM121 106q1 -18 13.5 -32.5t31.5 -14.5q17 0 28.5 11t11.5 27
t-11.5 27.5t-28.5 11.5q-15 0 -28 -9.5t-17 -20.5z" />
    <glyph glyph-name="seven.denom" horiz-adv-x="294" 
d="M50 8v6l116 218h-109q-10 0 -10 8v47q0 9 10 9h199q9 0 9 -9v-14l-132 -264q-5 -9 -15 -9h-57q-11 0 -11 8z" />
    <glyph glyph-name="eight.denom" horiz-adv-x="324" 
d="M41 76q0 21 14.5 39.5t26 26t19.5 10.5v1q-19 8 -35 26t-16 44q0 37 32 60t79 23q48 0 80.5 -23t32.5 -60q0 -26 -16.5 -44t-35.5 -26v-1q23 -7 42 -26.5t19 -49.5q0 -37 -33.5 -61.5t-88.5 -24.5q-53 0 -86.5 24.5t-33.5 61.5zM162 182q15 1 23.5 10t8.5 21t-9.5 21.5
t-23.5 9.5q-13 0 -22.5 -9.5t-9.5 -21.5q0 -28 33 -31zM123 84q0 -14 11.5 -23t27.5 -9t27 9t11 23q0 13 -10.5 24t-27.5 12q-17 -1 -28 -12t-11 -24z" />
    <glyph glyph-name="nine.denom" horiz-adv-x="305" 
d="M72 26q-4 12 9 16q27 8 60.5 28t43.5 46q-26 -13 -55 -13q-38 0 -66.5 25.5t-28.5 71.5q0 43 33.5 73.5t80.5 30.5q56 0 88 -35t32 -89q0 -46 -20 -83.5t-50.5 -60t-53.5 -34.5t-42 -18q-13 -4 -18 8zM149 158q15 0 28 9.5t17 20.5q-1 18 -13.5 32.5t-31.5 14.5
q-17 0 -28.5 -11t-11.5 -27t11.5 -27.5t28.5 -11.5z" />
    <glyph glyph-name="zero.num" horiz-adv-x="320" 
d="M161 394q-61 0 -94 42t-33 116q0 75 32.5 116.5t94.5 41.5q61 0 93 -41.5t32 -116.5t-32 -116.5t-93 -41.5zM161 464q44 0 44 88t-44 88t-44 -88t44 -88z" />
    <glyph glyph-name="one.num" horiz-adv-x="207" 
d="M92 404q-10 0 -10 9v193l-49 -4q-9 0 -9 9l-2 31q0 5 7 11l74 47h51q9 0 9 -9v-278q0 -9 -9 -9h-62z" />
    <glyph glyph-name="two.num" horiz-adv-x="280" 
d="M37 404q-10 0 -10 9v17l110 126q25 28 25 50q0 15 -11 25t-29 10q-26 0 -44 -20q-9 -6 -16 3l-22 31q-9 12 3 21q41 34 94 34q47 0 76.5 -25.5t29.5 -66.5t-37 -86l-54 -64h80q9 0 9 -9v-46q0 -9 -9 -9h-195z" />
    <glyph glyph-name="three.num" horiz-adv-x="278" 
d="M127 394q-58 0 -95 33q-8 8 -1 18l22 29q6 9 17 2l2 -2q3 -1 7.5 -3.5t10 -5t13 -4t14.5 -1.5q42 0 42 31q0 33 -47 33h-29q-15 0 -15 14v31q0 14 15 14h29q19 0 30 8.5t11 22.5q0 13 -10.5 21.5t-27.5 8.5q-21 0 -39 -16q-9 -5 -15 3l-24 29q-11 11 1 18q33 32 89 32
q48 0 78 -22.5t30 -60.5q0 -25 -15.5 -43t-35.5 -27v-1q60 -23 60 -76q0 -40 -33.5 -63t-83.5 -23z" />
    <glyph glyph-name="four.num" horiz-adv-x="322" 
d="M179 404q-10 0 -10 9v48h-137q-9 0 -9 8v51l163 177q3 3 8 3h41q9 0 9 -9v-170h40q9 0 9 -8v-43q0 -9 -9 -9h-40v-48q0 -9 -9 -9h-56zM96 520h74v83z" />
    <glyph glyph-name="five.num" horiz-adv-x="288" 
d="M134 394q-63 0 -96 38q-7 7 -1 15l27 33q7 10 15 2q21 -21 57 -21q18 0 31.5 11t13.5 27q0 17 -13 27t-35 10h-74q-15 0 -15 16v139q0 9 9 9h160q9 0 9 -9v-44q0 -9 -9 -9h-103v-39h35q54 0 84 -26t30 -73q0 -46 -34.5 -76t-90.5 -30z" />
    <glyph glyph-name="six.num" horiz-adv-x="296" 
d="M152 394q-56 0 -88 35t-32 89q0 46 20 83.5t50.5 60t53.5 34.5t42 18q13 4 18 -8l13 -34q4 -12 -9 -16q-27 -8 -60.5 -28t-43.5 -46q26 13 55 13q38 0 66.5 -25.5t28.5 -71.5q0 -43 -33.5 -73.5t-80.5 -30.5zM152 463q17 0 28.5 11t11.5 27t-11.5 27.5t-28.5 11.5
q-15 0 -28 -9.5t-17 -20.5q1 -18 13.5 -32.5t31.5 -14.5z" />
    <glyph glyph-name="seven.num" horiz-adv-x="266" 
d="M46 404q-11 0 -11 8v6l116 218h-109q-10 0 -10 8v47q0 9 10 9h199q9 0 9 -9v-14l-132 -264q-5 -9 -15 -9h-57z" />
    <glyph glyph-name="eight.num" horiz-adv-x="310" 
d="M154 394q-53 0 -86.5 24.5t-33.5 61.5q0 21 14.5 39.5t26 26t19.5 10.5v1q-19 8 -35 26t-16 44q0 37 32 60t79 23q48 0 80.5 -23t32.5 -60q0 -26 -16.5 -44t-35.5 -26v-1q23 -7 42 -26.5t19 -49.5q0 -37 -33.5 -61.5t-88.5 -24.5zM155 586q15 1 23.5 10t8.5 21t-9.5 21.5
t-23.5 9.5q-13 0 -22.5 -9.5t-9.5 -21.5q0 -28 33 -31zM155 456q16 0 27 9t11 23q0 13 -10.5 24t-27.5 12q-17 -1 -28 -12t-11 -24q0 -14 11.5 -23t27.5 -9z" />
    <glyph glyph-name="nine.num" horiz-adv-x="296" 
d="M98 388q-13 -4 -18 8l-13 34q-4 12 9 16q27 8 60.5 28t43.5 46q-26 -13 -55 -13q-38 0 -66.5 25.5t-28.5 71.5q0 43 33.5 73.5t80.5 30.5q56 0 88 -35t32 -89q0 -46 -20 -83.5t-50.5 -60t-53.5 -34.5t-42 -18zM144 562q15 0 28 9.5t17 20.5q-1 18 -13.5 32.5t-31.5 14.5
q-17 0 -28.5 -11t-11.5 -27t11.5 -27.5t28.5 -11.5z" />
    <glyph glyph-name="parenright.case" horiz-adv-x="330" 
d="M45 -119q-17 0 -19 16l-3 65q-2 16 12 19q47 12 78.5 69t44 131.5t12.5 163.5q0 140 -33.5 248.5t-101.5 126.5q-5 1 -9 6.5t-3 11.5l3 66q0 7 5.5 11.5t13.5 3.5q44 -2 87 -33t79.5 -87.5t59 -148.5t22.5 -205t-22.5 -203t-59 -144.5t-79 -84t-87.5 -32.5z" />
    <glyph glyph-name="hyphen.case" horiz-adv-x="371" 
d="M74 282q-8 0 -13.5 5t-5.5 13v67q0 19 19 19h223q19 0 19 -19v-67q0 -8 -5.5 -13t-13.5 -5h-223z" />
    <glyph glyph-name="bracketleft.case" horiz-adv-x="353" 
d="M180 -18h130q8 0 13.5 -5.5t5.5 -12.5v-63q0 -7 -5.5 -13t-13.5 -6h-226q-8 0 -13.5 6t-5.5 13v900q0 7 5.5 13t13.5 6h226q8 0 13.5 -6t5.5 -13v-62q0 -8 -5.5 -13.5t-13.5 -5.5h-130v-738z" />
    <glyph glyph-name="bracketright.case" horiz-adv-x="353" 
d="M43 -18h130v738h-130q-8 0 -13.5 5.5t-5.5 13.5v62q0 7 6 13t13 6h226q7 0 13 -6t6 -13v-900q0 -7 -6 -13t-13 -6h-226q-7 0 -13 6t-6 13v63q0 7 5.5 12.5t13.5 5.5z" />
    <glyph glyph-name="braceleft.case" horiz-adv-x="396" 
d="M103 124v113q0 30 -22.5 47t-46.5 21q-15 2 -15 18v49q0 13 14 17q8 2 22.5 9t31 24t16.5 36v117q0 63 16.5 110.5t40.5 73.5t59.5 42.5t65.5 22t66 6.5q18 2 20 -17l4 -63q1 -16 -14 -18q-65 -14 -99.5 -49.5t-34.5 -107.5v-95q0 -30 -11 -55.5t-27.5 -41t-27 -23
t-17.5 -10.5v-4q83 -34 83 -125v-97q0 -71 34.5 -105.5t99.5 -47.5q15 -4 14 -19l-4 -63q-1 -8 -7 -13t-13 -4q-37 1 -66 6t-65 21t-60 42t-40.5 73t-16.5 110z" />
    <glyph glyph-name="bar.case" horiz-adv-x="178" 
d="M64 -150v961q0 8 5.5 13.5t13.5 5.5h13q8 0 13 -5.5t5 -13.5v-961q0 -7 -5.5 -12.5t-13.5 -5.5h-12q-8 0 -13.5 5.5t-5.5 12.5z" />
    <glyph glyph-name="braceright.case" horiz-adv-x="396" 
d="M169 124v97q0 91 83 125v4q-7 3 -17.5 10.5t-27 23t-27.5 41t-11 55.5v95q0 72 -34.5 107.5t-99.5 49.5q-15 2 -14 18l4 63q2 19 20 17q36 -1 66 -6.5t65.5 -22t59.5 -42.5t40.5 -73.5t16.5 -110.5v-117q0 -27 26.5 -46t43.5 -23q14 -4 14 -17v-49q0 -16 -15 -18
q-24 -4 -46.5 -21t-22.5 -47v-113q0 -63 -16.5 -110t-40.5 -73t-60 -42t-65.5 -21.5t-65.5 -6.5q-18 0 -20 17l-4 63q-1 15 14 19q65 13 99.5 47.5t34.5 106.5z" />
    <glyph glyph-name="guilsinglleft.case" horiz-adv-x="287" 
d="M143 159l-104 155q-8 11 0 24l109 148q7 12 18 12h57q13 0 17 -9.5t-2 -21.5l-68 -139l65 -147q6 -12 1.5 -21t-16.5 -9h-62q-9 0 -15 8z" />
    <glyph glyph-name="guilsinglright.case" horiz-adv-x="287" 
d="M66 151q-12 0 -16.5 9t1.5 21l65 147l-68 139q-6 12 -2 21.5t17 9.5h57q11 0 18 -12l109 -148q8 -13 0 -24l-104 -155q-6 -8 -15 -8h-62z" />
    <glyph glyph-name="guillemotleft.case" horiz-adv-x="487" 
d="M239 314q-8 11 0 24l109 148q7 12 18 12h57q13 0 17 -9.5t-2 -21.5l-68 -139l65 -147q6 -12 1.5 -21t-16.5 -9h-62q-9 0 -15 8zM143 159l-104 155q-8 11 0 24l109 148q7 12 18 12h57q13 0 17 -9.5t-2 -21.5l-68 -139l65 -147q6 -12 1.5 -21t-16.5 -9h-62q-9 0 -15 8z" />
    <glyph glyph-name="guillemotright.case" horiz-adv-x="487" 
d="M251 181l65 147l-68 139q-6 12 -2 21.5t17 9.5h57q11 0 18 -12l109 -148q8 -13 0 -24l-104 -155q-6 -8 -15 -8h-62q-12 0 -16.5 9t1.5 21zM66 151q-12 0 -16.5 9t1.5 21l65 147l-68 139q-6 12 -2 21.5t17 9.5h57q11 0 18 -12l109 -148q8 -13 0 -24l-104 -155
q-6 -8 -15 -8h-62z" />
    <glyph glyph-name="endash.case" horiz-adv-x="545" 
d="M75 300q-8 0 -13.5 5t-5.5 13v37q0 19 19 19h395q19 0 19 -19v-37q0 -8 -5.5 -13t-13.5 -5h-395z" />
    <glyph glyph-name="emdash.case" horiz-adv-x="765" 
d="M75 300q-8 0 -13.5 5t-5.5 13v37q0 19 19 19h615q19 0 19 -19v-37q0 -8 -5.5 -13t-13.5 -5h-615z" />
    <glyph glyph-name="bullet.case" horiz-adv-x="388" 
d="M192 185q-52 0 -90.5 38.5t-38.5 90.5q0 54 38.5 93.5t90.5 39.5q55 0 94 -39t39 -94q0 -53 -39 -91t-94 -38z" />
    <glyph glyph-name="periodcentered.case" horiz-adv-x="261" 
d="M129 257q-36 0 -62.5 26.5t-26.5 62.5q0 38 26.5 65t62.5 27q38 0 65 -27t27 -65q0 -36 -27 -62.5t-65 -26.5z" />
    <glyph glyph-name="parenleft.case" horiz-adv-x="330" 
d="M285 -119q-45 3 -87.5 32.5t-79 84t-59 144.5t-22.5 203t22.5 205t59 148.5t79.5 87.5t87 33q8 1 13.5 -3.5t5.5 -11.5l3 -66q1 -6 -3 -11.5t-9 -6.5q-68 -18 -101.5 -126.5t-33.5 -248.5q0 -89 12.5 -163.5t44 -131.5t78.5 -69q14 -3 12 -19l-3 -65q-2 -16 -19 -16z" />
    <glyph glyph-name="a.alt" horiz-adv-x="567" 
d="M503 440v-418q0 -9 -6.5 -15.5t-15.5 -6.5h-45q-15 0 -22 22l-12 36q-2 -3 -6 -7.5t-17.5 -16.5t-29.5 -21t-41.5 -16.5t-52.5 -7.5q-93 0 -156 71t-63 171t63 170.5t157 70.5q51 0 89 -19.5t56 -41.5l16 37q4 14 19 14h45q9 0 15.5 -6t6.5 -16zM376 167v128
q-10 24 -35 43.5t-65 19.5q-54 0 -84 -36.5t-30 -91.5t29.5 -91t81.5 -36q79 0 103 64z" />
    <glyph glyph-name="agrave.alt" horiz-adv-x="567" 
d="M390 528l-175 77q-16 8 -6 27l28 51q8 15 26 3l164 -97q12 -6 6 -19l-18 -36q-6 -14 -25 -6zM503 440v-418q0 -9 -6.5 -15.5t-15.5 -6.5h-45q-15 0 -22 22l-12 36q-2 -3 -6 -7.5t-17.5 -16.5t-29.5 -21t-41.5 -16.5t-52.5 -7.5q-93 0 -156 71t-63 171t63 170.5t157 70.5
q51 0 89 -19.5t56 -41.5l16 37q4 14 19 14h45q9 0 15.5 -6t6.5 -16zM376 167v128q-10 24 -35 43.5t-65 19.5q-54 0 -84 -36.5t-30 -91.5t29.5 -91t81.5 -36q79 0 103 64z" />
    <glyph glyph-name="aacute.alt" horiz-adv-x="567" 
d="M216 528q-19 -7 -26 6l-17 36q-6 11 6 19l163 97q18 12 26 -3l29 -51q9 -20 -6 -27zM503 440v-418q0 -9 -6.5 -15.5t-15.5 -6.5h-45q-15 0 -22 22l-12 36q-2 -3 -6 -7.5t-17.5 -16.5t-29.5 -21t-41.5 -16.5t-52.5 -7.5q-93 0 -156 71t-63 171t63 170.5t157 70.5
q51 0 89 -19.5t56 -41.5l16 37q4 14 19 14h45q9 0 15.5 -6t6.5 -16zM376 167v128q-10 24 -35 43.5t-65 19.5q-54 0 -84 -36.5t-30 -91.5t29.5 -91t81.5 -36q79 0 103 64z" />
    <glyph glyph-name="acircumflex.alt" horiz-adv-x="567" 
d="M169 529l-26 37q-7 10 6 19l130 101q10 8 21 0l130 -101q13 -9 6 -19l-26 -37q-9 -11 -23 -3l-97 61l-98 -61q-14 -8 -23 3zM503 440v-418q0 -9 -6.5 -15.5t-15.5 -6.5h-45q-15 0 -22 22l-12 36q-2 -3 -6 -7.5t-17.5 -16.5t-29.5 -21t-41.5 -16.5t-52.5 -7.5
q-93 0 -156 71t-63 171t63 170.5t157 70.5q51 0 89 -19.5t56 -41.5l16 37q4 14 19 14h45q9 0 15.5 -6t6.5 -16zM376 167v128q-10 24 -35 43.5t-65 19.5q-54 0 -84 -36.5t-30 -91.5t29.5 -91t81.5 -36q79 0 103 64z" />
    <glyph glyph-name="atilde.alt" horiz-adv-x="567" 
d="M174 562l-29 21q-12 9 -6 23q8 15 12.5 22t19 25.5t33 27.5t39.5 9q28 0 59 -27.5t48 -27.5q12 0 21 9.5t13.5 19t13 15t17.5 -2.5l28 -20q13 -10 1 -31q-30 -52 -60 -67q-18 -9 -37 -9q-28 0 -61.5 28t-47.5 28q-15 0 -25 -15t-18 -25.5t-21 -2.5zM503 440v-418
q0 -9 -6.5 -15.5t-15.5 -6.5h-45q-15 0 -22 22l-12 36q-2 -3 -6 -7.5t-17.5 -16.5t-29.5 -21t-41.5 -16.5t-52.5 -7.5q-93 0 -156 71t-63 171t63 170.5t157 70.5q51 0 89 -19.5t56 -41.5l16 37q4 14 19 14h45q9 0 15.5 -6t6.5 -16zM376 167v128q-10 24 -35 43.5t-65 19.5
q-54 0 -84 -36.5t-30 -91.5t29.5 -91t81.5 -36q79 0 103 64z" />
    <glyph glyph-name="adieresis.alt" horiz-adv-x="567" 
d="M386 551q-26 0 -44.5 19t-18.5 45t18.5 44.5t44.5 18.5t45 -18.5t19 -44.5t-19 -45t-45 -19zM185 551q-26 0 -44.5 19t-18.5 45t18.5 44.5t44.5 18.5t45 -18.5t19 -44.5t-19 -45t-45 -19zM503 440v-418q0 -9 -6.5 -15.5t-15.5 -6.5h-45q-15 0 -22 22l-12 36
q-2 -3 -6 -7.5t-17.5 -16.5t-29.5 -21t-41.5 -16.5t-52.5 -7.5q-93 0 -156 71t-63 171t63 170.5t157 70.5q51 0 89 -19.5t56 -41.5l16 37q4 14 19 14h45q9 0 15.5 -6t6.5 -16zM376 167v128q-10 24 -35 43.5t-65 19.5q-54 0 -84 -36.5t-30 -91.5t29.5 -91t81.5 -36
q79 0 103 64z" />
    <glyph glyph-name="amacron.alt" horiz-adv-x="567" 
d="M162 570q-8 0 -13.5 5t-5.5 13v34q0 19 19 19h256q19 0 19 -19v-34q0 -8 -5.5 -13t-13.5 -5h-256zM503 440v-418q0 -9 -6.5 -15.5t-15.5 -6.5h-45q-15 0 -22 22l-12 36q-2 -3 -6 -7.5t-17.5 -16.5t-29.5 -21t-41.5 -16.5t-52.5 -7.5q-93 0 -156 71t-63 171t63 170.5
t157 70.5q51 0 89 -19.5t56 -41.5l16 37q4 14 19 14h45q9 0 15.5 -6t6.5 -16zM376 167v128q-10 24 -35 43.5t-65 19.5q-54 0 -84 -36.5t-30 -91.5t29.5 -91t81.5 -36q79 0 103 64z" />
    <glyph glyph-name="abreve.alt" horiz-adv-x="567" 
d="M290 528q-54 0 -93 33.5t-47 84.5q-2 9 3 15.5t15 6.5h37q13 0 17 -14q8 -24 26 -38.5t42 -14.5q22 0 40 15.5t26 37.5q4 14 17 14h39q9 0 14 -6.5t4 -15.5q-8 -51 -47.5 -84.5t-92.5 -33.5zM503 440v-418q0 -9 -6.5 -15.5t-15.5 -6.5h-45q-15 0 -22 22l-12 36
q-2 -3 -6 -7.5t-17.5 -16.5t-29.5 -21t-41.5 -16.5t-52.5 -7.5q-93 0 -156 71t-63 171t63 170.5t157 70.5q51 0 89 -19.5t56 -41.5l16 37q4 14 19 14h45q9 0 15.5 -6t6.5 -16zM376 167v128q-10 24 -35 43.5t-65 19.5q-54 0 -84 -36.5t-30 -91.5t29.5 -91t81.5 -36
q79 0 103 64z" />
    <glyph glyph-name="aring.alt" horiz-adv-x="567" 
d="M286 503q-47 0 -80 33t-33 80t33 80t80 33t80 -33t33 -80t-33 -80t-80 -33zM286 566q19 0 33.5 15t14.5 35t-14 34t-34 14t-35 -14.5t-15 -33.5q0 -20 15 -35t35 -15zM503 440v-418q0 -9 -6.5 -15.5t-15.5 -6.5h-45q-15 0 -22 22l-12 36q-2 -3 -6 -7.5t-17.5 -16.5
t-29.5 -21t-41.5 -16.5t-52.5 -7.5q-93 0 -156 71t-63 171t63 170.5t157 70.5q51 0 89 -19.5t56 -41.5l16 37q4 14 19 14h45q9 0 15.5 -6t6.5 -16zM376 167v128q-10 24 -35 43.5t-65 19.5q-54 0 -84 -36.5t-30 -91.5t29.5 -91t81.5 -36q79 0 103 64z" />
    <glyph glyph-name="aringacute.alt" horiz-adv-x="567" 
d="M285 499q-48 0 -80.5 28.5t-32.5 74.5t32.5 74.5t80.5 28.5t80.5 -28.5t32.5 -74.5t-32.5 -74.5t-80.5 -28.5zM285 562q20 0 34 10.5t14 29.5t-13.5 28.5t-34.5 9.5t-35.5 -10t-14.5 -28q0 -19 14.5 -29.5t35.5 -10.5zM214 714q-19 -7 -26 6l-15 36q-7 14 6 19l161 77
q21 11 29 -3l26 -51q10 -19 -6 -27zM503 440v-418q0 -9 -6.5 -15.5t-15.5 -6.5h-45q-15 0 -22 22l-12 36q-2 -3 -6 -7.5t-17.5 -16.5t-29.5 -21t-41.5 -16.5t-52.5 -7.5q-93 0 -156 71t-63 171t63 170.5t157 70.5q51 0 89 -19.5t56 -41.5l16 37q4 14 19 14h45q9 0 15.5 -6
t6.5 -16zM376 167v128q-10 24 -35 43.5t-65 19.5q-54 0 -84 -36.5t-30 -91.5t29.5 -91t81.5 -36q79 0 103 64z" />
    <glyph glyph-name="aogonek.alt" horiz-adv-x="567" 
d="M503 440v-405q0 -20 -19 -35q-94 -68 -94 -122q0 -43 39 -43q29 0 61 28q7 6 13.5 3.5t6.5 -10.5l1 -49q0 -20 -15 -31q-37 -23 -89 -23q-51 0 -78 29t-27 75q0 48 35 90t79 69l-14 42q-2 -3 -6 -7.5t-17.5 -16.5t-29.5 -21t-41.5 -16.5t-52.5 -7.5q-93 0 -156 71
t-63 171t63 170.5t157 70.5q51 0 89 -19.5t56 -41.5l16 37q4 14 19 14h45q9 0 15.5 -6t6.5 -16zM376 167v128q-10 24 -35 43.5t-65 19.5q-54 0 -84 -36.5t-30 -91.5t29.5 -91t81.5 -36q79 0 103 64z" />
    <glyph glyph-name="gcircumflex.alt" horiz-adv-x="537" 
d="M23 78q0 25 9 46.5t21.5 34.5t25 22t21.5 13l9 3q-4 3 -10 8.5t-15.5 29t-9.5 54.5q0 80 58 131.5t144 51.5h210q22 0 22 -22v-37q0 -17 -13 -20l-67 -21q5 -3 13.5 -9.5t22 -32.5t13.5 -58q0 -70 -54 -115.5t-144 -45.5q-25 0 -55.5 5t-36.5 5q-16 0 -31 -10t-15 -29
q0 -32 46 -32h151q186 0 186 -141q0 -158 -248 -158q-236 0 -236 120q0 67 69 94v3q-86 23 -86 110zM194 283q0 -36 23.5 -55.5t61.5 -19.5t61 19.5t23 55.5t-23 55.5t-61 19.5t-61.5 -19.5t-23.5 -55.5zM165 -97q-3 -51 110 -51q123 0 123 50q0 37 -56 37h-120
q-55 0 -57 -36zM164 529l-26 37q-7 10 6 19l130 101q10 8 21 0l130 -101q13 -9 6 -19l-26 -37q-9 -11 -23 -3l-97 61l-98 -61q-14 -8 -23 3z" />
    <glyph glyph-name="gbreve.alt" horiz-adv-x="537" 
d="M23 78q0 25 9 46.5t21.5 34.5t25 22t21.5 13l9 3q-4 3 -10 8.5t-15.5 29t-9.5 54.5q0 80 58 131.5t144 51.5h210q22 0 22 -22v-37q0 -17 -13 -20l-67 -21q5 -3 13.5 -9.5t22 -32.5t13.5 -58q0 -70 -54 -115.5t-144 -45.5q-25 0 -55.5 5t-36.5 5q-16 0 -31 -10t-15 -29
q0 -32 46 -32h151q186 0 186 -141q0 -158 -248 -158q-236 0 -236 120q0 67 69 94v3q-86 23 -86 110zM194 283q0 -36 23.5 -55.5t61.5 -19.5t61 19.5t23 55.5t-23 55.5t-61 19.5t-61.5 -19.5t-23.5 -55.5zM165 -97q-3 -51 110 -51q123 0 123 50q0 37 -56 37h-120
q-55 0 -57 -36zM291 528q-54 0 -93 33.5t-47 84.5q-2 9 3 15.5t15 6.5h37q13 0 17 -14q8 -24 26 -38.5t42 -14.5q22 0 40 15.5t26 37.5q3 14 17 14h39q9 0 14 -6.5t4 -15.5q-8 -51 -47.5 -84.5t-92.5 -33.5z" />
    <glyph glyph-name="gdotaccent.alt" horiz-adv-x="537" 
d="M23 78q0 25 9 46.5t21.5 34.5t25 22t21.5 13l9 3q-4 3 -10 8.5t-15.5 29t-9.5 54.5q0 80 58 131.5t144 51.5h210q22 0 22 -22v-37q0 -17 -13 -20l-67 -21q5 -3 13.5 -9.5t22 -32.5t13.5 -58q0 -70 -54 -115.5t-144 -45.5q-25 0 -55.5 5t-36.5 5q-16 0 -31 -10t-15 -29
q0 -32 46 -32h151q186 0 186 -141q0 -158 -248 -158q-236 0 -236 120q0 67 69 94v3q-86 23 -86 110zM194 283q0 -36 23.5 -55.5t61.5 -19.5t61 19.5t23 55.5t-23 55.5t-61 19.5t-61.5 -19.5t-23.5 -55.5zM165 -97q-3 -51 110 -51q123 0 123 50q0 37 -56 37h-120
q-55 0 -57 -36zM292 528q-33 0 -56 23.5t-23 56.5t22.5 56t56.5 23t57 -23t23 -56t-23 -56.5t-57 -23.5z" />
    <glyph glyph-name="gcommaaccent.alt" horiz-adv-x="537" 
d="M23 78q0 25 9 46.5t21.5 34.5t25 22t21.5 13l9 3q-4 3 -10 8.5t-15.5 29t-9.5 54.5q0 80 58 131.5t144 51.5h210q22 0 22 -22v-37q0 -17 -13 -20l-67 -21q5 -3 13.5 -9.5t22 -32.5t13.5 -58q0 -70 -54 -115.5t-144 -45.5q-25 0 -55.5 5t-36.5 5q-16 0 -31 -10t-15 -29
q0 -32 46 -32h151q186 0 186 -141q0 -158 -248 -158q-236 0 -236 120q0 67 69 94v3q-86 23 -86 110zM194 283q0 -36 23.5 -55.5t61.5 -19.5t61 19.5t23 55.5t-23 55.5t-61 19.5t-61.5 -19.5t-23.5 -55.5zM165 -97q-3 -51 110 -51q123 0 123 50q0 37 -56 37h-120
q-55 0 -57 -36zM367 590q0 -32 -21.5 -51t-55.5 -19q-40 0 -65 25t-25 74q0 80 53 137q6 11 20 2l26 -20q13 -9 1 -21q-26 -28 -26 -66v-13q20 10 33 10q27 0 43.5 -16.5t16.5 -41.5z" />
    </font>
</defs>
</svg>
